#TITLE:Devil's Horn;
#SUBTITLE:;
#ARTIST:Juggernaut.;
#TITLETRANSLIT:;
#SUBTITLETRANSLIT:;
#ARTISTTRANSLIT:;
#GENRE:;
#CREDIT:;
#MUSIC:song.ogg;
#BANNER:bn.png;
#BACKGROUND:bg.png;
#CDTITLE:;
#SAMPLESTART:20.091;
#SAMPLELENGTH:12.000;
#SELECTABLE:YES;
#OFFSET:-0.291;
#BPMS:0.000=100.000;
#STOPS:;
#BGCHANGES:;
#FGCHANGES:;

//--------------- dance-single - Maractus (FS XO JU BR BU-) ----------------
#NOTES:
     dance-single:
     Maractus (FS XO JU BR BU-):
     Challenge:
     10:
     0.640512,0.716341,0.757466,0.482024,0.983175,586,487,99,63,52,27,0.640512,0.716341,0.757466,0.482024,0.983175,586,487,99,63,52,27:
0000
0000
0000
0000
,
0000
0000
0000
0000
,
0000
0000
0000
0000
0001
1000
0200
0000
0000
0000
0300
0100
00M0
0100
0001
2000
,
0000
0000
0000
0000
3001
1000
0020
0000
0000
0000
0030
0010
0M00
0010
0001
0000
,
0040
0000
0031
1000
0020
0000
0000
0000
0000
0000
0230
0000
0000
0000
0000
0000
,
0301
0010
1000
0010
0200
0000
0000
0000
0000
0000
2300
0000
3001
0100
00M0
0100
,
1000
0000
0100
0010
0001
1000
0020
0000
0000
0000
0030
0010
0M00
0010
0001
2000
,
0000
0000
0000
0000
0000
0000
0000
0000
3010
0M00
0010
0000
0001
1000
0010
0000
1000
0000
0100
00M0
0100
0001
1000
0000
0001
0000
0010
0M00
0010
0000
1000
0000
,
0100
00M0
0100
0000
0100
0000
0100
0000
0014
0000
0000
0000
0000
0000
1003
0000
0101
0000
0010
M000
0010
0000
1000
0000
0010
0000
0200
0000
0300
0000
0000
0000
,
1020
0000
0000
0000
2030
0000
0000
0000
3011
0000
4100
0000
0000
0000
3001
0000
1010
0000
0100
000M
0100
0000
0001
0000
0010
0000
2000
0000
3000
0000
0000
0000
,
0040
0000
0000
0000
0000
0000
0000
0000
0134
0000
0000
0000
0000
0000
1003
0000
0011
0000
0100
M000
0100
0000
1000
0000
0100
0000
0020
0000
0030
0000
0000
0000
,
1200
0000
0000
0000
2300
0000
0000
0000
3101
0000
4010
0000
0000
0000
3001
0000
1100
0000
0010
000M
0010
0000
0001
0000
0100
0000
2000
0000
3000
0000
0000
0000
,
0100
0000
0001
0000
0010
0000
0100
0000
2000
0000
0000
0000
3104
0000
1003
0000
0001
0000
0100
00M0
0100
0000
1000
0000
0100
0000
0020
0000
0030
0000
0000
0000
,
1200
0000
0000
0000
2300
0000
0000
0000
3011
0000
4100
0000
0000
0000
3001
0000
1010
0000
0100
000M
0100
0000
0001
0000
0010
0000
2000
0000
3000
0000
0000
0000
,
0040
0000
0000
0000
0000
0000
0000
0000
0134
0000
0000
0000
0000
0000
1003
0000
0011
0000
0100
M000
0100
0000
1000
0000
0100
0000
0020
0000
0030
0000
0000
0000
,
1200
0000
0000
0000
2300
0000
0000
0000
3101
0000
4010
0000
0000
0000
3001
0000
1100
0000
0010
000M
0010
0000
0001
0000
0100
0000
2000
0000
3000
0000
0000
0000
,
0100
0001
0010
0100
1000
0000
0000
0000
0010
0000
0000
0000
1000
0000
0000
0000
,
0001
0000
1000
0001
0010
0000
0000
0000
0100
0000
0000
0000
1000
0000
0000
0000
,
0001
0000
1000
0010
0100
0001
0010
0100
,
1000
0000
0000
0000
0001
0000
0000
0000
1000
0000
0100
0000
0010
0000
0001
0000
1000
0000
0010
0000
0100
0000
0001
0000
1000
0001
0010
0100
1000
0001
1000
0010
,
0200
0300
MMMM
0000
1001
0000
0000
0000
0104
0000
0000
0000
4103
0000
0000
0000
,
3011
0000
0100
M000
0100
0000
1000
0000
0010
0000
0100
0000
1000
0000
0100
0000
0040
0000
0000
0000
0000
0000
0030
0000
4010
0000
0000
0000
0000
0000
3001
0000
,
1100
0000
0010
000M
0010
0000
0001
0000
1000
0000
0000
0000
0000
0000
0000
0000
4100
0000
0000
0000
0000
0000
0000
0000
3104
0000
0000
0000
0000
0000
0000
0000
,
1013
0000
0100
000M
0100
0000
0001
0000
0010
0000
0100
0000
0001
0000
0100
0000
0040
0000
0000
0000
0000
0000
0030
0000
0014
0000
0000
0000
0000
0000
1003
0000
,
0001
0000
0000
0000
0100
0000
0010
0000
0000
0000
0000
0000
1000
0000
0001
0000
1010
0000
0100
000M
0100
0000
0001
0000
0100
0000
0020
0000
1030
0000
0001
0000
,
1200
0000
0000
0000
0302
0000
0000
0000
1103
0000
0014
0000
0000
0000
1003
0000
0101
0000
0010
M000
0010
0000
1000
0000
0100
0000
0002
0000
0103
0000
0010
0000
,
0400
0000
0000
0000
0000
0000
0000
0000
4301
0000
0000
0000
0000
0000
3001
0000
1100
0000
0010
000M
0010
0000
0001
0000
0010
0000
0200
0000
1300
0000
0001
0000
,
1020
0000
0000
0000
0032
0000
0000
0000
1013
0000
0104
0000
0000
0000
1003
0000
0011
0000
0100
M000
0100
0000
1000
0000
0010
0000
0002
0000
0013
0000
0100
0000
,
0010
1000
0100
0010
0001
0000
0000
0000
0000
0000
0000
0000
0000
0000
0000
0000
,
0000
0000
0000
0000
,
0000
0000
0000
0000
,
0000
0000
0000
0000
0000
0000
0000
0000
0001
0000
0100
00M0
0100
1000
0001
0000
1000
0000
0100
00M0
0100
0001
1000
0000
0001
0000
0010
0M00
0010
0000
1000
0000
,
0100
00M0
0100
0000
0100
0000
0100
0000
0001
0000
0000
0000
0000
0000
0000
0000
0100
0000
0000
0000
0000
0000
0000
0000
0001
0000
0000
0000
0000
0000
0000
0000
,
1000
0000
0001
1000
0100
0000
0000
0000
0010
0000
0000
0000
0001
0000
0000
0000
,
1000
0000
0001
0100
0010
1000
0100
0010
,
0001
0000
0000
0000
1000
0000
0000
0000
0001
0000
0010
0000
0100
0000
1000
0000
0001
0000
0100
0000
0010
0000
1000
0000
0001
1000
0010
0100
0001
1000
0001
0010
,
0200
0000
0300
0000
MMMM
0000
0000
0000
4010
0000
0000
0000
0000
0000
3001
0000
1100
0000
0010
000M
0010
0000
0001
0000
0010
0000
0200
0000
0300
0000
0000
0000
,
0021
0000
0000
0000
0032
0000
0000
0000
1013
0000
0104
0000
0000
0000
1003
0000
0011
0000
0100
M000
0100
0000
1000
0000
0010
0000
0002
0000
0003
0000
0000
0000
,
0040
0000
0000
0000
0000
0000
0000
0000
4130
0000
0000
0000
0000
0000
3001
0000
1010
0000
0100
000M
0100
0000
0001
0000
0100
0000
0020
0000
0030
0000
0000
0000
,
0201
0000
0000
0000
0302
0000
0000
0000
1103
0000
0014
0000
0000
0000
1003
0000
0101
0000
0010
M000
0010
0000
1000
0000
0100
0000
0002
0000
0003
0000
0000
0000
,
0100
0000
1000
0000
0010
0000
0100
0000
0002
0000
0000
0000
4103
0000
3001
0000
1000
0000
0100
00M0
0100
0000
0001
0000
0100
0000
0020
0000
0030
0000
0000
0000
,
0201
0000
0000
0000
0302
0000
0000
0000
1013
0000
0104
0000
0000
0000
1003
0000
0011
0000
0100
M000
0100
0000
1000
0000
0010
0000
0002
0000
0003
0000
0000
0000
,
0040
0000
0000
0000
0000
0000
0000
0000
4130
0000
0000
0000
0000
0000
3001
0000
1010
0000
0100
000M
0100
0000
0001
0000
0100
0000
0020
0000
0030
0000
0000
0000
,
0201
0000
0000
0000
0302
0000
0000
0000
1103
0000
0014
0000
0000
0000
1003
0000
0101
0000
0010
M000
0010
0000
1000
0000
0100
0000
0002
0000
0003
0000
0000
0000
,
0100
1000
0010
0100
0001
0000
0000
0000
4001
0000
0000
0000
3104
0000
0000
0000
,
1013
0000
0100
000M
0100
0000
0001
0000
0010
0000
0100
0000
0001
0000
0100
0000
0040
0000
0000
0000
0000
0000
0030
0000
0014
0000
0000
0000
0000
0000
1003
0000
,
0101
0000
0010
M000
0010
0000
1000
0000
0001
0000
0000
0000
0000
0000
0000
0000
0104
0000
0000
0000
0000
0000
0000
0000
4103
0000
0000
0000
0000
0000
0000
0000
,
3011
0000
0100
M000
0100
0000
1000
0000
0010
0000
0100
0000
1000
0000
0100
0000
0040
0000
0000
0000
0000
0000
0030
0000
4010
0000
0000
0000
0000
0000
3001
0000
,
1000
0000
0000
0000
0100
0000
0010
0000
0000
0000
0000
0000
0001
0000
1000
0000
0011
0000
0100
M000
0100
0000
1000
0000
0100
0000
0020
0000
0031
0000
1000
0000
,
0201
0000
0000
0000
2300
0000
0000
0000
3101
0000
4010
0000
0000
0000
3001
0000
1100
0000
0010
000M
0010
0000
0001
0000
0100
0000
2000
0000
3100
0000
0010
0000
,
0400
0000
0000
0000
0000
0000
0000
0000
1304
0000
0000
0000
0000
0000
1003
0000
0101
0000
0010
M000
0010
0000
1000
0000
0010
0000
0200
0000
0301
0000
1000
0000
,
0021
0000
0000
0000
2030
0000
0000
0000
3011
0000
4100
0000
0000
0000
3001
0000
1010
0000
0100
000M
0100
0000
0001
0000
0010
0000
2000
0000
3010
0000
0100
0000
,
0010
0001
0100
0010
2000
0000
0000
0000
0000
0000
0000
0000
0000
0000
0000
0000
,
0000
0000
3000
0000
;
