#TITLE:DOKU LO CANdy;
#SUBTITLE:;
#ARTIST:T-Pazolite;
#TITLETRANSLIT:;
#SUBTITLETRANSLIT:;
#ARTISTTRANSLIT:;
#GENRE:;
#CREDIT:;
#MUSIC:DOKU LO CANdy.ogg;
#BANNER:;
#BACKGROUND:;
#CDTITLE:;
#SAMPLESTART:53.791;
#SAMPLELENGTH:12.000;
#SELECTABLE:YES;
#OFFSET:-1.635;
#BPMS:0.000=165.024;
#STOPS:;
#BGCHANGES:;
#FGCHANGES:;

//--------------- dance-single - Maractus ----------------
#NOTES:
     dance-single:
     Maractus:
     Challenge:
     15:
     0.773,0.917,0.008,0.404,0.652:
0000
0000
0000
0000
,
0000
0000
0000
0000
,
1000
0000
0001
0010
0001
0000
1000
0000
0020
0000
0000
0230
0000
0000
0320
0000
,
2030
0000
0000
3002
0000
0000
1003
0000
0200
0000
0000
1300
0002
0000
0000
0000
,
0103
0000
0010
1000
0010
0000
1000
0000
0200
0000
0000
0320
0000
0000
0230
0000
,
1300
0010
0001
1000
0200
0000
0302
0000
,
1003
0000
0001
0100
0001
0000
0010
0000
0200
0000
0000
0320
0000
0000
0031
0000
,
2000
0000
0000
3002
0000
0000
0203
0000
0302
0000
0000
1003
0020
0000
0000
0000
,
1030
0000
0100
1000
0100
0000
0010
0000
0002
0000
0000
0203
0000
0000
0310
0000
,
0100
0001
0100
1000
0100
0001
1000
0100
,
0010
0000
0001
0000
0000
0010
0000
0001
0000
1000
0000
0000
0001
0100
0010
1000
,
0001
0000
0010
0000
1000
0000
0010
0000
0002
0000
0000
0000
1003
0000
0100
0010
,
0100
0000
0000
0000
1000
0000
0001
0010
0100
0000
0000
0000
1000
0010
1000
0000
,
0002
0000
0000
0000
0000
0000
0013
0100
0010
0000
0001
0000
1000
0000
0010
0000
,
0200
0000
0000
0000
0000
0000
0301
0010
0001
0000
0000
0000
1000
0000
0000
0000
,
0200
0000
0000
0000
0300
0000
1000
0010
0100
0000
0010
0000
1000
0000
0100
0000
,
0020
0000
0000
0000
0000
0000
0031
1000
0001
0000
0000
0000
0010
0000
0000
0000
,
0002
0000
0000
2003
0000
0000
3020
0000
0000
0030
0000
0000
1000
0000
0000
0000
,
0002
0000
0000
0003
0000
0000
0100
0000
0000
0000
0001
0000
1000
0000
0100
0000
,
1000
0000
0000
0001
0000
0000
1000
0000
0001
0100
0010
1000
0001
0010
0100
1000
,
0001
0000
0000
0000
1000
0000
0010
0100
0010
0000
0000
0000
1000
0000
0100
0000
,
0010
0000
0000
0000
0001
0000
0010
0100
0010
0000
0001
0000
0100
0000
0010
0000
,
1000
0000
0000
0000
0100
0000
0010
0001
0010
0000
0000
0000
0001
0000
0100
0000
,
0010
0000
0000
0000
1000
0000
0010
1000
0010
0000
0100
0000
0001
1000
0100
0010
,
0001
0000
0000
0000
1000
0000
0100
0010
0100
0000
0000
0000
2000
0000
0000
0000
,
3002
0000
0000
0023
0000
0000
0032
0000
0000
0000
1003
0000
0001
0000
0100
0000
,
0001
0000
0000
1000
0010
0001
1000
0100
,
0001
0000
0100
0000
0100
0000
0100
0000
0100
0000
0100
0000
0001
1000
0010
0100
,
0001
0000
1000
0000
0100
0010
0001
0100
0010
0100
0001
0000
1000
0000
0001
0000
,
0100
0000
0001
0000
1000
0010
1000
0001
1000
0000
0001
0000
0020
0000
0000
0000
,
0031
0000
1000
0000
0010
0100
0001
0010
0100
0010
0001
0000
1000
0000
0010
0000
,
1000
0000
0001
0000
1000
0100
1000
0001
1000
0000
0001
0000
0200
0000
0000
0000
,
0301
0000
0010
0000
0100
1000
0010
0100
0010
1000
0001
0000
1000
0000
0010
0000
,
1000
0000
0001
0000
0010
0001
1000
0001
0100
0000
0001
0000
1000
0000
0010
0000
,
1000
0000
0010
0000
0100
0000
0001
0000
0100
0001
1000
0001
0010
0100
0010
0001
,
2000
0000
0000
0000
0000
0000
0000
0000
0000
0000
0000
0000
3001
0000
0010
0100
,
1000
0000
0000
0010
0000
0000
1000
0000
0000
0000
0001
0000
0100
0000
0010
0000
,
1000
0000
0000
0001
0000
0000
0010
0000
0002
0000
0100
0000
0103
0000
0010
0000
,
1000
0000
0000
0100
0000
0000
0010
0000
0000
0000
0001
0000
0000
0000
0100
0000
,
0000
0001
0000
1000
0200
1000
1000
1300
,
0010
0000
0000
0100
0000
0000
0001
0000
0000
0000
0010
0000
0100
0000
0010
0000
,
0001
0000
0000
0001
0000
0000
1000
0000
0000
1000
0010
0000
0100
0000
0010
0000
,
1000
0000
0000
1000
0000
0000
0001
0000
0000
0000
1000
0000
0100
0000
0010
0000
,
0001
0000
0000
0010
0000
0000
0100
0000
0010
0001
0100
0010
1000
0000
0100
0010
,
0001
0000
0000
0100
0000
0000
0001
0000
0000
0000
1000
0000
0010
0000
0100
0000
,
0001
0000
0000
1000
0000
0000
0100
0000
2000
0000
0010
0000
3010
0000
0100
0000
,
0001
0000
0000
0010
0000
0000
0100
0000
0000
0000
1000
0000
0000
0000
0010
0000
,
0000
1000
0000
0001
0020
0001
0001
0031
,
0100
0000
0000
0010
0000
0000
1000
0000
0000
0000
0100
0000
0010
0000
0100
0000
,
1000
0000
0000
0100
0000
0000
1000
0000
0001
0000
0000
0000
0000
0000
0010
0100
,
0010
0000
0000
0001
0000
0000
1000
0000
0000
0000
0001
0000
0100
0000
0001
0000
,
1000
0010
1000
0010
0100
0001
0100
0001
1000
0100
1000
0100
0010
0001
0010
0001
,
1000
0000
0001
0000
0000
1000
0000
0010
0000
1000
0000
0000
0001
0000
1000
0000
,
0002
0000
0000
0000
,
0203
0000
0000
0302
0000
0000
1003
0000
0200
0000
0000
0000
0000
0300
0000
0000
,
0000
0000
2000
0000
0000
0000
3001
0100
0010
0100
0001
1000
0100
0010
0100
1000
,
0001
0000
0010
0002
0000
0000
0000
0000
,
2003
0000
0000
3020
0000
0000
1030
0000
0001
0000
0100
0000
0010
0000
1000
0000
,
0001
1000
0010
0010
0001
1000
0002
0000
,
1003
0100
1000
0100
0010
0001
0010
0001
1000
0010
1000
0010
0100
0001
0100
0001
,
2000
0000
0000
3001
2000
0000
0000
0000
,
3100
0000
0000
0010
0000
0000
0001
0000
0000
0100
0000
0000
0001
0010
0001
1000
,
0001
0000
1000
0100
0000
0100
0001
0000
1000
0010
1000
0000
0001
0000
0100
0010
,
1000
0000
0000
0001
0000
0000
0010
0000
0000
0000
0001
0000
0010
0000
0100
0000
,
1000
0000
0000
0010
0000
0000
1000
0000
0001
0000
0000
0000
0000
0000
0010
0000
,
0001
0000
0000
1000
0000
0000
0100
0000
0000
0000
1000
0000
0000
0000
0001
0000
,
0000
0000
0100
0000
0000
0000
0001
0000
1000
0010
0100
0001
1000
0001
0010
0100
,
1000
0000
0000
0010
0000
0000
1000
0000
0000
0000
0010
0000
0100
0000
0010
0000
,
1000
0000
0000
1000
0000
0000
0001
0000
0000
0001
0010
0000
0100
0000
0010
0000
,
0001
0000
0000
0001
0000
0000
1000
0000
0000
0000
0001
0000
0100
0000
0010
0000
,
1000
0000
0000
0010
0000
0000
0100
0000
0010
1000
0100
0010
0001
0000
0100
0010
,
1000
0000
0000
0100
0000
0000
1000
0000
0000
0000
0001
0000
0010
0000
0100
0000
,
1000
0000
0000
0001
0000
0000
0100
0000
0002
0000
0010
0000
0013
0000
0100
0000
,
1000
0000
0000
0010
0000
0000
0100
0000
0000
0000
0001
0000
0010
0000
0010
0000
,
1000
0000
0001
0100
0010
1000
0100
0010
0002
0000
0100
0000
0100
0000
0103
0000
,
0010
0000
0000
1000
0000
0000
0100
0000
0000
0000
0010
0000
0100
0000
1000
0000
,
0001
0000
0000
0100
0000
0000
0001
0000
1000
0000
0000
0000
0000
0000
0010
0100
,
0010
0000
0000
1000
0000
0000
0001
0000
0000
0000
1000
0000
0100
0000
1000
0000
,
0001
0010
0001
0010
0100
1000
0100
1000
0001
0100
0001
0100
0010
1000
0010
1000
,
0001
0000
1000
0100
1000
0000
0001
0000
0200
0000
0000
0320
0000
0000
0230
0000
,
0302
0000
0000
2003
0000
0000
3001
0000
0020
0000
0000
0031
2000
0000
0000
0000
,
3010
0000
0100
0001
0100
0000
0001
0000
0020
0000
0000
0230
0000
0000
0320
0000
,
0031
0100
1000
0001
0020
0000
2030
0000
,
3001
0000
1000
0010
1000
0000
0100
0000
0020
0000
0000
0230
0000
0000
1300
0000
,
0002
0000
0000
2003
0000
0000
3020
0000
2030
0000
0000
3001
0200
0000
0000
0000
,
0301
0000
0010
0001
0010
0000
0100
0000
2000
0000
0000
3020
0000
0000
0130
0000
,
0001
0100
0001
0100
0010
1000
0010
1000
0001
0010
0001
0010
0100
1000
0100
1000
,
0001
0000
0000
1000
0000
0010
0000
1000
0000
0000
0001
0010
0100
1000
0010
0100
,
0001
0010
1000
0010
0002
0000
0203
0300
,
2002
0000
3003
0000
;
