#VERSION:0.83;
#TITLE:DANGEROOOOUS JUNGLE;
#SUBTITLE:;
#ARTIST:Laur;
#TITLETRANSLIT:;
#SUBTITLETRANSLIT:;
#ARTISTTRANSLIT:;
#GENRE:;
#CREDIT:Maractus;
#MUSIC:song.ogg;
#BANNER:bn.png;
#BACKGROUND:bg-wide.png;
#CDTITLE:;
#SAMPLESTART:37.521000;
#SAMPLELENGTH:12.000000;
#SELECTABLE:YES;
#OFFSET:0.000000;
#BPMS:0.000000=160.000000;
#STOPS:;
#SPEEDS:0.000000=1.000000=0.000000=0;
#SCROLLS:0.000000=1.000000;
#TICKCOUNTS:0.000000=4;
#TIMESIGNATURES:0.000000=4=4;
#LABELS:0.000000=Song Start;
#COMBOS:0.000000=1;
#ORIGIN:;
#TAGS:;
#PREVIEWVID:;
#JACKET:;
#CDIMAGE:;
#DISCIMAGE:;
#BGCHANGES:;
#FGCHANGES:;

//--------------- dance-single - BU+ FL+ XO+ FS+ BR JA- ----------------
#NOTEDATA:;
#STEPSTYPE:dance-single;
#DESCRIPTION:BU+ FL+ XO+ FS+ BR JA-;
#DIFFICULTY:Challenge;
#METER:14;
#RADARVALUES:1.175301,1.19098,0.212454,0.227106,1.783883,1123,1087,29,31,37,9,2,0,0,1.175301,1.19098,0.212454,0.227106,1.783883,1123,1087,29,31,37,9,2,0,0;
#CHARTNAME:ANCIENT FIRE!!!;
#CHARTHASH:2147483647;
#BANNER:;
#CHARTSTYLE:;
#LASTSECONDHINT:131.803497;
#CREDIT:Maractus;
#NOTES:
0000
0000
0000
0000
,
0001
0000
0010
0000
0001
0100
0000
0010
0000
0010
1000
0000
0200
0000
0000
0000
,
1300
0000
0100
0000
1000
0010
0000
0100
0000
0100
0001
0000
0010
0001
1000
0001
,
0010
0000
0000
0000
0100
0000
0000
0000
1000
0000
0010
0000
0000
0000
0100
0000
0000
0000
0100
0000
0001
0000
0000
0000
1000
0000
0000
0000
0100
00M0
0100
0000
,
0001
0000
1000
0000
0100
0010
0000
0001
0000
0001
0100
0000
01M0
1000
0001
1000
,
0010
0000
0100
0000
0001
0010
0000
0100
0000
0100
1000
0000
0020
0000
0000
0000
,
1030
0000
0010
0000
1000
0100
0000
0010
0000
0010
0001
0000
0100
0001
1000
0001
,
0100
0000
0000
0000
0010
0000
0000
0000
1000
0000
0100
0000
0000
0000
0010
0000
0000
0000
0010
0000
0001
0000
0000
0000
1000
0000
0000
0000
0010
0M00
0010
0000
,
0001
0000
1000
0000
0010
0100
0000
0100
0000
0001
0010
0000
0M10
1000
0001
1000
,
0100
2000
0000
0000
0000
0000
0000
0000
3002
0000
0000
0000
0000
0000
0000
0000
1003
0000
0000
0000
0001
0000
0000
0000
0100
0000
0000
0000
0001
0000
0000
0000
,
0010
0000
0010
0000
0010
0000
0010
0000
0010
0000
0001
0100
0010
1000
0100
0010
,
0001
0000
0000
0200
0000
0000
0000
0000
0000
0000
0000
0000
0000
0000
0000
0000
0000
0000
0000
0000
0000
0000
0000
0000
0310
0000
0000
0000
0000
0000
0000
0000
0000
0000
0000
0000
1000
0000
0000
0000
0100
0000
0000
0000
0010
0000
0000
0000
0001
0000
0000
0000
0000
0000
0000
0000
0000
0000
0000
0000
0100
0000
0000
0000
0000
0000
0000
0000
0000
0000
0000
0000
0100
0000
0000
0000
0000
0000
0000
0000
0000
0000
0000
0000
0100
0000
0000
0000
0000
0000
0000
0000
0000
0000
0000
0000
,
0010
0000
0000
1000
0000
0000
0000
0000
0000
1000
0000
0000
0100
0000
0000
0000
0000
0000
1000
0000
0010
0000
0100
0000
0001
0000
0000
1000
0000
0000
0100
0000
0000
0010
0000
0000
0001
0000
0000
0010
0000
0000
0100
0000
0000
1000
0000
0000
,
0010
0000
0000
2000
0000
0000
0000
0000
0000
0000
0000
0000
0000
0000
0000
0000
0000
0000
0000
0000
0000
0000
0000
0000
3001
0000
0000
0000
0000
0000
0000
0000
0000
0000
0000
0000
1000
0000
0000
0000
0100
0000
0000
0000
0010
0000
0000
0000
0001
0000
0000
0000
0000
0000
0000
0000
0000
0000
0000
0000
1000
0000
0000
0000
0000
0000
0000
0000
0000
0000
0000
0000
0010
0000
0000
0000
0000
0000
0000
0000
0000
0000
0000
0000
1000
0000
0000
0000
0000
0000
0000
0000
0000
0000
0000
0000
,
0001
0000
0010
0000
0100
0000
1000
0000
0000
0001
0000
0000
0010
0000
0000
0001
0000
0000
1000
0000
0010
0000
0100
0000
0001
0000
0000
0000
0000
0000
0010
0000
0000
0100
0000
0000
1000
0000
0000
0010
0000
0000
0100
0000
0000
0001
0000
0000
,
0010
0000
0000
0002
0000
0000
0000
0000
0000
0000
0000
0000
0000
0000
0000
0000
0000
0000
0000
0000
0000
0000
0000
0000
1003
0000
0000
0000
0000
0000
0000
0000
0000
0000
0000
0000
0001
0000
0000
0000
0010
0000
0000
0000
0100
0000
0000
0000
1000
0000
0000
0000
0000
0000
0000
0000
0000
0000
0000
0000
0001
0000
0000
0000
0000
0000
0010
0000
0000
0000
0000
0000
0001
0000
0000
0000
1000
0000
0000
0000
0010
0000
0000
0000
0100
0000
0000
0000
0000
0000
0001
0000
0000
0000
0000
0000
,
1000
0000
0000
0000
0000
0000
0001
0000
0010
0000
0001
0000
1000
0000
0000
0000
0000
0000
0010
0000
0000
1000
0000
0000
0010
0000
0000
0000
0000
0000
1000
0000
0000
0000
0000
0000
0004
0000
0000
0000
0000
0000
0000
0000
0000
0000
0000
0000
,
1003
0000
0000
1000
0000
0000
0010
0000
0000
0010
0000
0000
0100
0000
0000
0100
0000
0000
0001
0000
0000
1000
0010
0100
,
0001
0000
0000
0000
0000
0000
1000
0000
0000
0100
0000
0000
1000
0000
0000
0000
0000
0000
0001
0000
0000
0000
0000
0000
0010
0000
0000
0000
0000
0000
0010
0000
0000
0000
0000
0000
0100
0000
0000
0000
0000
0000
1000
0000
0100
0000
0010
0000
,
0001
0000
0000
0000
0000
0000
1000
0000
0000
0001
0000
0000
1000
0000
0000
0000
0000
0000
0001
0000
0000
0000
0000
0000
0010
0000
0000
0000
0000
0000
0010
0000
0000
0000
0000
0000
0100
0000
0000
0000
0000
0000
1000
0000
0010
0000
0100
0000
,
0001
0000
1000
0010
1000
0000
0001
0000
0100
0000
0100
0000
0010
0000
0010
0000
,
1000
0100
1000
0100
0010
0001
0010
0001
1000
0010
1000
0010
0100
0001
0100
0001
,
0010
0100
1000
0010
1000
0001
0100
0010
1000
0100
1000
0010
0100
0001
0010
0001
,
1000
0000
0000
0100
0000
0000
0010
0000
0000
0001
0000
0000
0100
0000
0000
0010
0000
0000
1000
0000
0000
0100
0000
0000
0010
0000
0001
0000
1000
0000
0001
0000
0100
0000
0010
0000
1000
0000
0001
0000
1000
0000
0100
0000
0010
0000
0001
0000
,
1000
0010
1000
0001
1000
0100
1000
0001
1000
0010
1000
0001
0020
0000
0000
0000
,
0131
0000
0000
0000
0000
0000
0000
0000
1000
0100
0000
0000
0010
0001
0000
0000
1000
0010
0000
0000
0100
0001
0000
0000
0111
0000
0000
0000
0000
0000
0000
0000
,
0001
0000
0000
0000
1000
0000
0000
0000
0001
0100
0000
0000
0010
1000
0000
0000
0001
1000
0000
0000
0100
1000
0000
0000
1110
0000
0000
0000
0000
0000
0000
0000
,
1001
0000
0000
0000
0000
0000
0000
0000
1000
0010
0000
0000
0100
0001
0000
0000
1000
0100
0000
0000
0010
0001
0000
0000
0111
0000
0000
0000
0000
0000
0000
0000
,
0001
0000
0000
0000
0010
0000
0000
0000
0100
0000
0000
0000
1000
0000
0000
0000
0001
0000
0000
0000
0100
0000
0000
0000
0001
0000
0000
1000
0000
0000
0000
0000
0000
0000
0000
0000
0010
0000
0000
0100
0000
0000
0000
0000
0000
0000
0000
0000
0001
0000
0000
0010
0000
0000
0000
0000
0000
0000
0000
0000
0100
0000
0000
1000
0000
0000
0000
0000
0000
0000
0000
0000
0001
0000
0000
0000
1000
0000
0000
0000
0100
0000
0000
0000
0010
0000
0000
0000
0001
0000
0000
0000
1000
0000
0000
0000
,
0001
0010
0100
0001
0100
0010
0001
1000
0010
0100
0001
1000
0100
0010
0100
1000
,
0001
0100
0010
0001
0010
0100
0001
1000
0100
0010
0001
1000
0010
0100
0010
1000
,
0001
0010
0100
0001
0100
0010
0001
1000
0010
0100
0001
1000
0100
0010
0100
1000
,
0001
0100
0000
0000
0010
1000
0000
0000
0001
0010
0000
0000
0100
1000
0000
0000
0001
1000
0000
0000
0010
0100
0000
0000
0001
1000
0000
0000
0100
0010
0000
0000
,
0001
0100
0000
0000
0001
1000
0000
0000
0001
0010
0000
0000
0001
1000
0000
0000
0010
1000
0000
0000
0001
1000
0000
0000
1110
0000
0000
0000
0000
0000
0000
0000
,
1000
0100
0000
0000
1000
0001
0000
0000
1000
0010
0000
0000
1000
0001
0000
0000
0010
0001
0000
0000
1000
0001
0000
0000
0111
0000
0000
0000
0000
0000
0000
0000
,
0001
0010
0000
0000
0001
1000
0000
0000
0001
0100
0000
0000
0001
1000
0000
0000
0100
1000
0000
0000
0001
1000
0000
0000
1110
0000
0000
0000
0000
0000
0000
0000
,
1000
0000
0100
0000
0010
0000
0001
0000
1100
0011
1100
0011
1100
0000
0000
0000
,
0001
0010
1000
0010
0100
1000
0010
0001
0010
0100
0001
0010
0102
0000
0000
0000
,
1003
0010
0001
0010
0100
0001
0010
1000
0010
0100
1000
0010
1100
0000
0001
0000
,
1000
0100
0001
0100
0010
0001
0100
1000
0100
0010
1000
0100
2010
0000
0000
0000
,
3001
0000
0010
0000
0000
0000
0100
0000
0000
1000
0000
0000
0001
0100
0001
1000
0001
0100
0001
0000
0000
0010
0000
0000
,
0200
0000
0000
0000
0000
0000
0000
0000
0000
0000
0300
0000
0000
0000
1000
0100
,
0010
0001
0100
0010
1000
0100
0001
0100
0010
0001
1000
0010
0001
0010
0100
0000
,
1001
0000
0000
0000
1000
0000
0000
0000
0100
0000
M000
0000
0100
0000
0000
0000
0001
0000
0000
0000
0010
0000
0000
0000
0100
00M0
0100
0000
0001
0000
0000
0000
,
1000
0000
0000
0000
0010
0000
0000
0000
0100
0000
0000
0000
0001
0000
0000
0000
0000
0000
0000
0000
0000
0000
0000
0000
0100
0000
0000
0000
0000
0000
000M
0000
0000
0000
0000
0000
0100
0000
0000
0000
0000
0000
0000
0000
0000
0000
0000
0000
1000
0000
0000
0000
0000
0000
0000
0000
0000
0000
0000
0000
0010
0000
0000
0000
0000
0000
0000
0000
0000
0000
0000
0000
0100
0000
0000
00M0
0000
0000
0100
0000
0000
0000
0000
0000
1000
0000
0000
0000
0000
0000
0000
0000
0000
0000
0000
0000
,
1001
0000
0000
0000
1000
0000
0000
0000
0010
0000
M000
0000
0010
0000
0000
0000
0001
0000
0000
0000
0100
0000
0000
0000
0010
0M00
0010
0000
0001
0000
0000
0000
,
1000
0000
0000
0000
0100
0000
0000
0000
0010
0000
0000
0000
0001
0000
0000
0000
0000
0000
0000
0000
0000
0000
0000
0000
1000
0000
0000
0000
0000
0000
0000
0000
0000
0000
0000
0000
0010
0000
0000
0000
0000
0000
M000
0000
0000
0000
0000
0000
0010
0000
0000
0000
0000
0000
0000
0000
0000
0000
0000
0000
0001
0000
0000
0000
0000
0000
0000
0000
0000
0000
0000
0000
0100
0000
0000
0000
0000
0000
0000
0000
0000
0000
0000
0000
0010
0000
0000
0M00
0000
0000
0010
0000
0000
0000
0000
0000
,
0001
0000
0000
0000
1000
0000
0000
0000
0001
0100
0000
0000
0010
1000
0000
0000
0100
1000
0000
0000
0000
0000
0001
1000
0000
0000
0000
0000
0010
1000
0000
0000
,
0001
1000
0001
1000
0001
0000
0000
0000
1000
0100
0000
0000
0010
0001
0000
0000
0100
0001
0000
0000
0000
0000
1000
0001
0000
0000
0000
0000
0010
0001
0000
0000
,
0000
0000
0000
0000
0000
0000
0000
0000
0000
0000
0000
0000
1000
0000
0000
0010
0000
0000
0000
0000
0000
0000
0000
0000
0100
0000
0000
0001
0000
0000
0000
0000
0000
0000
0000
0000
0010
0000
0000
0001
0000
0000
0000
0000
0000
0000
0000
0000
0100
0000
0000
0000
0000
0000
0010
0000
0000
0000
0000
0000
1000
0000
0000
0000
0000
0000
0001
0000
0000
0000
0000
0000
0010
0000
0000
0000
0100
0000
0000
0000
1000
0000
0000
0000
0001
0000
0000
0000
1000
0000
0000
0000
0010
0000
0000
0000
,
2100
0000
0000
0000
0000
0000
0000
0000
3012
0000
0000
0000
0000
0000
0000
0000
1003
0000
0010
0M00
0010
0000
0001
0000
0100
M000
0100
0000
0010
0000
0001
0000
,
2000
0000
0000
0000
0000
0000
0000
0000
0000
0000
0000
0000
0000
0000
0000
0000
0000
0000
3000
0000
0000
0000
0001
0010
,
0001
0100
0010
1000
0100
0010
0001
0000
0000
0110
0000
0000
,
1001
0000
0000
0000
0000
0000
0000
0000
1000
0000
0100
00M0
0100
0000
0001
0000
0010
0000
0100
M000
0100
0000
0001
0000
1000
0000
0000
0000
0100
0000
0000
0000
,
1001
0000
0000
0000
0000
0000
0000
0000
0001
0000
0100
00M0
0100
0000
1000
0000
0010
0000
0100
M000
0100
0000
1000
0000
0001
0000
0000
0000
0100
0000
0000
0000
,
1001
0000
0000
0000
0000
0000
0000
0000
1000
0000
0010
0M00
0010
0000
0001
0000
0100
0000
0010
000M
0010
0000
0001
0000
1000
0000
0010
0M00
0010
0000
0001
0000
,
1000
0000
0000
0000
0000
0000
0100
0000
0000
00M0
0000
0000
0100
0000
0000
0000
0000
0000
0001
0000
0000
0000
0000
0000
1000
0000
0000
0000
0000
0000
0010
0000
0000
0M00
0000
0000
0010
0000
0000
0000
0000
0000
0001
0000
0000
0000
0000
0000
0100
0000
0000
0000
0001
0000
0000
0000
1000
0000
0000
0000
0001
0000
0000
0000
0010
0000
0000
0000
0100
0000
0000
0000
1000
0000
0000
0000
0001
0000
0000
0000
1000
0000
0000
0000
0010
0000
0000
0000
0100
0000
0000
0000
0001
0000
0000
0000
,
1000
0000
0000
0000
0000
0000
0000
0000
0001
0000
0010
0M00
0010
0000
1000
0000
0100
0000
0010
000M
0010
0000
1000
0000
0001
0000
0000
0000
0010
0000
0000
0000
,
1001
0000
0000
0000
0000
0000
0000
0000
1000
0000
0010
0M00
0010
0000
0001
0000
0100
0000
0010
000M
0010
0000
0001
0000
1000
0000
0000
0000
0010
0000
0000
0000
,
1001
0000
0000
0000
0000
0000
0001
0000
0100
0000
0010
0000
1000
0000
0000
0100
0000
0000
1000
0000
0000
0000
0000
0000
1001
0000
0000
0000
0000
0000
1000
0000
0100
0000
0010
0000
0001
0000
0000
0100
0000
0000
0001
0000
0000
0000
0000
0000
,
1000
0010
0100
0001
0010
0100
4000
0000
0000
0000
0000
0000
,
3001
0001
1000
1000
0001
0010
0100
1000
,
0010
0000
0100
0000
0001
0000
0010
0000
0010
0000
0100
0000
0100
1000
0001
1000
,
0010
0010
0100
0100
0001
0010
0100
1000
,
0010
0000
0000
0100
0000
0000
0001
0000
0000
1000
0000
0000
1000
0000
0000
0001
0000
0000
0001
0100
0010
1000
0000
0000
,
0001
0010
0001
0100
0001
1000
0001
0100
0001
0010
0001
1000
0001
0010
0100
1000
,
0010
1000
0100
1000
0001
1000
0010
1000
0100
1000
0001
1000
0010
0100
0001
0010
,
0001
0000
0000
0100
0000
0000
0010
0000
0000
1000
0000
0000
0100
0000
0000
0010
0000
0000
0001
0000
0000
0100
0000
0000
0010
0000
1000
0000
0001
0000
1000
0000
0100
0000
0010
0000
0001
0000
1000
0000
0001
0000
0100
0000
0010
0000
1000
0000
,
0001
0010
0001
1000
0001
0100
0001
1000
0001
0010
0001
1000
0020
0000
0000
0000
,
1030
0100
0000
0000
0010
0001
0000
0000
1000
0001
0000
0000
0100
0001
0000
0000
0010
0100
0000
0000
1000
0010
0000
0000
1000
0001
0000
0000
1000
0100
0000
0000
,
1000
0010
0100
0001
0010
0100
1000
0010
0100
0001
0010
0100
2000
0000
3000
0000
,
0001
0100
010M
0010
1000
0010
0002
0000
1003
0100
M100
0010
0001
0010
2000
0000
,
3001
0100
010M
0010
1000
0010
0002
0000
2003
0000
3100
0010
0001
1000
0020
0000
,
1030
0100
M100
0010
0001
0010
2000
0000
3001
0100
010M
0010
1000
0010
0002
0000
,
1003
0000
0000
0010
0000
0000
M010
0000
0000
0100
0000
0000
1000
0000
0100
0000
0010
0000
0002
0000
0000
0000
0000
0000
0103
0000
0000
010M
0000
0000
0100
0000
0000
0100
0000
0000
2000
0000
0000
0000
0000
0000
3010
0000
0000
0000
0000
0000
,
1000
0100
0010
1000
0010
0100
1000
0001
0100
0010
1000
0001
0010
0100
0010
0001
,
1000
0010
0100
1000
0100
0010
1000
0001
0010
0100
1000
0001
0100
0010
0100
0001
,
1000
0100
0010
1000
0010
0100
1000
0001
0100
0010
1000
0001
0010
0100
0010
0001
,
1000
0010
0000
0000
1000
0001
0000
0000
1000
0100
0000
0000
0010
0001
0000
0000
1000
0001
0000
0000
0100
0001
0000
0000
0111
0000
0000
0000
0000
0000
0000
0000
,
0001
0100
010M
0100
0010
0100
1000
0100
0001
0100
010M
0010
1000
0010
0200
0000
,
1300
0100
M100
0100
0010
0100
0001
0100
1000
0100
M100
0010
0001
0010
0200
0000
,
0301
0100
010M
0010
1000
0010
0002
0000
1003
0100
M100
0010
0001
0010
2000
0000
,
3001
0000
0000
0010
0000
0000
001M
0000
0000
0100
0000
0000
0001
0000
0100
0000
0010
0000
1000
0000
0000
0000
0000
0000
1001
0000
0000
0000
0000
0000
0001
0000
0100
0000
0001
0000
1000
0000
0100
0000
1000
0000
0001
0000
0000
0000
0000
0000
,
1000
0010
0100
1000
0100
0010
1000
0001
0010
0100
1000
0001
0100
0010
0100
0001
,
1000
0100
0010
1000
0010
0100
1000
0001
0100
0010
1000
0001
0010
0100
0010
0001
,
1000
0000
0000
0010
0000
0000
0100
0000
0000
1000
0000
0000
0100
0000
0000
0010
0000
0000
1000
0000
0000
0001
0000
0000
0010
0000
0000
0100
0000
0000
1000
0000
0000
0010
0000
0000
0100
0000
0001
0000
1000
0000
0001
0000
0010
0000
0100
0000
,
2000
0000
0000
0000
0000
0000
3010
0000
0000
0100
0000
0000
0001
0100
0001
1000
0001
0010
0002
0000
0000
0000
0000
0000
,
0000
0000
0000
0000
0000
0000
0000
0000
0000
0000
0000
0000
0M03
0000
0000
0000
0M00
0000
0000
0000
0000
0M00
0000
0000
;
