#TITLE:CyberConnect;
#SUBTITLE:;
#ARTIST:Blacklolita;
#TITLETRANSLIT:;
#SUBTITLETRANSLIT:;
#ARTISTTRANSLIT:;
#GENRE:;
#CREDIT:;
#MUSIC:song.ogg;
#BANNER:bn.png;
#BACKGROUND:bg.png;
#CDTITLE:;
#SAMPLESTART:79.541;
#SAMPLELENGTH:15.000;
#SELECTABLE:YES;
#OFFSET:-1.591;
#BPMS:0.000=150.000;
#STOPS:;
#BGCHANGES:;
#FGCHANGES:;

//--------------- dance-single - Maractus (BR+ FS+ BU DS BT JA- RH-) ----------------
#NOTES:
     dance-single:
     Maractus (BR+ FS+ BU DS BT JA- RH-):
     Challenge:
     11:
     0.766116,0.954776,0.89521,0.337815,0.912101,635,529,106,40,49,6,0.766116,0.954776,0.89521,0.337815,0.912101,635,529,106,40,49,6:
0000
0000
0000
0000
,
0000
0000
0000
0000
,
0000
0000
0000
0000
,
0000
0000
0000
0000
,
0000
0000
0000
0000
,
0000
0000
0000
0000
,
0000
0000
0000
0000
,
0000
0000
0000
0000
,
2000
0100
3002
0100
2003
0010
3002
0013
,
2001
0000
0000
0000
3001
0000
0100
0010
000M
0010
0100
0000
1000
0000
0000
0000
,
0001
0100
0001
0000
1000
0000
0100
0000
0010
0000
000M
0000
0010
0000
0100
0000
0000
0000
0001
0000
1000
0000
0000
0000
0010
0000
0000
0000
1000
0000
0000
0000
,
1002
0000
0000
0000
1003
0000
0100
0010
000M
0010
0100
0000
0001
0000
0000
0000
,
1000
0100
1000
0000
0001
0000
0100
0000
0010
0000
000M
0000
0010
0000
0100
0000
0000
0000
1000
0000
0001
0000
0000
0000
0010
0000
0000
0000
0001
0000
0000
0000
,
2001
3001
0010
0100
,
1000
0010
0100
0001
1000
0100
0010
0001
,
1000
0100
0010
0001
0100
0010
1000
0001
0100
0001
0010
0100
1000
0010
0100
0001
,
2000
0000
0000
0000
0000
0000
0010
0000
0000
0000
0000
0000
3002
0000
0000
0000
0000
0000
0010
0000
0000
0000
0000
0000
1003
0000
0000
0000
0000
0000
0001
0000
0100
0000
0010
0000
1000
0000
0000
0001
0000
0000
0100
0000
0000
0001
0000
0000
,
1100
0000
0000
00M0
0000
0000
0100
0000
1010
0000
0000
0000
0001
0000
0000
0000
1010
0000
0000
0M00
0000
0000
0010
0000
1100
0000
0000
0000
0001
0000
0000
0000
,
1100
0000
0000
00M0
0000
0000
0100
0000
1010
0000
0000
0000
0001
0000
0000
0000
1010
0000
0000
0M00
0000
0000
0010
0000
1100
0000
0000
0000
2001
0000
0000
0000
,
3101
0000
0000
00M0
0000
0000
0100
0000
0011
0000
0000
0000
1000
0000
0000
0000
0011
0000
0000
0M00
0000
0000
0010
0000
0101
0000
0000
0000
1000
0000
0000
0000
,
0004
0000
0000
0000
0000
0000
0000
0000
1003
0000
0100
0000
1000
0000
0100
0000
0010
0000
0001
0000
0010
0000
0001
0000
0100
00M0
0100
0000
0100
0000
0100
0000
,
1010
0000
0000
0M00
0000
0000
0010
0000
1100
0000
0000
0000
0001
0000
0000
0000
1100
0000
0000
00M0
0000
0000
0100
0000
1010
0000
0000
0000
0001
0000
0000
0000
,
1010
0000
0000
0M00
0000
0000
0010
0000
1100
0000
0000
0000
0001
0000
0000
0000
1100
0000
0000
00M0
0000
0000
0100
0000
1010
0000
0000
0000
2001
0000
0000
0000
,
3011
0000
0000
0M00
0000
0000
0010
0000
0101
0000
0000
0000
1000
0000
0000
0000
0101
0000
0000
00M0
0000
0000
0100
0000
0011
0000
0000
0000
1000
0000
0000
0000
,
0001
0100
0010
1000
0100
0010
0001
0100
0001
1000
0100
0010
0001
0100
0010
1000
,
0001
0000
1001
0000
1000
0100
0010
0110
,
0000
0000
1010
0101
1010
0000
0001
0000
1001
0000
0000
0000
1000
0001
1000
0001
,
2100
0000
0000
0000
0000
0000
3012
0000
0000
0000
0000
0000
0403
0000
0000
0000
0000
0000
0310
000M
0010
0000
0001
0000
,
2000
0000
0100
0000
3001
0000
1000
0000
0100
00M0
0100
0000
0002
0000
0100
0000
1003
0000
0001
0000
0010
0M00
0010
0000
,
1000
0100
1000
0001
0100
0001
2000
0000
0000
3100
00M0
1100
,
0014
0000
1003
0010
000M
1010
0104
0000
1003
0100
00M0
1100
,
0220
0000
0000
0330
0000
0000
2002
0000
0000
3003
0000
0000
1000
0000
0100
00M0
0100
0000
0001
0000
0010
0M00
0010
0000
,
2000
0000
0000
0000
0000
0000
0000
0000
0000
0000
0000
0000
3001
0000
0100
00M0
0100
0000
1000
0000
0010
0M00
0010
0000
,
0001
0000
0000
0000
,
0000
0000
0000
0000
,
0000
0000
0000
0000
,
0000
0000
0000
0000
,
0020
0000
0000
0000
,
0000
0000
0230
0000
,
2300
0000
0000
0000
0000
0000
0000
3000
,
0001
0000
0000
0000
0010
0000
0000
0000
0100
0000
0000
0000
1000
0000
0000
0000
0001
0000
0000
0000
0000
0000
1000
0000
0000
0000
0000
0000
0010
0000
0000
0000
0000
0000
0100
0000
0000
0000
0000
0000
0001
0000
0000
0000
0000
0000
0000
0000
1000
0000
0000
0000
0000
0000
0000
0000
0000
0000
0000
0000
0000
0000
0001
0000
0000
0000
0000
0000
0000
0000
0000
0000
0100
0000
0000
00M0
0000
0000
0100
0000
0000
0000
0000
0000
1000
0000
0000
0000
0000
0000
0001
0000
0000
0000
0000
0000
,
2100
0000
0000
0000
0001
3010
0102
0000
,
0000
0000
0000
0000
0000
0000
1003
0000
0010
0000
0100
0000
,
0012
0000
0000
0000
1000
0103
2010
0000
,
0000
0000
3002
0000
,
1003
0001
0010
0001
1000
0010
0100
0001
,
1000
0010
1000
0001
0100
0010
1000
0001
,
1000
0100
0010
0001
0100
0010
1000
0001
0100
0001
0010
0100
1000
0010
0100
0001
,
M000
0000
0000
0000
M000
0000
0000
0000
M000
0000
0000
0000
M000
0000
0000
0000
0100
00M0
0100
0000
2000
0000
0000
0000
3001
0000
0010
0000
0100
0000
1000
0000
,
0101
00M0
0100
0011
0000
1000
0011
0M00
0010
0101
0000
1000
0101
00M0
1100
0000
,
0040
0000
0000
0000
1130
000M
0100
1010
0000
0001
1010
0M00
0010
0000
1000
0000
,
0201
0000
0000
1000
0001
0010
0001
1300
0021
0000
0000
1000
0001
0100
0031
1000
,
0102
0000
1003
0040
0000
0000
0000
0030
1000
0100
0010
0001
0010
0100
1000
0001
,
1100
00M0
0100
1010
0000
0001
1010
0M00
0010
1100
0000
0001
1100
00M0
0101
0000
,
0040
0000
0000
0000
0131
M000
0100
0011
0000
1000
0011
0M00
0010
0000
0001
0000
,
1200
0000
0000
0001
1000
0010
1000
0301
1020
0000
0000
0001
1000
0100
1030
0001
,
2100
0000
3001
0040
0000
0000
0000
0030
0001
0010
0100
1000
0100
0010
0001
1000
,
0101
0000
0010
0001
1100
0000
0010
0000
1100
0001
1000
0000
0101
0000
1000
0000
,
1001
0000
1000
0000
0101
M000
0100
0010
1100
000M
0100
0010
0101
0000
1000
0000
,
0021
0000
0000
1000
0001
0100
0001
1030
0201
0000
0000
1000
0001
0010
0301
1000
,
0012
0000
1003
0400
0000
0000
0000
0300
1000
0010
0100
0001
0100
0010
1000
0001
,
1100
0000
0010
1000
0101
0000
0010
0000
0101
1000
0001
0000
1100
0000
0001
0000
,
1001
0000
0001
0000
1100
000M
0100
0010
0101
M000
0100
0010
1100
0000
0001
0000
,
1020
0000
0000
0001
1000
0100
1000
0031
1200
0000
0000
0001
1000
0010
1300
0001
,
2010
3001
0400
0000
0010
0000
0300
0000
,
0011
1000
0100
1010
0001
0100
0011
1000
,
0101
1000
0010
1100
0001
0010
0101
1000
,
0011
1000
0100
1010
0001
0100
0011
1000
,
0001
0100
0001
0000
1000
0000
0100
0000
0010
0000
M000
0000
0010
0000
0100
0000
0000
0000
0001
0000
0100
0000
0010
0000
4000
0000
0000
0000
0000
0000
0000
0000
,
3010
0010
0100
0100
0001
0001
0100
0100
,
0010
0010
1000
1000
0001
0001
0020
0000
,
0131
1000
0010
1100
0001
0010
0101
1000
,
0100
0000
0000
0000
0000
0000
0000
0000
0000
0000
0000
0000
0010
0000
0000
0000
0001
0000
0000
0000
1000
0000
0000
0000
0400
0000
0000
0000
0000
0000
0000
0000
0000
0000
0000
0000
0310
0000
0000
0000
0000
0000
0001
0000
0000
0000
0000
0000
1000
0000
0000
0000
0000
0000
0001
0000
0000
0000
0000
0000
0100
0000
0000
00M0
0000
0000
0100
0000
0000
0000
0000
0000
1000
0000
0000
0000
0000
0000
0000
0000
0000
0000
0000
0000
0001
0000
0000
0000
0000
0000
1001
0000
0000
0000
0000
0000
;
