#VERSION:0.83;
#TITLE:Connected;
#SUBTITLE:;
#ARTIST:Mwk feat. Hatsune Miku;
#TITLETRANSLIT:;
#SUBTITLETRANSLIT:;
#ARTISTTRANSLIT:;
#GENRE:;
#CREDIT:Maractus;
#MUSIC:song.ogg;
#BANNER:bn.png;
#BACKGROUND:bg-wide.png;
#CDTITLE:;
#SAMPLESTART:60.021000;
#SAMPLELENGTH:12.000000;
#SELECTABLE:YES;
#OFFSET:0.000000;
#BPMS:0.000000=100.000000;
#STOPS:;
#SPEEDS:0.000000=1.000000=0.000000=0;
#SCROLLS:0.000000=1.000000;
#TICKCOUNTS:0.000000=4;
#TIMESIGNATURES:0.000000=4=4;
#LABELS:0.000000=Song Start;
#COMBOS:0.000000=1;
#ORIGIN:;
#PREVIEWVID:;
#JACKET:;
#CDIMAGE:;
#DISCIMAGE:bg.png;
#BGCHANGES:;
#FGCHANGES:;

//--------------- dance-single - FS+ JA+ BR DS BU- XO- ----------------
#NOTEDATA:;
#STEPSTYPE:dance-single;
#DESCRIPTION:FS+ JA+ BR DS BU- XO-;
#DIFFICULTY:Challenge;
#METER:11;
#RADARVALUES:0.717875,0.917714,0.375209,0.435511,1.035176,750,694,56,65,26,19,0,0,0,0.717875,0.917714,0.375209,0.435511,1.035176,750,694,56,65,26,19,0,0,0;
#CHARTNAME:Play Vs Burn With Miku!;
#CHARTSTYLE:;
#CREDIT:Maractus;
#NOTES:
0000
0000
0000
0000
,
0000
0000
0000
0000
,
0000
0000
0000
0000
,
0000
0000
0000
0000
,
0000
0000
0000
0000
0000
0000
0000
0000
0001
0100
0001
0000
1000
0000
0010
0000
0100
0000
0001
0000
2000
0000
0000
0000
3002
0000
0000
0000
0010
0000
0000
0000
,
2003
3200
0010
2300
0100
3002
1000
0100
,
2003
3200
1000
0320
0001
2030
0001
0100
,
0001
0010
0001
0100
0001
0010
3001
1000
,
0010
0000
0000
0000
0100
0000
0000
0000
0001
0010
0001
0000
1000
0000
0100
0000
0010
0000
0001
0000
2000
0000
0000
0000
3002
0000
0000
0000
0100
0000
0000
0000
,
2003
0000
3020
0000
0100
0000
2030
0000
0010
0000
3001
0100
0020
0000
1000
0000
,
0230
0302
1000
0023
0001
0230
1000
0320
,
0032
1000
0100
1000
0010
1000
0103
0001
,
0100
0000
0010
0000
1000
0000
0100
0000
0010
0000
0002
0000
1003
0001
0010
0100
,
1000
0001
0100
0010
0100
0001
0010
0100
1000
0010
1000
0100
0010
0100
1000
0010
,
0100
0001
1000
0100
0010
0001
0100
0010
1000
0001
0010
0001
0100
0010
1000
0001
,
0100
0010
0100
0001
1000
0100
0010
0001
0100
0001
0010
0100
1000
0010
0100
0001
,
1000
0001
0100
0010
1000
0001
0100
0001
0010
0100
1000
0001
0100
0010
1000
0001
,
0010
0001
1000
0010
0100
0001
0010
0100
0010
0001
1000
0100
0010
0001
1000
0100
,
1000
0010
0100
0010
1000
0001
0010
0100
1000
0001
0100
0010
1000
0100
1000
0100
,
0010
0001
0010
0001
1000
0010
1000
0010
0100
0001
0100
0001
0100
010M
0100
0100
,
0100
0100
0100
0100
0100
0100
0100
0001
1000
0000
0010
0000
2100
0000
0000
0000
,
3001
0000
0100
00M0
0100
0000
0100
0000
0010
0000
0100
000M
0100
0000
0100
0000
0001
0000
0100
00M0
0100
0000
0100
0000
0012
0000
0000
0000
0000
0000
0000
0000
,
1003
0000
0100
00M0
0100
0000
0100
0000
0010
0000
0100
M000
0100
0000
0100
0000
2010
0000
0000
0000
0000
0000
0000
0000
3102
0000
0000
0000
0000
0000
0000
0000
,
2003
0000
0000
0000
3010
0M00
0010
0000
0001
0000
1000
0000
0010
0000
0100
0000
1000
0000
0100
0000
0001
0000
1000
0000
0001
0000
0010
0000
0100
0000
0000
0000
,
1001
0000
0000
0000
0001
0000
0001
0000
1000
0000
0010
0000
0100
M000
0100
0000
1000
0000
0001
0000
0020
0000
0000
0000
0132
0000
0000
0000
0000
0000
0000
0000
,
1003
0000
0010
0M00
0010
0000
0010
0000
0100
0000
0010
M000
0010
0000
0010
0000
1000
0000
0010
0M00
0010
0000
0010
0000
2100
0000
0000
0000
0000
0000
0000
0000
,
3001
0000
0010
0M00
0010
0000
0010
0000
0100
0000
0010
M000
0010
0000
0010
0000
0102
0000
0000
0000
0000
0000
0000
0000
2013
0000
0000
0000
0000
0000
0000
0000
,
3002
0000
0000
0000
0103
00M0
0100
0000
1000
0000
0001
0000
0010
0000
0100
0000
0001
0000
0100
0000
1000
0000
0001
0000
2010
0000
0000
0000
0000
0000
0000
0000
,
3100
0010
0001
1000
0010
0100
0010
0100
0001
0000
0010
0000
0101
1000
0100
0010
,
0001
0100
0010
0010
1000
1000
0100
0100
0010
0010
0001
0001
2010
0000
0000
0000
,
3101
1000
1000
0010
0010
0100
0100
0001
2010
0000
0000
0000
3101
1000
0010
0100
,
0001
0010
0100
0100
1000
1000
0010
0010
0100
0100
0001
0001
2000
0001
3002
0000
,
0103
0010
1000
1000
0001
0001
0100
0100
0010
1000
0200
0000
1310
0001
0100
0010
,
1000
0100
0010
0010
0001
0001
0100
0100
0010
0010
1000
1000
0012
0000
0000
0000
,
1103
0001
0001
0010
0010
0100
0100
1000
0012
0000
0000
0000
1103
0001
0010
0100
,
1000
0010
0100
0100
0001
0100
0010
0100
0001
1000
0100
1000
0020
0000
0230
0000
,
0311
0000
0000
0000
1000
0000
0011
0000
0000
0000
0100
0000
0011
0000
1000
0100
1000
0000
0001
0000
2000
0000
0000
0000
3001
0000
0100
0000
0010
0000
1000
0000
,
0000
0000
1000
0100
0010
0001
0000
0000
0000
0000
0000
0000
0001
0010
0100
1000
,
0000
0000
1000
0010
0100
0001
0000
0100
000M
0100
0010
0001
0100
0010
1000
0001
,
0000
0000
0001
0010
0100
1000
0000
0000
0000
0000
0000
0000
1000
0100
0010
0001
,
0000
0000
0001
0100
0010
1000
0000
0100
M000
0100
0010
1000
0101
1000
0010
0100
,
0011
0100
0010
1000
0101
0010
0100
1000
0011
1000
0100
0010
0101
0010
0001
0100
,
0011
0000
0000
0100
0000
0000
0001
0000
0000
0010
0000
0000
0101
0000
0000
0010
0000
0000
0001
0000
0000
0100
0000
0000
0011
0000
0000
0100
0000
0000
0001
0000
0000
0010
0000
0000
0001
0000
1000
0000
0100
0000
0010
0000
0100
0000
1000
0000
,
0001
0100
0010
1000
0001
0010
0100
0010
0001
1000
0100
0010
0001
0100
0010
1000
0100
0010
0002
0000
0000
0000
0000
0000
,
0000
0000
0000
0000
0000
0000
0000
0000
0103
00M0
0100
0000
0100
0000
0100
0000
1000
0000
0000
0000
0010
0000
0000
0000
2100
0000
0000
0000
0000
0000
0000
0000
,
3011
0000
0000
0000
1200
0000
0000
0000
0000
0000
0000
0000
0000
0000
0000
0000
0311
0000
0000
0000
0100
00M0
0100
0000
1000
0000
0000
0000
1000
0000
0000
0000
,
0101
1000
0002
0000
0013
1000
0010
0100
1000
0000
0001
0010
0102
0000
0000
0000
,
1013
0000
0000
0000
0201
0000
0000
0000
0000
0000
0000
0000
0000
0000
0000
0000
1310
0000
0000
0000
0100
M000
0100
0000
0001
0000
0000
0000
0001
0000
0000
0000
,
1100
0000
0001
0000
2000
0000
0000
0000
3100
00M0
0100
0000
0100
0000
0100
0000
0001
0000
0100
0000
1000
0000
0100
0000
0012
0000
0000
0000
0000
0000
0000
0000
,
1103
0000
0000
0000
0021
0000
0000
0000
0000
0000
0000
0000
0000
0000
0000
0000
1130
0000
0000
0000
0010
0M00
0010
0000
0001
0000
0000
0000
0001
0000
0000
0000
,
1010
0001
2000
0000
3100
0001
0100
0010
0001
0000
1000
0100
2010
0000
0000
0000
,
3101
0000
0000
0000
1020
0000
0000
0000
0000
0000
0000
0000
0000
0000
0000
0000
0131
0000
0000
0000
0010
000M
0010
0000
1000
0000
0000
0000
1000
0000
0010
0000
,
0100
0000
0010
0000
1000
0000
0001
0000
0100
00M0
0100
0000
0100
0000
0100
0000
1000
0000
0010
0000
0001
0000
0010
0000
0100
0000
0010
0000
M000
0000
0010
0000
,
0100
1000
0001
0010
0010
0100
0100
1000
1000
0001
0001
0100
0010
0000
1000
0000
,
0101
0000
1000
1000
0100
0010
0001
0001
2100
0000
0000
0000
3011
1000
0100
0010
,
0001
0100
0010
0010
1000
1000
0100
0100
0010
0010
0001
0001
2000
0000
3002
0000
,
0013
0100
1000
0001
0100
010M
0100
0100
1000
0001
1000
0100
0010
0100
M000
0100
,
0010
1000
0001
0100
0100
0010
0010
1000
1000
0001
0001
0010
0100
0000
1000
0000
,
0011
0000
1000
1000
0010
0100
0001
0001
2010
0000
0000
0000
3001
1000
0010
0100
,
0001
0010
0100
0100
1000
0010
0100
0010
1000
0001
0100
0001
0020
0000
0000
0000
,
0031
1000
0010
0100
0001
1000
0001
1000
0200
0000
0320
0000
0132
0000
0003
0000
;
