#VERSION:0.83;
#TITLE:BIG SHOT;
#SUBTITLE:;
#ARTIST:Toby Fox;
#TITLETRANSLIT:;
#SUBTITLETRANSLIT:;
#ARTISTTRANSLIT:;
#GENRE:;
#CREDIT:Maractus;
#MUSIC:song.ogg;
#BANNER:bn.png;
#BACKGROUND:bg-wide.png;
#CDTITLE:;
#SAMPLESTART:41.133000;
#SAMPLELENGTH:13.600000;
#SELECTABLE:YES;
#OFFSET:-0.060000;
#BPMS:0.000000=140.000000;
#STOPS:;
#SPEEDS:0.000000=1.000000=0.000000=0;
#SCROLLS:0.000000=1.000000;
#TICKCOUNTS:0.000000=4;
#TIMESIGNATURES:0.000000=4=4;
#LABELS:0.000000=Song Start;
#COMBOS:0.000000=1;
#DISPLAYBPM:140.000000;
#ORIGIN:;
#TAGS:;
#PREVIEWVID:;
#JACKET:;
#CDIMAGE:;
#DISCIMAGE:;
#BGCHANGES:;
#FGCHANGES:;

//--------------- dance-single - BR+ FS+ DS+ BU SS JA FL- XO- ----------------
#NOTEDATA:;
#STEPSTYPE:dance-single;
#DESCRIPTION:BR+ FS+ DS+ BU SS JA FL- XO-;
#DIFFICULTY:Challenge;
#METER:12;
#RADARVALUES:0.894105,1.092733,0.505756,0.428488,1.257367,891,819,72,61,71,0,1,0,0,0.894105,1.092733,0.505756,0.428488,1.257367,891,819,72,61,71,0,1,0,0;
#DISPLAYBPM:140.000000;
#CHARTNAME:This Chart Is Worth Kromer;
#CHARTHASH:2926426202;
#BANNER:;
#CHARTSTYLE:;
#LASTSECONDHINT:140.408142;
#CREDIT:Maractus;
#NOTES:
0000
0000
0000
0000
,
0000
0000
0000
0000
,
0000
0000
0000
0000
,
0000
0000
0000
0000
,
0000
0000
1000
0000
0000
1000
0000
0000
1000
0000
0000
0100
0000
0000
1000
0000
,
0000
0000
0001
0000
0000
0001
0000
0000
0100
0000
0000
0010
0000
0000
1000
0000
,
0000
0000
0001
0000
0000
0001
0000
0000
0001
0000
0000
0010
0000
0000
0001
0000
,
0000
0000
1000
0000
0000
1000
0000
0000
1000
0000
0000
0100
0000
0000
1000
0000
,
0001
0000
0000
0000
1000
0000
0100
0000
0000
0000
0100
0000
1000
0000
0000
0000
1000
0000
0010
0M00
0010
0000
0001
0000
2000
0000
0000
0000
3010
0000
0000
0000
,
1000
0000
0000
0000
0001
0000
0100
0000
0000
0000
0100
0000
0001
0000
0000
0000
0001
0000
0010
0M00
0010
0000
1000
0000
0002
0000
0000
0000
0013
0000
0000
0000
,
0001
0000
0000
0000
1000
0000
0010
0000
0000
0000
0010
0000
1000
0000
0000
0000
1000
0000
0100
00M0
0100
0000
0001
0000
2000
0000
0000
0000
3100
0000
0000
0000
,
1000
0000
0001
0010
0000
0010
0001
0000
1000
0010
1000
0010
0100
0001
0100
0001
,
2000
0000
0000
0000
3001
0000
0010
0000
0000
0000
0010
0000
0001
0000
0000
0000
0001
0000
0100
00M0
0100
0000
1000
0000
0020
0000
0000
0000
0130
0000
0000
0000
,
0001
0000
0000
0000
1000
0000
0010
0000
0000
0000
0010
0000
1000
0000
0000
0000
1000
0000
0100
00M0
0100
0000
0001
0000
0020
0000
0000
0000
0130
0000
0000
0000
,
1000
0000
0000
0000
0001
0000
0100
0000
0000
0000
0100
0000
0001
0000
0000
0000
0001
0000
0010
0M00
0010
0000
1000
0000
0200
0000
0000
0000
0310
0000
0000
0000
,
0001
0000
1000
0100
0000
0100
1000
0000
0001
0100
0001
0100
0010
1000
0010
1000
,
0001
0000
1100
0001
0000
1100
0010
0000
1100
0001
0000
1100
0010
000M
1010
0000
,
0000
0000
0101
1000
0000
0101
0010
M000
0011
1000
0000
0011
0100
M000
0101
0000
,
0000
0000
1010
0001
0000
1010
0100
0000
1010
0001
0000
1010
0100
000M
1100
0000
,
0000
0000
0011
1000
0000
0011
0100
0000
0101
1000
0000
0101
0010
M000
0011
0000
,
0M00
0000
1010
0001
0000
1010
0100
0000
1010
0001
0000
1010
0100
000M
1100
0000
,
0000
0000
0011
1000
0000
0011
0100
M000
0101
1000
0000
0101
0010
M000
0011
0000
,
0000
0000
1100
0001
0000
1100
0010
0000
1100
0001
0000
1100
0010
000M
1010
0000
,
0000
0000
0101
1000
0000
0101
0010
M000
0011
1000
0000
0011
0100
M000
0101
0000
,
1000
0000
0010
0000
0200
0000
0301
0000
1000
0001
0100
0000
1M00
0000
0010
0000
,
1000
0000
0000
0001
0000
0000
0100
0000
0000
0000
0000
0000
1M00
0000
0000
0001
0000
0000
0100
0000
0000
0000
0000
0000
0001
0000
0000
0100
0000
0000
0010
0000
1000
0000
0001
0000
0020
0000
0000
0000
0000
0000
0130
0000
0000
0000
0000
0000
,
1010
0000
0100
1010
0001
1000
0001
0100
0011
0000
0100
0011
1000
0001
1000
0010
,
1100
0000
0000
0000
0000
0000
0010
0000
0000
1100
0000
0000
0001
0000
0000
1000
0000
0000
0001
0000
0000
0010
0000
0000
0001
0000
0100
0000
0001
0000
1000
0000
0100
0000
0010
0000
0001
0000
0000
1000
0000
0000
0100
0000
0000
1000
0000
0000
,
0001
0000
0100
0000
0020
0000
1030
0000
0001
1000
0010
0000
00M1
0000
0100
0000
,
0001
0000
0000
1000
0000
0000
0010
0000
0000
0000
0000
0000
00M1
0000
0000
1000
0000
0000
0010
0000
0000
0000
0000
0000
1000
0000
0000
0010
0000
0000
0100
0000
0001
0000
1000
0000
0200
0000
0000
0000
0000
0000
0310
0000
0000
0000
0000
0000
,
0101
0000
0010
0101
1000
0001
1000
0010
1100
0000
0010
1100
0001
1000
0001
0100
,
0011
0000
0000
0000
0000
0000
0100
0000
0000
0011
0000
0000
1000
0000
0000
0001
0000
0000
1000
0000
0000
0100
0000
0000
1000
0000
0010
0000
1000
0000
0001
0000
0010
0000
0100
0000
1000
0000
0000
0001
0000
0000
0010
0000
0000
0001
0000
0000
,
2000
0000
0000
0001
0000
0000
0010
0000
0000
0001
0000
0000
0100
0000
0010
0000
,
3001
0100
0010
1000
0200
0000
0310
0001
,
2000
0000
0000
0001
0000
0000
0010
0000
0000
0001
0000
0000
3100
0000
0010
0000
,
0001
0000
1000
0000
0010
0000
0100
0000
0001
0000
0010
0000
0001
1000
0001
1000
,
0200
0000
0000
0010
0000
0000
0001
0000
0000
0010
0000
0000
1300
0000
0100
0000
,
0020
0000
0000
0000
0100
0000
0000
0000
0032
0000
0000
0000
0010
0000
0000
0000
0203
0000
0000
0000
0010
0000
0000
0000
0301
0000
0000
0000
1000
0100
0000
0000
,
0020
0000
0000
0001
0000
0000
0100
0000
0000
1000
0000
0000
0130
0000
0010
0000
,
0002
0000
0000
1000
0000
0000
0100
0000
0000
1000
0000
0000
0013
0000
0100
0000
,
1000
0100
0010
0001
0020
0M00
1030
0001
0010
0100
1000
0001
0200
00M0
1300
0000
,
0001
0100
0010
1000
0020
0M00
0031
1000
0100
0100
0100
0100
0200
00M0
0301
0000
,
1000
0010
0100
0001
0200
00M0
1300
0001
0100
0010
1000
0001
0020
0M00
1030
0000
,
0001
0010
0100
1000
0200
00M0
0301
1000
0010
0001
0010
0100
0002
0000
1003
0000
,
0001
0010
0100
1000
0200
00M0
0301
1000
0100
0010
0001
1000
0020
0M00
0031
0000
,
1000
0010
0100
0001
0200
00M0
1300
0001
0100
0100
0100
0100
0200
00M0
1300
0000
,
0001
0100
0010
1000
0020
0M00
0031
1000
0010
0100
0001
1000
0200
00M0
0301
0000
,
1000
0100
0010
0001
0020
0M00
1030
0001
0100
1000
0100
0010
2000
0000
3001
0000
,
1000
0000
0000
0000
0001
0000
0100
0000
0000
0000
0100
0000
0001
0000
0000
0000
0001
0000
0010
0M00
0010
0000
1000
0000
0002
0000
0000
0000
0013
0000
0000
0000
,
0001
0000
0000
0000
1000
0000
0100
0000
0000
0000
0100
0000
1000
0000
0000
0000
1000
0000
0010
0M00
0010
0000
0001
0000
2000
0000
0000
0000
3010
0000
0000
0000
,
1000
0000
0000
0000
0001
0000
0010
0000
0000
0000
0010
0000
0001
0000
0000
0000
0001
0000
0100
00M0
0100
0000
1000
0000
0002
0000
0000
0000
0103
0000
0000
0000
,
0010
0000
0000
0000
0000
0000
1000
0000
0000
0001
0000
0000
0000
0000
0000
1000
0000
0000
0010
0000
0000
0000
0000
0000
0200
0000
0000
0000
0000
0000
0304
0000
0000
0000
0000
0000
1003
0000
0100
0000
0010
0000
0001
0000
0010
0000
0100
0000
,
2000
0000
0000
0000
3001
0000
0100
0000
0000
0000
0100
0000
0001
0000
0000
0000
0001
0000
0010
0M00
0010
0000
1000
0000
0200
0000
0000
0000
0310
0000
0000
0000
,
0001
0000
1000
0100
0000
1000
0010
0000
0100
0001
0000
0010
0001
0000
1000
0010
0000
1000
0100
0000
0010
0001
0000
1000
,
0001
0000
0000
0000
2000
0000
0000
0000
3100
00M0
0100
0000
0001
0000
0100
0000
0010
0000
1000
0000
0100
0000
0010
0000
0002
0000
0000
0000
1003
0000
0000
0000
,
0010
0000
1000
0001
0000
1000
0100
0000
1000
0001
0100
0010
1000
0100
0010
0001
,
1000
0000
0000
0000
0010
0000
0000
0000
1000
0000
0000
0000
0001
0000
0000
0000
1000
0000
1000
0000
0000
0000
0001
0000
0000
0000
1000
0000
0100
00M0
0100
0000
,
0001
0000
0000
0000
0010
0000
0000
0000
0001
0000
0000
0000
1000
0000
0000
0000
0001
0000
0001
0000
0000
0000
0010
0000
0000
0000
0001
0000
0010
0M00
0010
0000
,
1000
0000
0000
0000
0100
0000
0000
0000
1000
0000
0000
0000
0001
0000
0000
0000
1000
0000
1000
0000
0000
0000
0001
0000
0000
0000
1000
0000
0010
0M00
0010
0000
,
0001
0000
1000
0010
0000
1000
0100
0000
0010
0001
0000
0100
0001
0000
1000
0100
0000
1000
0010
0000
0100
0001
0000
1000
,
0001
0000
0000
0000
0010
0000
0000
0000
0001
0000
0000
0000
1000
0000
0000
0000
0001
0000
0001
0000
0000
0000
1000
0000
0000
0000
0001
0000
0100
00M0
0100
0000
,
1000
0000
0000
0000
0010
0000
0000
0000
1000
0000
0000
0000
0001
0000
0000
0000
1000
0000
1000
0000
0000
0000
0010
0000
0000
0000
1000
0000
0010
0M00
0010
0000
,
0001
0000
0000
0000
0100
0000
0000
0000
0001
0000
0000
0000
1000
0000
0000
0000
0001
0000
0001
0000
0000
0000
1000
0000
0000
0000
0001
0000
0010
0M00
0010
0000
,
1000
0000
0000
0000
0100
0000
0000
0000
0010
0000
0000
0000
0001
0000
0000
1000
0020
0000
0000
0000
1030
0001
0200
0000
0000
0000
0000
0000
0301
0000
0000
0000
,
1000
0000
0101
1000
0000
0101
0010
0000
0101
1000
0000
0101
0010
M000
0011
0000
,
0000
0000
1100
0001
0000
1100
0010
000M
1010
0001
0000
1010
0100
000M
1100
0000
,
0000
0000
0011
1000
0000
0011
0100
0000
0011
1000
0000
0011
0100
M000
0101
0000
,
0000
0000
1010
0001
0000
1010
0100
000M
1100
0001
0000
1100
0010
000M
1010
0000
,
0001
0000
0010
0000
0200
0000
1300
0000
0001
1000
0100
0000
0M01
0000
1000
0000
,
0001
0000
0000
1000
0000
0000
0100
0000
0000
0000
0000
0000
0M01
0000
0000
1000
0000
0000
0100
0000
0000
0000
0000
0000
1000
0000
0000
0100
0000
0000
0010
0000
0001
0000
1000
0000
0020
0000
0000
0000
0000
0000
1030
0000
0000
0001
0000
0000
,
1000
0000
0100
0000
0020
0000
0031
0000
1000
0001
0010
0000
10M0
0000
0001
0000
,
1000
0000
0000
0001
0000
0000
0010
0000
0000
0000
0000
0000
10M0
0000
0000
0001
0000
0000
0010
0000
0000
0000
0000
0000
0001
0000
0000
0010
0000
0000
0100
0000
1000
0000
0001
0000
0200
0000
0000
0000
0000
0000
0301
0000
0000
1000
0000
0000
,
0001
0000
0010
1000
00M0
1000
0100
00M0
0100
0001
0000
0010
0001
0000
2000
0000
,
3001
0000
0100
1000
0M00
1000
0010
0000
0100
0001
0000
0010
0001
0000
2000
0000
,
3001
0000
0010
1000
00M0
1000
0100
00M0
0100
0001
0000
0010
0001
0000
2000
0000
,
3001
0000
0000
0000
0100
0000
1000
0000
0000
0000
0100
0000
0001
0000
0000
0000
1000
0000
0000
0000
1000
0001
0100
0001
1000
0000
0000
0000
0002
0000
0000
0000
,
1003
0000
0010
0001
00M0
0001
0100
00M0
0100
1000
0000
0010
1000
0000
0002
0000
,
1003
0000
0100
0001
0M00
0001
0010
0000
0100
1000
0000
0010
1000
0000
0002
0000
,
1003
0000
0010
0001
00M0
0001
0100
00M0
0100
1000
0000
0010
1000
0000
0002
0000
,
1003
1000
1000
1000
1000
1000
1000
1000
,
0001
0000
0000
0000
0010
0000
0000
0000
0100
0000
0000
0000
1000
0000
0000
0001
0200
0000
0000
0000
0301
1000
0020
0000
0000
0000
0000
0000
1030
0000
0000
0000
,
0001
0000
0000
0000
0000
0000
0000
0000
1000
0000
0000
0000
0001
0000
0000
0000
0000
0000
0000
0000
0000
0000
0000
0000
0100
0000
0000
0000
0000
0000
0000
0000
0000
0000
0000
0000
0010
0000
0000
0000
0000
0000
0000
0000
0000
1000
0000
0000
0020
0000
0000
0000
0000
0000
0000
0000
0000
0000
0000
0000
1030
0000
0000
0001
0000
0000
0200
0000
0000
0000
0000
0000
0000
0000
0000
0000
0000
0000
0000
0000
0000
0000
0000
0000
0301
0000
0000
0000
0000
0000
0000
0000
0000
0000
0000
0000
;
