#TITLE:尻削り節;
#SUBTITLE:;
#ARTIST:kireji;
#TITLETRANSLIT:Shiri Kezuribushi;
#SUBTITLETRANSLIT:;
#ARTISTTRANSLIT:;
#GENRE:;
#CREDIT:;
#BANNER:Shiri Kezuribushi.png;
#BACKGROUND:Shiri Kezuribushi-bg.png;
#LYRICSPATH:;
#CDTITLE:cdtitle.png;
#MUSIC:Shiri kezuribushi.mp3;
#OFFSET:-0.250000;
#SAMPLESTART:41.393002;
#SAMPLELENGTH:13.688000;
#SELECTABLE:YES;
#BPMS:0.000000=140.000000
,212.000000=137.000000
,216.000000=141.000000
,220.000000=146.000000
,222.000000=93.000000
,224.000000=80.000000
;
#STOPS:
;
#BGCHANGES:;
#KEYSOUNDS:;
#ATTACKS:;

//---------------dance-single - MEGAtive----------------
#NOTES:
     dance-single:
     :
     Beginner:
     1:
     0.097778,0.187984,0.057037,0.057037,0.000000,72.000000,66.000000,6.000000,6.000000,0.000000,0.000000,0.097778,0.187984,0.057037,0.057037,0.000000,72.000000,66.000000,6.000000,6.000000,0.000000,0.000000:
// measure 0
0000
0000
0000
0000
,  // measure 1
0000
0000
0000
0000
,  // measure 2
0000
0000
0000
0000
,  // measure 3
0000
0000
0000
0000
,  // measure 4
1000
0000
0000
0000
,  // measure 5
0010
0000
0000
0000
,  // measure 6
1000
0000
0000
0000
,  // measure 7
0001
0000
0000
0000
,  // measure 8
1000
0000
1000
0000
,  // measure 9
1000
0000
0000
0000
,  // measure 10
0010
0000
0010
0000
,  // measure 11
0010
0000
0000
0000
,  // measure 12
0100
0000
0100
0000
,  // measure 13
0100
0000
0000
0000
,  // measure 14
0001
0000
0001
0000
,  // measure 15
0001
0000
0000
0000
,  // measure 16
1000
0000
1000
0000
,  // measure 17
1000
0000
0000
0000
,  // measure 18
0100
0000
0100
0000
,  // measure 19
0100
0000
0000
0000
,  // measure 20
0010
0000
0010
0000
,  // measure 21
0010
0000
0000
0000
,  // measure 22
0001
0000
0001
0000
,  // measure 23
0001
0000
0000
0000
,  // measure 24
0100
0000
0000
0000
,  // measure 25
2002
0000
0000
0000
,  // measure 26
0000
0000
0000
0000
,  // measure 27
0000
0000
3003
0000
,  // measure 28
1000
0000
0000
0000
,  // measure 29
0220
0000
0000
0000
,  // measure 30
0000
0000
0000
0000
,  // measure 31
0000
0000
0330
0000
,  // measure 32
0100
0000
0000
0000
,  // measure 33
0001
0000
0001
0000
,  // measure 34
0001
0000
0000
0000
,  // measure 35
0010
0000
0010
0000
,  // measure 36
0010
0000
0000
0000
,  // measure 37
0100
0000
0100
0000
,  // measure 38
0100
0000
0000
0000
,  // measure 39
1000
0000
1000
0000
,  // measure 40
1000
0000
0000
0000
,  // measure 41
0001
0000
0001
0000
,  // measure 42
0001
0000
0000
0000
,  // measure 43
0100
0000
0100
0000
,  // measure 44
0100
0000
0000
0000
,  // measure 45
0010
0000
0010
0000
,  // measure 46
0010
0000
0000
0000
,  // measure 47
1000
0000
1000
0000
,  // measure 48
2002
0000
0000
0000
,  // measure 49
3003
0000
0000
0000
,  // measure 50
1000
0000
0000
0000
,  // measure 51
0100
0000
0000
0000
,  // measure 52
0010
0000
0000
0000
,  // measure 53
1000
0000
0000
0000
,  // measure 54
0001
0000
0000
0000
,  // measure 55
0100
0000
1001
0000
,  // measure 56
1001
0000
1001
0000
;

//---------------dance-single - MEGAtive----------------
#NOTES:
     dance-single:
     :
     Easy:
     3:
     0.190123,0.221493,0.047531,0.218642,0.000000,140.000000,135.000000,5.000000,23.000000,0.000000,0.000000,0.190123,0.221493,0.047531,0.218642,0.000000,140.000000,135.000000,5.000000,23.000000,0.000000,0.000000:
0000
0000
0000
0000
,
0000
0000
0000
0000
,
0000
0000
0000
0000
,
0000
0000
0000
0000
,
1000
0000
0010
0000
,
0100
0000
0001
0000
,
0020
0000
0130
0000
,
2000
0000
3001
0000
,
0000
1000
0100
1000
,
0001
0000
0100
0010
,
1000
0000
0100
0010
,
0001
0000
0100
0010
,
0000
0010
0100
0001
,
0100
0000
0001
0010
,
0100
0000
1000
0001
,
0100
0000
0010
1000
,
0000
1000
0001
1000
,
0100
0000
0010
0100
,
1000
0000
0001
0100
,
0020
0000
0130
0010
,
0000
0100
0001
1000
,
0001
0000
1000
0100
,
0010
0000
0001
0100
,
0010
0000
1000
0001
,
0000
0000
0000
0000
,
2000
0000
3100
0000
,
0020
0000
0031
0000
,
0200
0000
0310
0000
,
1000
0001
1000
0001
,
0020
0000
0130
0000
,
2000
0000
3001
0000
,
0200
0000
0310
0000
,
1000
0000
1000
0000
,
0002
0000
0023
0000
,
0130
1000
0001
1000
,
0010
0000
0100
0001
,
1000
0100
0010
0000
,
0200
0000
0000
1300
,
0010
0100
0001
0000
,
1000
0100
0010
0001
,
0100
0000
0010
0100
,
0001
0000
0010
0100
,
0010
0001
1000
0000
,
0020
0000
0130
0000
,
0002
0000
0013
0000
,
0200
0000
1300
0001
,
0200
0000
0310
2000
,
0000
3001
1000
0001
,
2002
0000
3003
0001
,
0002
0000
0013
0100
,
1000
0000
0010
0100
,
0002
0000
0103
0000
,
1001
0000
0000
0000
,
0001
0000
0000
0000
,
0010
0000
0010
0000
,
0010
0000
1001
0000
,
1001
0000
2002
0000
,
0000
0000
0000
0000
,
0000
3003
0000
0000
;

//---------------dance-single - MEGAtive----------------
#NOTES:
     dance-single:
     :
     Medium:
     6:
     0.263456,0.276867,0.047531,1.121726,0.000000,194.000000,189.000000,5.000000,118.000000,0.000000,0.000000,0.263456,0.276867,0.047531,1.121726,0.000000,194.000000,189.000000,5.000000,118.000000,0.000000,0.000000:
0000
0000
0000
0000
,
0000
0000
0000
0000
,
0000
0000
0000
0000
,
0000
0000
0000
0000
,
1000
0000
1000
0010
,
0100
0001
1000
0100
,
0020
0000
0130
1000
,
0020
0000
0130
0001
,
0010
0200
2300
3200
,
2300
0000
3001
0100
0002
0000
0203
0000
,
0320
0230
0302
0023
,
0230
0320
0032
2003
,
3000
0002
0203
0302
,
0203
0320
2030
3200
,
0320
0230
2300
3002
,
0203
0320
2030
3002
,
0003
0020
0230
0320
,
0230
2300
3001
0001
,
0100
0010
0200
0000
0302
0000
2003
0000
,
3200
0000
0000
0000
0310
0001
0020
0000
,
0130
2000
3020
2030
,
3002
2003
3200
0320
,
0230
2300
3002
0203
,
0320
2030
3002
0023
,
0030
0100
0100
0100
,
0200
0000
1300
0010
,
0200
0000
0310
1000
,
0200
0000
0310
0100
,
1000
0010
0100
0000
0001
0010
0100
0000
,
2000
0000
3001
0010
,
0200
0000
0310
0001
,
0200
0000
0310
1000
,
0000
0100
0010
0000
0010
0000
0100
0000
,
2000
0000
3002
0000
,
0203
0320
2030
3020
,
0230
0302
2003
3200
,
0320
0230
2300
3002
,
0203
0000
0300
0020
0000
0000
2030
0000
,
3200
0320
0230
2300
,
3001
0100
0002
0000
0203
0000
0320
0000
,
2030
3002
0023
0230
,
2300
3002
2003
3020
,
0230
0320
2030
3200
,
0320
0000
0230
2300
,
3000
0020
0000
0000
0230
0000
0302
0000
,
0023
0000
0230
0320
,
0032
0000
2003
3020
,
0000
0230
0302
1003
,
2002
0000
0000
0000
3003
0000
1000
0001
,
2000
0000
3010
0100
,
0001
0000
0010
0001
0010
0000
0100
0000
,
2000
0000
3100
1000
,
1001
0000
0001
0100
,
0001
0000
0000
1000
,
0100
0000
0010
0100
0010
0000
0001
0000
,
0100
0000
0110
0000
,
1010
0000
2002
0000
,
0000
0000
0000
0000
,
0000
3003
0000
0000
;

//---------------dance-single - MEGAtive----------------
#NOTES:
     dance-single:
     :
     Hard:
     9:
     0.301481,0.359927,0.047531,1.131233,0.000000,222.000000,217.000000,5.000000,119.000000,0.000000,0.000000,0.301481,0.359927,0.047531,1.131233,0.000000,222.000000,217.000000,5.000000,119.000000,0.000000,0.000000:
0000
0000
0000
0000
,
0000
0000
0000
0000
,
0000
0000
0000
0000
,
0000
0000
0000
0000
,
1000
0000
1000
0010
,
0100
0000
0001
1000
0001
0000
0010
0000
,
0200
0000
0000
1300
0001
0000
0100
0000
,
0020
0000
0000
1030
0001
0000
0010
0000
,
0100
2000
3020
0230
,
2300
0000
3001
0010
0200
0000
0302
0000
,
2003
3200
0302
0023
,
0032
0203
2300
3200
,
0310
0002
0203
0320
,
0032
2003
3200
0320
,
2030
3002
0023
2030
,
3200
2300
3020
0032
,
1003
0002
0203
2300
,
3002
0000
0023
0000
0130
0001
0010
0000
,
0100
1000
0200
0000
0320
0000
0032
0000
,
0203
0000
0000
0000
1300
0100
0020
0000
,
1030
0002
0023
0230
,
0302
2003
3020
0230
,
2300
3002
0203
2300
,
3020
2030
3002
0023
,
0030
0100
0010
1000
0010
1000
0001
0010
,
0200
0000
0000
0310
0001
0000
0100
0000
,
0020
0000
0000
0130
0001
0000
0010
0000
,
0200
0000
0000
0310
0001
0000
0100
0000
,
0010
0100
0010
1000
0100
0010
0100
1000
,
0020
0000
0000
0130
1000
0000
0100
0000
,
0020
0000
0000
1030
0100
0000
0001
0000
,
0200
0000
0000
1300
0010
0000
0001
0000
,
0000
0010
0100
0010
1000
0001
1000
0100
,
0020
0000
0032
0000
,
0203
0320
0032
2003
,
3200
0320
2030
3200
,
0302
2003
3020
0032
,
2003
0000
3010
0200
0001
0000
0320
0000
,
2030
3200
0302
2003
,
3010
0100
2000
0000
3020
0000
0230
0000
,
2300
3002
0023
0230
,
0302
0023
2030
3020
,
0032
0203
2300
3200
,
0302
0000
0000
1003
0200
0000
0302
0000
,
0000
0203
0000
0000
2300
0000
3020
0000
,
0230
0000
0000
0310
0002
0000
0023
0000
,
0230
0000
0000
0301
0020
0000
0230
0000
,
0000
0000
2300
0000
3020
0000
0230
0300
,
0202
0000
0000
0000
0003
0000
0301
1000
,
0200
0000
0000
0310
0100
0000
1000
0000
,
0010
0000
0100
1000
0100
0000
0001
0000
,
2000
0000
0000
3100
0010
0000
0100
0000
,
1100
0000
1000
0001
,
0100
0000
0000
0100
,
0010
0000
0010
1000
0001
0000
1000
0000
,
0100
0000
1001
0000
,
1010
0000
0220
0000
,
0000
0000
0000
0000
,
0000
0330
0000
0000
;
