#VERSION:0.83;
#TITLE:Ritual of Anubis;
#SUBTITLE:;
#ARTIST:KO3 & Relect;
#TITLETRANSLIT:;
#SUBTITLETRANSLIT:;
#ARTISTTRANSLIT:;
#GENRE:;
#CREDIT:;
#MUSIC:Ritual of Anubis.ogg;
#BANNER:Ritual of Anubis.png;
#BACKGROUND:Ritual of Anubis-bg.png;
#CDTITLE:cdtitle.png;
#SAMPLESTART:89.684;
#SAMPLELENGTH:20.211;
#SELECTABLE:YES;
#OFFSET:0.000;
#BPMS:0.000=190.000;
#STOPS:;
#SPEEDS:0.000=1.000=0.000=0;
#SCROLLS:0.000=1.000;
#TICKCOUNTS:0.000=4;
#TIMESIGNATURES:0.000=4=4;
#LABELS:0.000=Song Start;
#COMBOS:0.000=1;
#ORIGIN:;
#TAGS:;
#PREVIEWVID:;
#JACKET:Ritual of Anubis-jacket.png;
#CDIMAGE:;
#DISCIMAGE:;
#BGCHANGES:0.000=Ritual of Anubis.mp4=1.000=0=0=1,
99999.000=-nosongbg-=1.000=0=0=0=StretchNoLoop====
;
#FGCHANGES:;

//--------------- dance-single - MEGAtive ----------------
#NOTEDATA:;
#STEPSTYPE:dance-single;
#DESCRIPTION:MEGAtive;
#DIFFICULTY:Beginner;
#METER:5;
#RADARVALUES:0.170655,0.341373,0.113355,0.279028,0,137,124,13,32,0,0,0,0,0,0.170655,0.341373,0.113355,0.279028,0,137,124,13,32,0,0,0,0,0;
#CHARTNAME:;
#CHARTHASH:1225786203:;
#BANNER:;
#CHARTSTYLE:;
#METERF:0.000000;
#CREDIT:;
#NOTES:
0000
0000
0000
0000
,
0000
0000
0000
0000
,
0000
0000
0000
0000
,
0000
0000
0000
0000
,
0000
0000
0000
0000
,
0000
0000
0000
0000
,
0000
0000
0000
0000
,
2000
0000
3000
0000
,
0020
0000
0030
0000
,
0200
0000
0302
0000
,
2003
0000
3000
0000
,
0001
0000
0000
0000
,
0001
0000
0000
0000
,
1000
0000
0000
0000
,
1000
0000
0000
0000
,
0001
0000
0100
0000
,
0010
0000
1000
0000
,
0100
0000
0010
0000
,
0001
0000
0000
0000
,
2002
0000
0000
0000
,
3003
0000
0000
0000
,
1000
0000
1000
0000
,
0001
0000
0001
0000
,
0100
0000
0100
0000
,
0020
0000
0030
0000
,
1000
0000
0010
0000
,
0100
0000
0001
0000
,
0010
0000
0100
0000
,
2000
0000
3000
0000
,
1000
0000
0001
0000
,
0100
0000
0010
0000
,
1000
0000
0100
0000
,
0010
0000
0001
0000
,
2000
0000
3000
0000
,
1001
0000
0110
0000
,
2000
0000
0000
0000
,
0002
0000
3003
0000
,
0002
0000
0003
0000
,
0200
0000
0300
0000
,
0020
0000
0030
0000
,
2000
0000
3000
0000
,
0001
0000
0001
0000
,
1000
0000
1000
0000
,
0200
0000
0000
0000
,
0310
0000
0000
0000
,
2002
0000
0000
0000
,
0000
0000
0000
0000
,
3003
0000
0001
0000
0000
1000
0000
0000
,
0001
0000
0000
1000
0000
0000
0001
0000
,
0000
0100
0000
0100
,
0000
0010
0000
0010
,
0000
1001
0000
1001
,
0000
1001
0000
1001
,
0000
1000
0000
0010
,
0000
0100
0000
0001
,
0000
0000
0010
0000
0000
0100
0000
0000
,
0010
0000
0000
0100
0000
0000
0010
0000
,
0000
0001
0000
0001
,
0000
0100
0000
0100
,
0000
1001
0000
1001
,
0000
1001
0000
2002
,
3003
0000
0000
0000
,
0000
0000
0000
0000
,
2000
0000
3000
0000
,
0000
0000
0000
0000
,
0002
0000
0003
0000
,
0000
0000
0000
0000
,
0200
0000
0000
0000
,
0320
0000
0000
0000
,
2030
0000
0002
0000
,
3003
0000
0000
0000
,
1000
1000
1000
0000
,
0010
0000
0100
0000
,
0001
0001
0001
0000
,
0010
0000
0100
0000
,
0010
0010
0010
0000
,
0001
0000
1000
0000
,
0010
0010
0010
0000
,
0100
0000
0001
0000
,
2000
0000
0000
0000
,
3001
0000
0100
0000
,
0010
0010
0010
0000
,
1000
0000
0001
0000
,
0020
0000
0000
0000
,
0230
0000
0000
0000
,
2300
0000
0002
0000
,
3003
0000
0000
0000
,
0110
0000
0000
0000
;

//--------------- dance-single - MEGAtive ----------------
#NOTEDATA:;
#STEPSTYPE:dance-single;
#DESCRIPTION:MEGAtive;
#DIFFICULTY:Easy;
#METER:8;
#RADARVALUES:0.28401,0.455164,0.122075,0.165673,0,228,214,14,19,0,0,0,0,0,0.28401,0.455164,0.122075,0.165673,0,228,214,14,19,0,0,0,0,0;
#CHARTNAME:;
#CHARTHASH:1220313303:;
#BANNER:;
#CHARTSTYLE:;
#METERF:0.000000;
#CREDIT:;
#NOTES:
0000
0000
0000
0000
,
0000
0000
0000
0000
,
0000
0000
0000
0000
,
0000
0000
0000
0000
,
0000
0000
0000
0000
,
0000
0000
0000
0000
,
0000
0000
0000
0000
,
1000
1000
1000
0000
,
0001
0001
0001
0000
,
0100
0100
0100
0000
,
0020
0000
0130
0000
,
1001
0000
0000
0000
,
1000
0000
0000
0000
,
1001
0000
0000
0000
,
0001
0000
0000
0000
,
0001
0100
0010
1000
,
0001
0010
0100
1000
,
0001
0001
1000
1000
,
0100
0000
0000
0000
,
2002
0000
0000
0000
,
3003
0000
0000
0000
,
1000
0010
1000
0010
,
0100
0001
0100
0001
,
1000
1000
0001
0001
,
0020
0000
0000
0000
,
0031
0010
0001
0010
,
0100
1000
0100
1000
,
0001
0001
1000
1000
,
0020
0000
0000
0000
,
0130
0001
1000
0001
,
0010
0100
1000
0001
,
1000
0010
0100
0001
,
0010
0100
1000
0001
,
2000
0000
0000
0000
,
3010
0010
0100
0100
,
0002
0000
0000
0000
,
0103
0000
0020
0000
,
1030
0000
0000
0000
,
1000
0000
0000
0000
,
0001
0000
0000
0000
,
0001
0000
0000
0000
,
1000
0100
0010
0001
,
1000
0010
0100
0001
,
1000
1000
0001
0001
,
0100
0000
0000
0000
,
2002
0000
0000
0000
,
0000
0000
0000
0000
,
3003
0000
1001
0000
0000
0110
0000
0000
,
1001
0000
0000
0110
0000
0000
1001
0000
,
1000
0100
0000
0100
,
1000
0010
0000
0010
,
0100
0001
0001
0001
,
0001
0001
0001
0001
,
1000
0100
0000
0100
,
1000
0010
0000
0010
,
0100
0000
0110
0000
0000
1001
0000
0000
,
0110
0000
0000
1001
0000
0000
0110
0000
,
1000
0001
0000
0001
,
0010
0100
0000
0100
,
1000
0010
0010
0010
,
0010
0010
0010
0010
,
0200
0000
0000
0000
,
0000
0000
0000
0000
,
0301
0000
0000
0000
,
0001
0000
0000
0000
,
1000
0000
0000
0000
,
1000
0000
0000
0000
,
0001
0100
0010
1000
,
0001
0010
0100
1000
,
0001
0001
1000
1000
,
0020
0000
0030
0000
,
1000
0100
0010
0100
,
1000
0010
0001
0010
,
1000
0100
0001
0100
,
1000
1000
2000
0000
,
3001
0100
0010
0100
,
0001
0010
1000
0010
,
0001
0100
1000
0100
,
0001
1000
2000
0000
,
3002
0000
0000
0000
,
1003
0100
0001
0100
,
1000
0010
0001
0010
,
1000
1000
2000
0000
,
3001
0001
0002
0000
,
0103
0100
0200
0000
,
0310
1000
0001
1000
,
0200
0000
0000
0000
,
0310
0000
0000
0000
;

//--------------- dance-single - MEGAtive ----------------
#NOTEDATA:;
#STEPSTYPE:dance-single;
#DESCRIPTION:MEGAtive;
#DIFFICULTY:Medium;
#METER:11;
#RADARVALUES:0.513211,0.684708,0.340065,0.21799,0.013079,412,373,39,25,0,0,0,0,0,0.513211,0.684708,0.340065,0.21799,0.013079,412,373,39,25,0,0,0,0,0;
#CHARTNAME:;
#CHARTHASH:2147483647:;
#BANNER:;
#CHARTSTYLE:;
#METERF:0.000000;
#CREDIT:;
#NOTES:
0000
0000
0000
0000
,
0000
0000
0000
0000
,
0000
0000
0000
0000
,
0000
0000
0000
0000
,
0000
0000
0000
0000
,
0000
0000
0000
0000
,
0000
0000
0000
0000
,
0101
0000
0001
0000
0001
0000
0000
1000
,
0100
0000
0010
0000
0010
0000
0000
0001
,
0100
0010
0010
1000
,
1000
0000
0001
1000
0001
0000
0010
0000
,
0012
1003
0010
0100
,
0010
0000
1000
0000
0100
0010
0100
0000
,
2000
3001
0100
0010
,
0100
0001
0010
0100
,
0100
0010
0100
0000
1000
0001
1000
0000
,
0010
0100
0010
0000
1000
0001
1000
0000
,
0100
0010
0001
0000
1000
0100
0010
0000
,
0002
0000
0000
1003
,
1000
0100
0010
0000
0010
0000
0010
0000
,
2002
3003
0000
0000
,
0001
0100
0001
0000
1000
0100
1000
0000
,
0010
0100
0010
0000
1000
0001
1000
0000
,
0001
0000
0010
0000
0001
0000
0000
0000
0100
0000
0000
0100
0000
0000
0010
0000
,
2000
0000
0000
0000
,
3010
0000
0100
0001
0100
0000
0001
1000
,
0001
0000
1000
0100
1000
0000
0100
0010
,
0100
0000
0010
0001
0010
0000
0001
1000
,
0010
0010
0010
0110
,
1001
0000
0001
0010
0001
0000
1000
0010
,
0100
0000
0000
0000
0001
0000
0100
0000
0001
0000
0000
1000
0000
0000
1000
0000
,
0100
0010
0100
0000
1000
0001
0100
0000
,
0010
0100
0010
0000
0100
0001
1000
0000
,
0002
0000
0013
0100
0010
0100
0010
0100
,
0010
0001
1000
0020
,
0230
0000
0001
0000
,
0310
0000
1000
0001
1000
0000
0100
0000
,
0012
1003
0100
0010
,
0001
0000
0100
0000
0010
1000
0001
1000
,
0100
0010
0100
1000
,
0001
1000
0020
0000
,
0130
0001
0100
0000
0010
1000
0010
0000
,
1000
0100
1000
0000
0001
0010
0001
0000
,
0100
0010
0100
0010
0100
0010
0100
0010
,
2000
0000
0000
3000
,
2002
0000
0000
0000
,
0000
0000
0000
0000
,
3003
0000
2100
0000
3001
0100
0000
1000
,
0100
0000
0001
0100
0010
0000
0110
0000
,
1001
0000
1000
0000
0100
0010
0100
0000
,
1000
0001
1000
0000
0010
0100
0010
0000
,
0110
1001
1010
1001
,
0011
1001
1010
0210
,
0301
0000
0100
0000
0001
0010
0001
0000
,
0100
0010
0100
0000
0001
1000
0001
0000
,
1100
0000
0102
0000
1003
0100
0000
0001
,
0100
0000
1000
0100
0010
0000
0110
0000
,
1001
0000
1000
0000
0010
0100
0010
0000
,
0100
0001
0100
0000
0001
1000
0001
0000
,
0011
1100
1001
0101
,
1001
1100
1001
0110
,
2001
0000
0010
0000
0000
0001
0000
0000
,
0100
0200
0000
3000
,
1300
0000
1000
0000
1000
0000
1000
0001
,
0100
0100
0100
0100
,
1001
0000
0001
0000
0001
0000
0001
0010
,
0100
0000
0100
0000
0100
0000
0100
1000
,
0001
0100
0001
0000
1000
0100
1000
0000
,
0001
0100
0010
0000
1000
0100
0010
0000
,
0001
1000
0001
1000
0010
0100
0010
0100
,
0002
0000
0000
0013
,
1001
0000
0001
0000
0100
0000
0010
1000
,
0100
0000
0001
0000
0100
0000
1000
0010
,
0100
1000
0100
0001
,
1000
0000
0100
0010
0100
0000
0010
0001
,
1000
0000
1000
0000
0010
0000
0100
0001
,
0010
0000
1000
0000
0010
0000
0001
0100
,
0010
0001
0010
0100
,
0001
0000
1000
0001
1000
0000
0110
0000
,
2001
0010
0001
3100
,
0120
0000
0001
0000
0130
0000
1000
0010
,
0100
1000
0100
0010
,
1000
1010
0001
0011
,
1000
0000
1000
0000
1000
0000
0001
0100
,
0010
0000
0000
0000
0001
0000
0000
0000
0010
0000
0000
0010
0000
0000
1000
0000
,
0001
0000
0010
0100
1000
0000
0001
0100
,
0020
1000
0100
1030
,
2002
3003
0000
0000
;

//--------------- dance-single - MEGAtive ----------------
#NOTEDATA:;
#STEPSTYPE:dance-single;
#DESCRIPTION:MEGAtive;
#DIFFICULTY:Hard;
#METER:14;
#RADARVALUES:0.727465,0.798826,0.340065,0.261588,0.152593,584,545,39,30,0,0,0,0,0,0.727465,0.798826,0.340065,0.261588,0.152593,584,545,39,30,0,0,0,0,0;
#CHARTNAME:;
#CHARTHASH:2147483647:;
#BANNER:;
#CHARTSTYLE:;
#METERF:0.000000;
#CREDIT:;
#NOTES:
0000
0000
0000
0000
,
0000
0000
0000
0000
,
0000
0000
0000
0000
,
0000
0000
0000
0000
,
0000
0000
0000
0000
,
0000
0000
0000
0000
,
0000
0000
0000
0000
,
1010
0000
0101
0000
1010
0000
0000
1000
,
1000
0100
0010
0001
0100
0000
0000
0010
,
0010
1000
0100
0010
0001
0100
0010
1000
,
0200
0000
0310
0001
0200
0000
0310
0000
,
1001
0000
1000
0010
0100
0010
0100
0001
,
1000
0100
0010
0100
1000
0001
0100
0000
,
0110
0000
0010
1000
0001
1000
0001
0010
,
0100
0010
0001
1000
0200
0000
0310
0100
,
1000
0010
0100
0001
1000
0010
0100
0001
,
1000
0100
0010
0001
1000
0100
0010
0001
,
1000
0000
0010
0100
0001
0000
1000
0100
0010
0000
0001
0100
0010
0000
1000
0100
,
0020
0000
0000
0130
,
1001
0001
0001
0000
0110
0000
1001
0000
,
0220
0330
0000
1001
,
1000
0010
0100
0010
1000
0010
0100
0001
,
1000
0100
0010
0100
1000
0100
0010
0001
,
0100
0000
0100
0000
0100
0000
0010
0000
1000
0000
0000
1000
0000
0001
0010
0000
,
0200
0000
0000
0000
,
0310
0001
1000
0010
0100
0010
0001
0010
,
0100
0001
0010
0100
0010
1000
0010
0100
,
1000
0010
0100
1000
0100
0010
0100
0100
,
0001
0001
0001
1001
,
1000
0000
0100
0000
0010
0000
0001
0100
0000
0100
0001
0000
1000
0000
0100
0000
,
0010
0000
0100
0000
1000
0000
0010
0100
0000
0100
0002
0000
0000
1003
0100
0000
,
0010
0000
0001
0000
0100
0000
0010
1000
0000
1000
0001
0000
0010
0000
0100
0000
,
0010
0001
0010
0000
0100
0000
1000
0000
0001
0000
0100
0000
0020
0000
0000
0000
,
0130
0001
0100
0001
0100
0000
0010
0000
1000
0000
0001
0000
1000
0000
0100
0000
,
0010
0000
0011
0000
1100
0000
0011
0001
,
0100
0010
0100
0010
1000
0001
1000
0001
,
0020
0000
0130
1000
0020
0000
0130
0000
,
1001
0000
0001
0100
0010
1000
0001
0010
,
0100
0010
0100
1000
0001
0100
0020
0000
,
1030
0000
1000
0100
0010
0001
1000
0010
,
0100
0010
0100
0001
2000
0000
0000
0000
,
3001
0100
0010
1000
0001
0010
0100
1000
,
0001
0100
0010
1000
0001
0010
0100
1000
,
0001
0000
0100
0010
1000
0000
0001
0010
0100
0000
1000
0010
0100
0000
0001
0010
,
0200
0000
0000
0310
,
2002
0000
0000
0003
3001
1000
0001
1000
,
0001
1000
0001
1000
0001
1000
0001
1000
,
0001
0000
0000
0000
1000
0000
0100
0010
0100
0000
1000
0000
0010
0100
0010
0000
,
1000
0000
0100
0010
0100
0000
1000
0000
2000
0000
0000
0000
3010
0000
0000
0000
,
0101
0000
0001
1000
0100
0001
0100
1000
,
0010
0100
0001
0010
1000
0010
0001
1000
,
0001
0000
0101
0001
1000
0000
1100
1000
,
0001
0000
0101
0001
1000
0000
1100
0000
,
0011
0000
0001
1000
0001
0100
1000
0100
,
0001
0010
0100
1000
0010
0001
0010
1000
,
0001
0000
0000
0000
0001
0000
0100
0010
0100
0000
0001
0000
0010
0100
0010
0000
,
0001
0000
0100
0010
0100
0000
0001
0000
0010
0100
0010
0000
0002
0000
0000
0000
,
1003
0000
1000
0001
0100
1000
0100
0001
,
0010
0100
1000
0010
0001
0010
1000
0001
,
1000
0000
1010
1000
0001
0000
0011
0001
,
1000
0000
1010
1000
0001
0000
0011
0000
,
2200
0000
0000
0000
,
0300
0000
0000
0000
,
3001
0100
0010
0100
0001
0100
0010
1000
,
0100
0000
0010
0000
0100
0000
1000
0000
0100
0000
0010
0000
0100
0000
1000
0001
,
1000
0010
0100
0010
1000
0010
0100
0001
,
0010
0100
0010
0001
0010
0100
1000
1000
,
1000
0010
0100
0001
0010
0100
0010
0001
,
0100
0010
1000
0001
1000
0100
0010
0100
,
1000
0000
0010
0100
0001
0000
1000
0100
0010
0000
0001
0100
0010
0000
1000
0100
,
0020
0000
0000
0130
,
1001
0000
0110
0000
1001
0001
1000
0100
,
0001
1000
0010
0100
0010
0000
0011
0001
,
1000
0010
0001
1000
0100
0010
0100
0010
,
1000
0000
1000
0001
0020
0000
0031
0001
,
1001
0000
0110
0000
1001
1000
0001
0100
,
1000
0001
0010
0100
0010
0000
1010
1000
,
0001
0010
1000
0001
0100
0010
0100
0010
,
0001
0000
0001
0100
2000
0000
3100
0000
,
0002
0000
0100
0100
0100
0000
1000
0000
,
0013
0100
0001
0100
1000
0000
1010
0000
,
0010
0100
1000
0100
0001
1000
0001
0010
,
0200
0000
0310
0001
0200
0000
0310
0000
,
1000
0000
0010
0000
1000
0000
0010
0000
0100
0000
0001
0000
0100
0000
0001
1000
,
0001
0000
1000
0000
0100
0000
0010
0000
0001
0000
0000
0011
0000
0000
1001
0000
,
1000
0000
0010
0000
0100
0000
0001
1000
0001
0000
0010
0000
0100
0000
1000
0000
,
0020
0000
0130
0001
0020
0000
0000
0030
,
0220
0330
0000
0000
;

//--------------- dance-single - MEGAtive ----------------
#NOTEDATA:;
#STEPSTYPE:dance-single;
#DESCRIPTION:MEGAtive;
#DIFFICULTY:Challenge;
#METER:17;
#RADARVALUES:0.932999,1.065101,0.558055,0.305186,0.588574,749,685,64,35,20,0,0,0,0,0.932999,1.065101,0.558055,0.305186,0.588574,749,685,64,35,20,0,0,0,0;
#CHARTNAME:;
#CHARTHASH:1861473246:;
#BANNER:;
#CHARTSTYLE:;
#METERF:0.000000;
#CREDIT:;
#NOTES:
0000
0000
0000
0000
,
0000
0000
0000
0000
,
0000
0000
0000
0000
,
0000
0000
0000
0000
,
0000
0000
0000
0000
,
0000
0000
0000
0000
,
0000
0000
0000
0000
,
1100
0000
0000
0000
0011
0000
0000
0000
1100
0000
0000
0000
0000
0000
0100
1000
,
0001
0000
0100
0000
0010
0000
0100
0000
0020
0000
0000
0000
0000
0000
0130
0001
,
1000
0100
0010
0100
1000
0010
0100
0001
,
0002
0000
1003
0100
0020
0000
0130
0000
,
1000
0000
0000
1000
0100
0000
1000
0000
0001
0000
0100
0000
0010
0000
0100
0000
,
0001
0000
0000
0001
0100
0000
0001
0000
1000
0000
0100
0000
0100
0000
0010
0000
,
0011
0000
0000
0001
0100
0000
0010
0000
0100
0000
0001
0000
1000
0000
0100
0010
,
0100
0000
1000
0001
0000
0001
1000
0000
0010
0000
0100
0000
0001
0000
0001
0000
,
1000
0100
0010
0000
0001
0000
0100
0000
0010
1000
0001
0000
0010
0000
0100
0000
,
0010
0001
1000
0000
0010
0000
0100
0000
0001
1000
0100
0000
0010
0000
0001
0000
,
1000
0010
0100
0001
1000
0100
0010
0001
1000
0010
0100
0001
1000
0100
0010
0001
,
0100
0100
0010
0110
,
1000
1000
1100
0000
0011
0000
1100
0000
,
2002
3003
0000
2010
,
3001
0000
1000
0100
1000
0000
0001
0100
0001
0000
1000
0100
1000
0000
0001
0100
,
0001
0000
1000
0010
1000
0000
0001
0010
0001
0000
1000
0010
1000
0000
0001
0010
,
0001
0000
0001
0000
0011
0000
1000
0010
0100
0000
0001
0010
0M00
0010
1000
0000
,
2010
0000
0000
0000
3010
0000
0010
0100
0001
0000
0010
0000
0020
0000
0000
0000
,
0031
0000
1000
0010
1000
0000
0001
0010
0100
0000
1000
0001
0100
0000
0010
1000
,
0100
0000
0010
0001
0100
0000
0010
1000
0001
0000
0010
0100
1000
0000
0001
0010
,
0100
0000
1000
0001
1000
0000
0010
0100
0001
0000
1000
0100
0010
0000
0010
0000
,
0011
1100
0011
1001
,
0001
0010
0100
1000
0001
0000
1000
0010
0M00
0010
0001
0000
0100
0000
0100
0000
,
0001
0000
1000
0100
0010
0000
0001
0100
0010
1000
0001
0010
0M00
0010
1000
0000
,
1000
0010
0100
0001
1000
0000
0001
0010
0M00
0010
1000
0001
1000
0000
0100
0000
,
0010
0001
0100
0000
0010
1000
0001
1000
0100
0000
0010
0000
0002
0000
0000
0000
,
0013
0100
0010
0100
0010
0000
0010
0000
0010
0000
0001
0000
0001
0000
0001
0000
,
0011
0000
1000
0000
1010
0000
0001
0000
0011
0000
1000
0000
2000
0000
3010
0100
,
0010
1000
0001
1000
0100
0010
0001
1000
,
2000
0000
3010
0100
0002
0000
1003
0000
,
1000
0000
0000
1000
0010
0000
0100
0000
0010
0000
1000
0000
0100
0000
0010
0000
,
0001
0100
0010
0100
0001
2000
0100
0000
,
3001
0000
0000
0001
0010
0000
0100
0000
0010
0000
0001
0000
1000
0000
0010
0000
,
0100
0000
0000
0100
0001
0000
1000
0000
0200
0000
0000
0000
0010
0000
0000
0000
,
1300
0010
0100
0001
1000
0100
0010
0001
,
1000
0010
0100
0001
1000
0100
0010
0001
,
1000
0010
0100
0001
1000
0100
0010
0001
1000
0010
0100
0001
1000
0100
0010
0001
,
0200
0000
0000
0000
0310
0000
0010
1000
0001
1000
0100
0000
0020
0000
0000
0000
,
0230
2000
0000
0000
0000
0000
0300
0000
0100
0000
0100
0000
0100
0000
0100
0000
,
0001
0001
0001
0001
0010
0010
0010
0010
,
3001
0000
0000
0000
1000
0100
1000
0100
0010
0000
100M
0010
1000
0010
0100
0000
,
100M
0100
1000
0100
0010
0000
100M
0000
1010
0000
0000
0000
0110
0000
0000
0000
,
1001
0000
0101
0001
1000
0100
0001
1000
,
0010
0100
1000
0010
0001
1000
0100
0010
,
0210
0000
0000
0000
0301
0010
0100
0000
M001
0010
0100
0000
M001
0100
0010
0000
,
M001
0100
0010
0000
M001
0010
0100
0000
M001
0010
0100
0000
1100
0000
0000
0000
,
0011
0000
1001
1000
0010
0100
1000
0001
,
0010
1000
0100
0001
1000
0010
0100
1000
,
1100
0000
0000
0000
1001
0000
0001
0100
0001
0100
0010
0000
M001
0010
0001
0010
,
0100
0000
M001
0100
0001
0100
0010
0000
M001
0010
0001
0010
0100
0000
1000
0000
,
1001
0000
0000
0000
0101
0000
0100
0010
1000
0001
0010
0000
1000
0000
0010
0000
,
0001
0000
0100
0010
1000
0010
0100
0000
1000
0000
0100
0000
0001
0000
0001
0000
,
0102
0000
0000
0000
1003
0100
0010
0000
100M
0100
0010
0000
100M
0010
0100
0000
,
100M
0010
0100
0000
100M
0100
0010
0000
100M
0100
0010
0000
0011
0000
0001
0000
,
2001
0000
0000
0000
3010
0000
0100
0000
0001
0000
1000
0000
0100
0010
0100
0000
,
2000
0000
3001
0100
0020
0000
0130
0000
,
2001
0000
0000
0000
3100
0000
0010
0000
0100
0000
1000
0000
0100
0000
0010
0001
,
0010
0100
1000
0100
0010
0001
0100
0010
,
2010
0000
0000
0000
3010
0000
0100
0000
0001
0000
0100
0000
0010
0000
1000
0010
,
1000
0001
0100
0010
1000
0100
0010
0010
,
0012
1000
1003
0010
0010
0100
0100
0001
,
2001
0100
3100
0010
0012
1000
1003
0010
,
0010
0100
0001
1000
0100
0010
0001
0100
0010
1000
0100
0010
0001
0100
0010
1000
,
0001
0001
1000
1000
,
1100
0000
0010
0000
1001
0000
1000
0000
1010
0000
0000
0000
0110
0000
0100
0001
,
0010
0000
0100
0000
0001
0000
0100
0000
1000
0000
0000
0000
1100
0000
0100
1000
,
0010
0100
1000
0100
0001
0010
0100
0001
,
0101
0000
0001
0100
2100
0000
3001
0001
,
0101
0000
0010
0000
1001
0000
1000
0000
1100
0000
0000
0000
0110
0000
0100
1000
,
0010
0000
0100
0000
1000
0000
0100
0000
0001
0000
0000
0000
0101
0000
0100
0001
,
0010
0100
0001
0100
1000
0010
0100
1000
,
1100
0000
1000
0100
0102
0000
1003
0000
,
2100
0000
0000
0000
0001
0000
0001
0000
0001
0000
0000
0000
3010
0000
1000
0100
,
0010
0000
1000
0000
0001
0000
0100
0000
1000
0000
0000
0000
1001
0000
0001
0100
,
0010
0001
1000
0100
0001
1000
0100
0010
,
0011
0000
1100
1000
1001
0000
0110
0000
,
1001
0000
0001
0000
0001
0000
0001
0000
0100
0000
0100
0000
0100
0000
0010
1000
,
0100
0000
0100
0000
0001
0000
0001
0000
0101
0000
0000
0110
0000
0000
1100
0000
,
1000
0000
0000
0010
0000
0000
0100
0000
0000
0001
0000
0000
0010
0000
0000
0100
0000
0000
1000
0000
0001
0000
1000
0000
0001
0000
0000
0100
0000
0000
0010
0000
0000
1000
0000
0000
0100
0000
0000
0010
0000
0000
0001
0000
0000
0100
0000
0000
,
0020
0000
0031
0010
2000
0000
3001
0000
,
2200
3300
0000
0000
;

//--------------- dance-double - MEGAtive ----------------
#NOTEDATA:;
#STEPSTYPE:dance-double;
#DESCRIPTION:MEGAtive;
#DIFFICULTY:Challenge;
#METER:17;
#RADARVALUES:0.163181,0.789997,0.174392,0,0.061037,131,111,20,0,0,0,0,0,0,0.163181,0.789997,0.174392,0,0.061037,131,111,20,0,0,0,0,0,0;
#CHARTNAME:;
#CHARTHASH:956679345:;
#BANNER:;
#CHARTSTYLE:;
#METERF:0.000000;
#CREDIT:;
#NOTES:
00000000
00000000
00000000
00000000
,
00000000
00000000
00000000
00000000
,
00000000
00000000
00000000
00000000
,
00000000
00000000
00000000
00000000
,
00000000
00000000
00000000
00000000
,
00000000
00000000
00000000
00000000
,
00000000
00000000
00000000
00000000
,
00021000
00000000
00000000
00000000
00100000
00000000
00000000
00000000
00032000
00000000
00000000
00000000
00103000
00000000
01000000
10000000
,
01000000
00000000
00100000
00000000
00001000
00000000
00010000
00000000
00002000
00000000
00000000
00000000
00003100
00000000
00000001
00001000
,
00000001
00000010
00000100
00001000
00000100
00010000
00001000
01000000
,
01020000
00000000
00130000
01000000
20000000
00000000
30010000
00000000
,
10100000
00000000
00000000
00100000
10000000
00000000
00010000
00000000
10000000
00000000
01000000
00000000
00100000
00000000
00010000
00000000
,
00100000
00001000
00010000
00000010
00001000
00000001
00000001
00000001
,
00000011
00000000
00000000
00000010
00000001
00000000
00001000
00000000
00000001
00000000
00000100
00000000
00000010
00000000
00001000
00000000
,
00000010
00010000
00001000
00100000
01000000
10000000
10000000
10000000
,
01000000
00100000
00010000
00000000
01000000
00000000
01000000
00000000
00010000
00100000
00001000
00000000
00010000
00000000
00010000
00000000
,
00000100
00001000
00000010
00000000
00000100
00000000
00000100
00000000
00000001
00000010
00000100
00000000
00001000
00000000
00001000
00000000
,
00000100
00000010
00000100
00001000
00000001
00001000
00000010
00010000
00001000
00100000
00010000
00100000
01000000
10000000
00010000
10000000
,
00100000
00100000
00100000
10010000
,
00010000
00010000
00110000
00000000
00011000
00000000
00101000
00000000
,
00022000
00033000
00000000
00010100
,
00000100
00000000
00010000
00001000
00010000
00000000
00001000
00100000
00001000
00000000
00010000
00001000
00010000
00000000
00001000
01000000
,
00001000
00000000
00010000
00001000
00010000
00000000
00001000
00100000
00001000
00000000
00010000
00001000
00010000
00000000
00001000
01000000
,
00001000
00000000
00010000
00000000
00010000
00000000
00001000
00010000
00001000
00000000
00100000
00010000
0000M000
00010000
00001000
00000000
,
00020000
00000000
00001000
00001000
00031000
00010000
00001000
00010000
,
00002000
00000000
00000000
00000000
00013000
00000000
01000000
00100000
00010000
00000000
10000000
00100000
01000000
00000000
00010000
00100000
,
01000000
00000000
00100000
00001000
00010000
00000000
00001000
00010000
00000100
00000000
00001000
00000100
00000010
00000000
00000001
00000100
,
00000010
00000000
00001000
00000100
00000010
00000000
00000100
00010000
00001000
00000000
01000000
00000000
01100000
00000000
00100000
00000000
,
10020000
00100000
02030000
03001000
,
00010000
00001000
00000100
00001000
00010000
00000000
00001000
00100000
000M0000
00100000
01000000
00000000
00010000
00000000
00010000
00000000
,
10000000
01000000
00010000
01000000
10000000
00000000
00010000
00100000
0M000000
00100000
02000000
00000000
00000000
03001000
00010000
00000000
,
00001000
00010000
00100000
00010000
00001000
00000000
00010000
00000100
0000M000
00000100
00000001
00000000
00000010
00000000
00000010
00000000
,
00001000
00000010
00000001
00000000
00001000
00000100
00000001
00000000
00000100
00000000
00010000
00000000
00002000
00000000
00000000
00000000
,
01003000
00010000
01000000
00010000
01000000
00000000
01000000
00000000
01000000
00000000
00001000
00000000
00010000
00000000
00000100
00000000
,
00001100
00000000
00000100
00000000
00000110
00000000
00000100
00000000
00001100
00000000
00001000
00000000
00000002
00000000
00000103
00000010
,
00000100
00001000
00000100
00000010
00010000
00001000
00100000
01000000
,
00020000
00000000
01030000
00100000
00002000
00000000
00013000
00000000
,
00000100
00000000
00000000
00000100
00001000
00000000
00000010
00000000
00000100
00000000
00000001
00000000
00001000
00000000
00000100
00000000
,
00000010
00000100
00010000
00100000
01000000
00010000
00020000
00000000
,
10030000
00000000
00000000
10000000
01000000
00000000
00100000
00000000
00010000
00000000
01000000
00000000
00100000
00000000
01000000
00000000
,
00001000
00010000
00000100
00001000
00000200
00000000
00000320
00000000
,
00000031
00000100
00000010
00001000
00000001
00000010
00000100
00010000
,
00001000
01000000
00100000
10000000
00010000
00100000
01000000
10000000
,
00010000
01000000
00100000
01000000
00010000
01000000
00001000
00010000
00001000
00010000
00000100
00001000
00000100
00000010
00000100
00001000
,
00000002
00000000
00000000
00000000
00000103
00000000
00000010
00001000
00000010
00001000
00000001
00000000
00000010
00000000
00000100
00000000
,
00020000
00000000
00000000
00000000
00001000
00001000
00001000
00001000
,
00001000
00001000
00001000
00001000
00001000
00001000
00001000
00001000
,
00031000
00000000
00000000
00000000
00010000
00001000
00000100
00001000
00010000
00000000
00001000
00010000
00100000
00010000
00001000
00000000
,
00010000
00001000
00000100
00001000
00010000
00000000
00001000
00000000
00101000
00000000
00000000
00000000
01100000
00000000
00000000
00000000
,
10010000
00000000
10100000
00000000
10000000
01000000
00010000
00001000
,
01000000
00100000
00001000
00000010
00010000
00001000
00000010
00000001
,
00001000
00000000
00001010
00000100
00001001
00000001
00000011
00000100
,
00001001
00001000
00001010
00000100
00001001
00000000
00001100
00000000
,
00011000
00000000
00010000
00001000
00010000
00100000
01000000
00010000
,
10000000
01000000
00100000
00001000
00010000
00000100
00000010
00000100
,
00010000
00000000
00000000
00000000
00001000
00010000
01000000
00010000
00001000
00000000
00010000
00001000
00000010
00001000
00010000
00000000
,
00001000
00010000
01000000
00010000
00001000
00000000
00010000
00000000
00010010
00000000
00000010
00000000
00000100
00000000
00000001
00000000
,
00000011
00000000
00001001
00000000
00001000
00000001
00000010
00000100
,
00000001
00000100
00010000
00001000
01000000
00010000
10000000
00100000
,
10100000
00000000
10100000
01000000
10010000
00010000
00110000
01000000
,
10010000
10000000
10100000
01000000
10010000
00010000
00110000
00000000
,
00022000
00000000
00000000
00000000
,
00033000
00000000
00000000
00000000
,
00011000
00000000
00001000
00000000
00100000
00000000
00001000
00000000
00010000
00000000
00000100
00000000
00010000
00000000
00000100
00000010
,
00000100
00001000
00000001
00001000
00000010
00010000
00001000
00001000
,
00011000
00000000
00010000
00000000
00000100
00000000
00010000
00000000
00001000
00000000
00100000
00000000
00001000
00000000
00100000
01000000
,
00100000
00010000
10000000
00100000
01000000
00001000
00010000
00010000
,
00001000
00010000
00000100
00000000
00000010
00000000
00000010
00000000
00000100
00001000
00000001
00000000
00000100
00000000
00000100
00000000
,
00000010
00010000
00001000
00000000
00010000
00000000
00010000
00000000
00001000
00010000
01000000
00000000
00100000
00000000
00100000
00000000
,
01000000
10000000
00010000
10000000
00100000
01000000
00010000
00100000
00001000
00010000
00000100
00001000
00000010
00000100
00000001
00000010
,
00000100
00000000
00010000
00000000
00001000
01000000
00100000
00000000
,
10000000
00000000
00100000
00000000
00120000
00000000
00000000
00000000
00030010
00000000
00000000
00000000
00000110
00000000
00000100
00000001
,
00000010
00000000
00000100
00000000
00000001
00000000
00000100
00000000
00001000
00000000
00000000
00000000
00001100
00000000
00001000
00000100
,
00010000
00001000
01000000
00010000
01000000
10000000
01000000
00100000
,
10100000
00000000
10000000
00010000
00110000
00000000
00001000
00010000
,
00000010
00000000
00000100
00000000
00002100
00000000
00000000
00000000
01003000
00000000
00000000
00000000
01100000
00000000
00100000
10000000
,
01000000
00000000
00100000
00000000
10000000
00000000
00100000
00000000
00010000
00000000
00000000
00000000
00110000
00000000
00010000
00100000
,
00001000
00010000
00000010
00001000
00000010
00000100
00001000
00000100
,
00000110
00000000
00001000
00000001
00000011
00000000
00000110
00000000
,
00021000
00000000
00000000
00000000
00001000
00000000
00001000
00000000
00001000
00000000
00000000
00000000
00031000
00000000
00010000
00100000
,
01000000
00000000
00010000
00000000
00100000
00000000
10000000
00000000
00100000
00000000
00000000
00000000
00120000
00000000
10030000
00100000
,
01000000
10000000
00010000
00100000
01000000
00001000
00010000
00000100
,
00000101
00000000
00000001
00000100
00020100
00000000
00001000
00000000
,
00030100
00000000
00000010
00000000
00000001
00000000
00001000
00000000
00000010
00000000
00000100
00000000
00001000
00000000
01000000
00010000
,
01000000
00000000
00100000
00000000
10000000
00000000
01000000
00000000
01010000
00000000
00000000
01100000
00000000
00000000
00100000
00000000
,
00001000
00010000
00001000
00010000
00000100
00001000
00000010
00000100
00001000
00010000
00001000
00100000
00010000
00100000
01000000
00000000
,
11000000
00000000
10000000
00100000
00020000
00000000
00030100
00000000
,
00000022
00000033
00000000
00000000
;
