#VERSION:0.83;
#TITLE:Ringed Genesis;
#SUBTITLE:;
#ARTIST:Edelritter;
#TITLETRANSLIT:;
#SUBTITLETRANSLIT:;
#ARTISTTRANSLIT:;
#GENRE:;
#ORIGIN:;
#CREDIT:;
#BANNER:Ringed Genesis.png;
#BACKGROUND:Ringed Genesis-bg.png;
#PREVIEWVID:;
#JACKET:Ringed Genesis-jacket.png;
#CDIMAGE:;
#DISCIMAGE:;
#LYRICSPATH:;
#CDTITLE:cdtitle.png;
#MUSIC:Ringed Genesis.mp3;
#OFFSET:-0.131000;
#SAMPLESTART:94.630997;
#SAMPLELENGTH:12.000000;
#SELECTABLE:YES;
#BPMS:0.000=160.000;
#STOPS:;
#DELAYS:;
#WARPS:;
#TIMESIGNATURES:0.000=4=4;
#TICKCOUNTS:0.000=4;
#COMBOS:0.000=1;
#SPEEDS:0.000=1.000=0.000=0;
#SCROLLS:0.000=1.000;
#FAKES:;
#LABELS:0.000=Song Start;
#BGCHANGES:;
#KEYSOUNDS:;
#ATTACKS:
;

//---------------dance-single - MEGAtive----------------
#NOTEDATA:;
#CHARTNAME:;
#STEPSTYPE:dance-single;
#DESCRIPTION:MEGAtive;
#CHARTSTYLE:;
#DIFFICULTY:Beginner;
#METER:3;
#RADARVALUES:0.135540,0.285755,0.104590,0.276416,0.000000,127.000000,113.000000,14.000000,37.000000,0.000000,0.000000,0.000000,0.000000,0.000000,0.135540,0.285755,0.104590,0.276416,0.000000,127.000000,113.000000,14.000000,37.000000,0.000000,0.000000,0.000000,0.000000,0.000000;
#CREDIT:;
#NOTES:
0000
0000
0000
0000
,
0000
0000
0000
0000
,
0000
0000
0000
0000
,
0000
0000
0000
0000
,
0000
0000
0000
0000
,
0000
0000
0000
0000
,
0000
0000
0000
0000
,
0000
0000
0000
0000
,
0000
0000
0000
0000
,
0000
0000
0000
0000
,
0000
0000
0000
0000
,
0000
0000
0000
0000
,
0000
0000
0000
0000
,
0000
0000
0000
0000
,
0000
0000
0000
0000
,
0000
0000
0000
0000
,
0000
0000
0000
0000
,
0000
0000
0000
0000
,
0000
0000
0000
0000
,
0000
0000
0000
0000
,
0000
0000
0000
0000
,
0000
0000
0000
0000
,
0000
0000
0000
0000
,
0000
0000
0000
0000
,
0000
0000
0000
0000
,
1000
1000
0010
0000
,
1000
1000
0001
0001
,
0010
0010
0001
0000
,
2002
0000
0000
3003
,
0001
0001
0100
0000
,
0001
0001
1000
1000
,
0100
0100
1000
0000
,
0220
0000
0000
0330
,
1000
0010
0010
0000
,
0100
0001
1000
0001
,
0010
0100
0100
0000
,
1000
0100
1000
0001
,
0100
0100
0010
0000
,
1000
0010
1000
0001
,
0020
0000
0030
0002
0000
0003
2000
0000
,
3000
0020
0000
0030
0200
0000
0300
0000
,
1001
0000
0000
0000
,
0000
0000
0000
0000
,
0000
0000
0000
0000
,
0000
0000
0000
0000
,
2000
0000
0000
0000
,
3002
0000
0000
0000
,
1003
0000
0000
0000
,
1000
1000
0001
0001
,
0020
0000
0000
0030
,
0200
0000
0000
0300
,
2000
0000
0000
3000
,
0002
0000
0000
0003
,
0200
0000
0000
0300
,
0020
0000
0000
0030
,
2000
0000
0000
3000
,
0002
0000
0000
0000
,
1003
0000
0000
0000
,
0000
0000
0000
0000
,
0120
0000
0000
0030
,
1002
0000
0000
0003
,
2100
0000
0000
0000
,
3010
0010
0100
0001
,
1000
1000
0001
0001
,
0010
0100
1000
0001
,
1000
1000
0001
0001
,
1000
0010
0100
0001
,
2000
0000
0000
3000
,
1200
0000
0000
0300
,
0021
0000
0000
0030
,
0001
0100
0001
1000
,
0001
0001
1000
1000
,
0100
0010
0001
1000
,
0002
0000
0000
1000
0000
0000
1000
0000
,
2000
0000
3003
0000
,
1001
0000
0000
0000
,
0000
0000
0000
0000
,
0000
0000
0000
0000
,
0000
0000
0000
0000
,
0022
0000
0000
0033
,
2020
0000
0000
3030
,
0220
0000
0000
0330
,
0022
0000
0000
0033
,
2002
0000
0000
0000
,
0000
0000
0000
0000
,
3003
0000
0000
0000
;

//---------------dance-single - MEGAtive----------------
#NOTEDATA:;
#CHARTNAME:;
#STEPSTYPE:dance-single;
#DESCRIPTION:MEGAtive;
#CHARTSTYLE:;
#DIFFICULTY:Easy;
#METER:7;
#RADARVALUES:0.313770,0.571510,0.560304,0.351124,0.000000,294.000000,219.000000,75.000000,47.000000,0.000000,0.000000,0.000000,0.000000,0.000000,0.313770,0.571510,0.560304,0.351124,0.000000,294.000000,219.000000,75.000000,47.000000,0.000000,0.000000,0.000000,0.000000,0.000000;
#CREDIT:;
#NOTES:
0000
0000
0000
0000
,
0000
0000
0000
0000
,
0000
0000
0000
0000
,
0000
0000
0000
0000
,
0000
0000
0000
0000
,
1001
0000
0000
0000
,
1010
0000
0000
0000
,
1001
0000
0000
0000
,
0001
0000
1000
0001
0000
0001
1000
0000
,
1010
0010
0100
0010
,
1000
0100
0010
0100
,
1000
0010
0100
0010
,
1000
0100
0020
0000
,
0031
0100
0010
0100
,
0001
0010
0100
0010
,
0001
0100
0010
0100
,
0001
1000
0001
0000
,
2000
0100
0100
3100
,
2000
0001
0001
3001
,
0200
0010
0010
0310
,
2000
0001
0001
3001
,
1000
1000
0010
0010
,
0100
0100
0001
0001
,
1000
0100
0010
0001
,
2002
0000
0000
3003
,
1001
0001
1000
1000
,
0020
0100
1000
0100
,
1030
1000
0001
0001
,
0220
0000
0000
0330
,
1000
1000
0001
0001
,
0020
0100
0001
0100
,
0031
0001
1000
1000
,
0220
0000
0330
0110
,
1001
1000
0001
0001
,
0200
0010
0001
0010
,
0301
0001
1000
1000
,
0200
0010
1000
0010
,
1300
1000
0001
0001
,
0200
0010
0001
0310
,
0202
0000
0303
2002
0000
3003
2200
0000
,
3300
2002
0000
3003
0220
0000
0000
0000
,
0330
0000
0000
0000
,
0000
0000
0000
0000
,
0000
0000
0000
0000
,
0000
0000
0000
0000
,
1000
0000
0010
0000
,
0100
0000
0001
0000
,
2002
0000
0000
3003
,
1001
0110
1001
0110
,
1001
0000
0000
0011
0000
0000
1100
0000
,
1001
0000
0000
1010
0000
0000
0101
0000
,
1001
0000
0000
1100
0000
0000
0011
0000
,
1001
0000
0000
0101
0000
0000
1010
0000
,
1001
0000
0000
0011
0000
0000
1100
0000
,
1001
0000
0000
1010
0000
0000
0101
0000
,
1001
0000
0000
1100
0000
0000
0011
0000
,
1001
0000
0000
0101
0000
0000
1010
0000
,
1001
0000
0000
0000
,
0000
0000
0000
0000
,
2002
0000
0000
3003
,
2020
0000
0000
3030
,
0022
0000
0000
0033
,
0001
0001
1000
1000
,
1001
1010
1001
0011
,
1001
1010
0210
0010
,
0301
1001
1100
1001
,
0201
0010
0001
0010
,
0302
0000
0000
0003
,
2200
0000
0000
3300
,
2002
0000
0000
3003
,
1000
1000
0001
0001
,
1001
1100
1001
0101
,
1001
1100
0110
0011
,
2001
0000
0001
0001
0000
0001
0001
0000
,
3002
0000
1003
0110
,
1001
0000
0000
0000
,
0000
0000
0000
0000
,
0000
0000
0000
0000
,
0000
0000
0000
0000
,
1000
0010
0100
0001
,
1000
0100
0010
0001
,
1000
0010
0100
0001
,
0220
0000
0000
0000
0000
0000
0000
0330
,
2002
0000
0000
0000
,
0000
0000
0000
3003
,
1001
0000
0000
0000
;

//---------------dance-single - MEGAtive----------------
#NOTEDATA:;
#CHARTNAME:;
#STEPSTYPE:dance-single;
#DESCRIPTION:MEGAtive;
#CHARTSTYLE:;
#DIFFICULTY:Medium;
#METER:10;
#RADARVALUES:0.421562,0.571510,0.328711,0.306299,0.014941,395.000000,351.000000,44.000000,41.000000,0.000000,0.000000,0.000000,0.000000,0.000000,0.421562,0.571510,0.328711,0.306299,0.014941,395.000000,351.000000,44.000000,41.000000,0.000000,0.000000,0.000000,0.000000,0.000000;
#CREDIT:;
#NOTES:
0000
0000
0000
0000
,
0000
0000
0000
0000
,
0000
0000
0000
0000
,
0000
0000
0000
0000
,
0000
0000
0000
0000
,
1002
0000
0003
0000
,
0201
0000
0300
0000
,
1200
0000
0300
0000
,
1000
0000
0001
1000
0000
1000
0001
0100
,
0002
1000
1000
1003
,
0002
0100
0100
0103
,
0002
0010
0010
0013
,
0002
1000
1003
0000
,
2001
0001
0001
3001
,
2000
0100
0100
3100
,
2000
0010
0010
3010
,
2000
0001
3001
0000
,
1200
1000
1000
1000
,
0010
0010
0010
0310
,
0012
0010
0010
0010
,
0100
0100
0100
0103
,
2001
0010
0001
0100
,
3002
0100
1000
0010
,
2000
0000
0000
0000
,
3003
0000
0000
0000
,
1010
1000
0011
0001
,
1020
0100
0001
0100
,
1030
1100
0001
0101
,
2000
0000
0000
0002
0000
0000
3003
0000
,
0011
0001
1010
1000
,
0021
0100
1000
0100
,
0031
0011
1000
1010
,
0002
2000
3003
0110
,
1010
1000
0011
0001
,
1100
1000
0101
0001
,
1010
1000
0011
0001
,
1100
0000
1000
0000
0011
0001
1000
0010
,
1010
1000
0011
0001
,
1100
0000
1000
0000
0101
0001
0100
0000
,
0220
0000
0330
2020
0000
3030
2002
0000
,
3003
0022
0000
0033
2002
0000
0000
0000
,
3003
0000
0000
0000
,
0000
0000
0000
0000
,
0000
0000
0000
0000
,
0000
0000
0000
0000
,
0002
0000
0023
0000
,
0230
0000
2300
0000
,
3001
0001
0001
0001
,
1001
0110
1001
0110
,
1000
0001
1000
0010
0100
0001
1000
0010
,
0000
1000
0001
0010
0100
1000
0001
0010
,
0000
0001
1000
0010
0100
0001
1000
0010
,
0000
1000
0001
0010
0100
0010
0001
1000
,
0000
1000
0001
0100
0010
1000
0001
0100
,
0000
0001
1000
0100
0010
0001
1000
0100
,
0000
1000
0001
0100
0010
1000
0001
0100
,
0000
0001
1000
0100
0010
0100
1000
0001
,
0100
0000
0000
0000
,
0000
0000
0000
0000
,
1010
0010
1000
0010
1000
0001
0010
0001
,
1000
0100
1000
0100
1000
0001
0100
0001
,
1000
0010
1000
0010
1000
0001
0010
0001
,
1000
0100
0010
0100
1000
0010
0100
0000
,
0001
0010
0100
1000
0010
0100
0010
1000
,
0001
0010
0100
1000
0002
0000
0100
0000
,
0103
0001
0010
0100
1000
0010
0100
0010
,
1000
0001
1000
0100
0010
0001
0010
0100
,
1000
0100
1000
0100
1000
0001
0100
0001
,
1000
0010
1000
0010
1000
0001
0010
0001
,
1000
0100
1000
0100
1000
0001
0100
0001
,
1000
0010
0100
0010
1000
0100
0010
0000
,
0001
0100
0010
1000
0100
0010
0100
1000
,
0001
1000
0100
0010
0002
0000
1000
0000
,
0203
0000
0010
0010
0000
0001
0001
0000
,
0301
1000
0100
0010
0001
0000
0110
0000
,
1001
0000
0000
0000
,
0000
0000
0000
0000
,
1000
1000
1000
1000
,
0001
0001
0001
0001
,
1000
0010
0100
0010
1000
0001
0010
0100
,
0000
1000
0100
1000
0001
0100
0010
1000
,
0000
0001
0100
0001
1000
0100
0010
0001
,
1000
0000
1000
0000
1000
0000
0010
0000
0010
0000
0010
0000
,
2002
0000
0000
0000
,
0000
0000
0000
3003
,
1001
0000
0000
0000
;

//---------------dance-single - MEGAtive----------------
#NOTEDATA:;
#CHARTNAME:;
#STEPSTYPE:dance-single;
#DESCRIPTION:MEGAtive;
#CHARTSTYLE:;
#DIFFICULTY:Hard;
#METER:13;
#RADARVALUES:0.508009,0.730262,0.567774,0.298829,0.067236,476.000000,400.000000,76.000000,40.000000,0.000000,0.000000,0.000000,0.000000,0.000000,0.508009,0.730262,0.567774,0.298829,0.067236,476.000000,400.000000,76.000000,40.000000,0.000000,0.000000,0.000000,0.000000,0.000000;
#CREDIT:;
#NOTES:
// measure 0
0000
0000
0000
0000
,  // measure 1
0000
0000
0000
0000
,  // measure 2
0000
0000
0000
0000
,  // measure 3
0000
0000
0000
0000
,  // measure 4
0000
0000
0000
0000
,  // measure 5
0012
0000
0000
0003
,  // measure 6
2010
0000
0000
3000
,  // measure 7
1200
0000
0000
0000
,  // measure 8
0310
0000
0100
0010
0000
0010
0001
1000
,  // measure 9
0002
0100
1000
0100
,  // measure 10
2003
0100
0001
0100
,  // measure 11
3002
0010
1000
0010
,  // measure 12
2003
0010
3001
0000
,  // measure 13
1002
0100
1000
0100
,  // measure 14
2003
0100
0001
0100
,  // measure 15
3002
0010
1000
0010
,  // measure 16
2003
0010
3001
0000
,  // measure 17
0021
0100
0001
0100
,  // measure 18
0001
0000
0100
0000
0001
0000
0130
1000
,  // measure 19
0020
0100
1000
0100
,  // measure 20
1000
0100
1000
0100
,  // measure 21
1030
0001
1000
0100
0010
0001
1000
0010
,  // measure 22
0200
1000
0010
1000
,  // measure 23
0310
1000
0001
0010
1000
0001
0100
1000
,  // measure 24
0010
0000
0110
0000
,  // measure 25
1001
0011
1001
1010
,  // measure 26
2001
0100
0001
0010
,  // measure 27
3001
0011
1001
1010
,  // measure 28
0220
0000
0000
0330
,  // measure 29
1001
1100
1001
0101
,  // measure 30
1002
0010
1000
0100
,  // measure 31
1003
1100
1001
0101
,  // measure 32
0220
0000
0330
1001
,  // measure 33
0011
0110
1010
1001
,  // measure 34
0011
0110
1010
1001
,  // measure 35
1100
0110
0101
1001
,  // measure 36
1100
0110
0101
1001
,  // measure 37
0011
1001
1010
1001
,  // measure 38
0011
0000
1010
0000
0011
0001
1001
0000
,  // measure 39
2020
0000
3030
0220
0000
0330
2002
0000
,  // measure 40
3003
0022
0000
0033
2002
0000
0003
0000
,  // measure 41
3001
0000
0000
0000
,  // measure 42
0000
0000
0000
0000
,  // measure 43
0000
0000
0000
0000
,  // measure 44
0000
0000
0000
0000
,  // measure 45
2000
0000
3200
0000
,  // measure 46
0320
0000
0032
0000
,  // measure 47
1003
0010
0100
0001
1000
0100
1000
0000
,  // measure 48
1001
0101
1001
1100
,  // measure 49
1000
0000
0100
1000
0100
0000
1000
0000
0100
0000
1000
0000
0100
0000
1000
0000
,  // measure 50
0001
0000
0010
0001
0010
0000
0001
0000
0010
0000
0001
0000
0010
0000
0001
0000
,  // measure 51
1000
0000
0010
1000
0010
0000
1000
0000
0010
0000
1000
0000
0010
0000
1000
0000
,  // measure 52
0001
0000
0100
0001
0100
0000
0001
0000
0100
0000
0010
0000
0100
0000
0001
0000
,  // measure 53
1000
0000
0100
1000
0100
0000
1000
0000
0100
0000
1000
0000
0100
0000
1000
0000
,  // measure 54
0001
0000
0010
0001
0010
0000
0001
0000
0010
0000
0001
0000
0010
0000
0001
0000
,  // measure 55
1000
0000
0010
1000
0010
0000
1000
0000
0010
0000
1000
0000
0010
0000
1000
0000
,  // measure 56
0001
0000
0100
0001
0100
0000
0001
0000
0100
0000
0001
0000
0100
0000
0001
0000
,  // measure 57
1000
0000
0000
0000
,  // measure 58
0000
0000
0000
0000
,  // measure 59
0011
0000
0001
0010
0100
0000
0010
0000
0100
0000
0010
0000
0100
0000
1000
0000
,  // measure 60
1001
0000
1000
0010
0100
0000
0010
0000
0100
0000
0001
0000
1000
0000
0100
0000
,  // measure 61
1100
0000
1000
0100
0010
0000
0100
0000
0010
0000
0100
0000
0010
0000
0001
0000
,  // measure 62
1001
1000
1010
0010
0110
0100
0101
0000
,  // measure 63
1001
1000
0100
0001
0100
0010
0001
0100
,  // measure 64
0010
1000
0010
0100
0020
1000
1000
1000
,  // measure 65
1030
0010
0100
0010
1000
0100
0010
0001
,  // measure 66
0100
1000
0100
0010
0100
0001
0010
0100
,  // measure 67
1100
0000
1000
0100
0010
0000
0100
0000
0010
0000
0100
0000
0010
0000
0001
0000
,  // measure 68
1001
0000
1000
0010
0100
0000
0010
0000
0100
0000
0001
0000
1000
0000
0100
0000
,  // measure 69
1100
0000
1000
0100
0010
0000
0100
0000
0010
0000
0100
0000
0010
0000
0001
0000
,  // measure 70
1001
1000
1010
0010
0110
0100
0101
0000
,  // measure 71
1001
0001
0010
1000
0010
0100
1000
0010
,  // measure 72
0100
0010
1000
0001
0100
0001
0010
0100
,  // measure 73
0020
0000
0100
0100
0000
0001
0001
0000
,  // measure 74
0031
0100
0001
1000
0010
0100
0010
1000
,  // measure 75
0002
0000
1000
0100
,  // measure 76
1003
0010
0100
0001
,  // measure 77
1000
0100
0010
0001
,  // measure 78
1000
0010
0100
0001
,  // measure 79
1000
0100
0010
0100
1000
0001
0010
0001
,  // measure 80
1000
0010
0100
0010
1000
0001
0100
0001
,  // measure 81
1000
0100
0010
0001
1000
0010
0100
0001
,  // measure 82
0020
0000
0001
0000
0100
0000
1000
0000
0100
0000
0031
0000
,  // measure 83
2002
0000
0000
0000
,  // measure 84
0000
0000
0000
0000
0000
0000
0000
3003
,  // measure 85
1001
0000
0000
0000
;
