#VERSION:0.83;
#TITLE:Pure Evil;
#SUBTITLE:;
#ARTIST:kors k;
#TITLETRANSLIT:;
#SUBTITLETRANSLIT:;
#ARTISTTRANSLIT:;
#GENRE:;
#ORIGIN:;
#CREDIT:;
#BANNER:Pure Evil.png;
#BACKGROUND:Pure Evil-bg.png;
#PREVIEWVID:;
#JACKET:Pure Evil-jacket.png;
#CDIMAGE:;
#DISCIMAGE:;
#LYRICSPATH:;
#CDTITLE:MEGAtive-cdtitle.png;
#MUSIC:Pure Evil.ogg;
#OFFSET:-1.262990;
#SAMPLESTART:80.844559;
#SAMPLELENGTH:11.368423;
#SELECTABLE:YES;
#DISPLAYBPM:190.000000;
#BPMS:0.000=190.000,
60.000=380.000,
64.000=190.000,
124.000=380.000,
126.000=190.000,
127.000=95.000,
127.250=285.000,
128.000=190.000,
156.000=95.000,
158.000=47.500,
166.000=190.000,
226.000=570.000,
229.000=190.000,
300.000=95.000,
301.000=190.000;
#STOPS:60.000=0.632,
124.000=0.119,
124.750=0.119,
125.500=0.080,
226.000=0.631;
#DELAYS:;
#WARPS:;
#TIMESIGNATURES:0.000=4=4;
#TICKCOUNTS:0.000=4;
#COMBOS:0.000=1;
#SPEEDS:0.000=1.000=0.000=0;
#SCROLLS:0.000=1.000;
#FAKES:;
#LABELS:0.000=Song Start;
#BGCHANGES:;
#KEYSOUNDS:;
#ATTACKS:
;

//---------------dance-single - ----------------
#NOTEDATA:;
#CHARTNAME:;
#STEPSTYPE:dance-single;
#DESCRIPTION:;
#CHARTSTYLE:;
#DIFFICULTY:Easy;
#METER:8;
#RADARVALUES:0.537653,0.634127,1.014603,0.156093,0.000000,434.000000,317.000000,117.000000,18.000000,0.000000,0.000000,0.000000,0.000000,0.000000,0.537653,0.634127,1.014603,0.156093,0.000000,434.000000,317.000000,117.000000,18.000000,0.000000,0.000000,0.000000,0.000000,0.000000;
#CREDIT:;
#DISPLAYBPM:190.000000;
#NOTES:
0000
0000
0000
0000
,
0000
0000
0000
0000
,
0000
0000
0000
0000
,
0000
0000
0000
0000
,
1000
0000
1000
0000
,
1000
0000
1000
0000
,
1000
0000
1000
0000
,
1001
0000
1001
0000
0001
0100
0010
0000
,
1000
0100
1000
0000
0010
0000
0100
0000
,
0001
0010
0100
1000
,
0001
0100
0001
0000
0010
0000
0100
0000
,
1000
0010
0100
0000
0100
0000
0100
0000
,
0001
0001
0001
0001
,
1000
1000
1000
1000
,
1000
0001
1000
0001
1000
0010
0100
0001
,
1000
0000
0000
0000
,
1001
1001
0101
0011
,
0101
1100
2010
3000
,
1001
1001
0011
0101
,
0011
0000
1000
0010
0200
0000
0300
0000
,
1001
1001
1100
1010
,
1100
0101
0012
0003
,
1001
1001
1010
1100
,
1010
0010
0100
0001
,
0000
1001
1001
0101
,
0011
0000
0101
0000
1100
0000
1000
0001
,
0100
0000
1001
0000
0001
0020
0000
0130
,
1000
1010
0011
2000
,
3001
0000
1001
0000
1100
0000
1000
0010
,
1000
0000
0001
0010
0002
0000
1003
0000
,
1001
0000
1001
0000
1000
0010
1000
0100
,
1000
0000
0000
0000
,
1000
0001
1000
0000
1100
0000
1010
0000
,
0011
0000
0101
0000
0001
1000
0100
0010
,
0001
0000
1001
0000
0101
0000
0001
0010
,
0001
1000
0001
0000
1000
0001
0100
0010
,
1000
1001
0101
0011
,
1010
0000
1100
0000
1000
0001
0100
0010
,
1000
0001
1000
0001
1000
0001
1000
0010
,
0200
0000
0301
0000
,
0000
0000
0000
0000
,
0000
0000
1001
0001
,
0001
0001
0001
0001
,
0001
0000
0001
1000
1001
0000
1000
0000
,
1000
1000
1000
1000
,
1000
0000
1000
0001
1001
0000
0001
0000
,
0001
0001
0001
0001
,
0001
0000
0001
1000
1001
0000
1000
0000
,
1000
1000
1000
1000
,
1000
0000
1000
0001
1001
0000
1000
0000
,
0010
0100
1001
1000
,
0100
0010
1001
0001
,
0100
0010
1001
0001
,
0010
0100
1001
0001
,
0101
0001
1001
0001
,
0011
0001
1001
1010
,
1001
0011
1001
0000
,
0000
0000
1001
0101
,
0011
0110
1100
1010
,
0110
0000
0011
0000
0001
0100
0010
0000
,
1010
1001
1100
0101
,
0011
0101
1001
0101
,
0011
0110
1100
1010
,
0110
0000
0011
0000
0001
0100
0010
0000
,
1000
0010
1000
0000
1000
0100
1000
0010
,
0100
0001
0010
0100
1000
0000
1010
0000
,
1100
1010
0011
0101
,
0011
0000
2002
3003
1001
0000
0011
0000
,
0101
0000
0011
0000
1010
0000
1000
0001
,
0100
0110
1001
1001
,
1010
1010
1001
1001
,
0011
0000
0011
0000
0100
0002
0003
2000
,
3000
0020
0030
0200
0301
0000
0000
0000
,
0000
0000
0000
0000
1001
0000
0000
1010
,
0000
0000
0011
0000
0100
0001
1000
0000
,
2002
0000
0000
3003
1001
0000
0000
0000
0001
0000
1000
0000
0000
0000
1000
0000
,
0001
0000
0001
1000
0000
1000
0001
0000
,
0001
1010
1000
1000
,
1000
0011
0001
0001
,
0001
0200
0000
0302
,
0000
2000
0000
0000
,
0000
3003
0000
0000
;

//---------------dance-single - ----------------
#NOTEDATA:;
#CHARTNAME:;
#STEPSTYPE:dance-single;
#DESCRIPTION:;
#CHARTSTYLE:;
#DIFFICULTY:Medium;
#METER:13;
#RADARVALUES:0.615699,0.669356,0.277498,0.138749,0.013008,497.000000,465.000000,32.000000,16.000000,0.000000,0.000000,0.000000,0.000000,0.000000,0.615699,0.669356,0.277498,0.138749,0.013008,497.000000,465.000000,32.000000,16.000000,0.000000,0.000000,0.000000,0.000000,0.000000;
#CREDIT:;
#DISPLAYBPM:190.000000;
#NOTES:
0000
0000
0000
0000
,
0000
0000
0000
0000
,
0000
0000
0000
0000
,
0000
0000
0000
0000
,
1000
0001
0100
0000
0001
0010
0000
0001
,
0100
0000
0001
0010
0000
0001
0200
0000
,
0301
0001
1000
1000
,
1001
0000
1001
0000
1000
0100
0010
0001
,
1000
1000
1000
0000
0001
0100
0001
0100
,
0000
0001
1000
0000
0002
0000
0023
0000
,
0130
1000
0001
0000
1000
0100
1000
0100
,
1000
0010
0100
0000
0110
0000
1001
0000
,
0001
0100
0001
1000
0001
0010
0100
1000
,
0001
0010
0001
1000
0001
0100
0010
1000
,
0001
0001
1000
1000
0010
0010
0100
0100
,
1001
0000
0000
0000
,
1001
0000
1001
0000
0001
0010
0100
0010
,
0000
0001
0100
0000
0020
0000
2030
0000
,
3001
0000
1001
0000
1000
0010
0100
0010
,
0000
1000
0001
1000
0100
0010
0100
0000
,
1001
0000
1001
0000
0001
0010
0100
0010
,
0000
0001
0100
0000
0020
0000
2030
0000
,
3001
0000
1001
0000
1000
0010
0100
0000
,
0001
1000
0001
0010
0100
1000
0010
0100
,
0000
0000
1001
0000
1001
0000
1000
0010
,
0100
0001
1000
0100
0010
0100
1000
0001
,
1001
0000
1001
0000
0001
0010
0100
1000
,
0001
0000
0100
0000
0010
0000
0100
0000
0001
0000
1000
0001
1000
0000
0001
0000
,
1001
0000
1001
0000
1000
0100
0010
0100
,
2000
0000
3001
0001
0200
0000
0310
0000
,
1001
0000
0000
0000
1001
0000
0000
0000
1001
0000
0001
1000
0001
0000
1000
0000
,
0001
0000
0000
0000
,
1001
1000
0010
0000
1000
0001
1000
0001
,
1000
0010
0100
0001
1000
0100
0010
0001
,
1000
0000
1001
0000
1000
0001
0010
0100
,
1000
0001
1000
0000
0001
1000
0010
0100
,
0001
0000
1001
0000
1000
0010
0100
0001
,
1000
0001
0010
0100
1000
0010
0100
0001
,
1000
1000
0100
0100
0010
0010
0001
0001
,
2000
0000
3001
0000
,
0000
0000
0000
0000
,
0000
0000
0000
0000
1001
0000
0001
1000
,
0000
1000
0001
0000
0001
1000
0000
1000
,
0001
0000
0100
0000
1001
0000
1000
0001
,
0000
0001
1000
0000
1000
0001
0000
0001
,
1000
0010
1000
0001
1001
0000
0001
1000
,
0000
1000
0001
0000
0001
1000
0000
1000
,
0001
0000
0010
0000
1001
0000
1000
0001
,
0000
0001
1000
0000
1000
0001
0000
0001
,
1000
0100
1000
0001
0101
0100
0000
0100
,
0000
0010
0000
0010
1000
0001
0000
0001
,
0000
1000
0000
1000
0100
0010
0000
0010
,
0000
0100
0000
0100
1000
0010
0000
0010
,
0000
1000
0000
1000
0001
0100
0010
1000
,
0001
0100
0010
1000
0001
0010
0100
1000
,
0001
0010
0100
1000
0001
0100
0001
1000
,
0001
0010
0001
1000
1001
0000
0000
0000
,
0000
0000
0000
0000
1000
0010
1000
0010
,
1000
0001
1000
0001
0100
0001
0100
0001
,
1000
0010
0001
0010
1000
1000
1000
0010
,
1000
0001
1000
0001
1000
0010
1000
0010
,
0100
0010
0100
0001
1000
0100
1000
0100
,
1000
0001
1000
0001
0010
0001
0010
0001
,
1000
0100
0001
0100
1000
1000
1000
0100
,
1000
0001
1000
0001
1000
0100
1000
0001
,
0010
0100
0010
0001
1000
0010
1000
0010
,
1000
0001
1000
0001
0100
0001
0100
0001
,
1000
0010
0200
0001
0301
0100
0001
0100
,
0001
1000
0001
1000
0001
0100
0001
0100
,
0001
0010
0100
1000
0001
0010
0001
1000
,
0001
0100
0001
1000
0100
0010
0100
1000
,
0100
0010
0100
1000
0001
0100
0001
1000
,
0001
0000
0010
0000
0001
0000
1000
0000
0001
0000
1000
0001
1000
0000
1000
0000
,
0020
0000
0130
0000
1001
0000
0001
0100
,
0000
0100
0010
0000
0010
1000
1000
0010
,
0200
0000
0000
0300
1001
0000
0000
0000
0001
0000
0100
0000
0010
0000
0100
0000
,
0001
1000
0010
1000
0001
1000
0100
0010
,
0100
1000
0001
0000
0001
0000
0001
0000
,
0001
0101
0100
0100
,
0100
0001
0020
0000
0000
0000
0002
0000
,
0000
0030
2000
0000
0000
0000
0000
0000
,
0000
3003
0000
0000
;

//---------------dance-single - ----------------
#NOTEDATA:;
#CHARTNAME:;
#STEPSTYPE:dance-single;
#DESCRIPTION:;
#CHARTSTYLE:;
#DIFFICULTY:Hard;
#METER:16;
#RADARVALUES:0.735866,0.951191,0.494294,0.225467,0.221131,594.000000,537.000000,57.000000,26.000000,4.000000,0.000000,0.000000,0.000000,0.000000,0.735866,0.951191,0.494294,0.225467,0.221131,594.000000,537.000000,57.000000,26.000000,4.000000,0.000000,0.000000,0.000000,0.000000;
#CREDIT:;
#DISPLAYBPM:190.000000;
#NOTES:
// measure 0
0000
0000
0000
0000
,  // measure 1
0000
0000
0000
0000
,  // measure 2
0000
0000
0000
0000
,  // measure 3
0000
0000
0000
0000
,  // measure 4
1000
0100
0001
0000
0001
0100
0000
0100
,  // measure 5
0001
0000
0001
0100
0000
0100
0002
0000
,  // measure 6
0103
0100
1000
1000
,  // measure 7
0101
0000
0101
0000
0001
0100
1000
0100
,  // measure 8
0001
0001
0011
0000
0100
1000
0100
0010
,  // measure 9
0000
0010
0100
0000
2010
0000
0001
0000
,  // measure 10
3001
0001
0011
0000
0100
0010
0100
1000
,  // measure 11
0001
0001
0101
0000
0110
0000
1010
0000
,  // measure 12
1001
0001
0100
1000
0100
0001
0100
1000
,  // measure 13
0100
0010
1000
0100
0010
0001
0100
0010
,  // measure 14
1000
0001
1000
0001
1000
0001
1000
0001
1000
0001
1000
0001
1000
0001
1000
0001
,  // measure 15
1000
0000
0000
0000
,  // measure 16
1001
0000
1001
0001
0101
0000
0010
1000
,  // measure 17
0001
0000
1000
0000
1100
0000
0000
0000
0220
0000
0000
0330
2020
0000
0000
3030
,  // measure 18
1001
0000
1100
1000
1001
0000
0001
0100
,  // measure 19
0010
0000
0100
0000
0101
0000
0001
1000
0200
0000
0010
0000
0310
0000
0100
0000
,  // measure 20
1001
0000
1001
0001
0101
0000
0010
1000
,  // measure 21
0001
1000
1100
0000
2010
0000
0001
0001
,  // measure 22
3001
0000
1100
1000
1001
0000
0001
0100
,  // measure 23
1000
0100
0010
1000
0100
0010
0100
1000
,  // measure 24
0000
0000
1001
0000
0001
0100
1000
0100
,  // measure 25
0001
0000
0100
0000
1000
0000
0100
0000
0001
0000
0010
0000
0100
0000
0100
1000
,  // measure 26
0001
0000
0001
0010
1000
0010
M010
0100
,  // measure 27
1000
0000
0100
0000
0001
0000
0100
0000
0010
0000
1000
0001
1000
0001
0100
0010
,  // measure 28
1000
0010
0001
0010
1000
0010
0001
00M1
,  // measure 29
2000
0000
0000
0000
3100
0000
0010
0000
0001
0000
0000
0000
0202
0000
0000
0303
,  // measure 30
1001
0000
0000
0000
2002
3003
0000
0000
2001
0000
3001
0100
0010
0000
0010
0000
,  // measure 31
1000
0000
0000
0000
,  // measure 32
0011
0001
1001
1000
0100
0001
0100
1000
,  // measure 33
0010
0100
0010
1000
0100
M100
0001
1000
,  // measure 34
0010
0000
0010
1000
0001
0000
0010
0000
1000
0000
0010
0000
0001
0000
0100
0000
,  // measure 35
0101
0000
2002
0000
0003
3001
0010
0100
,  // measure 36
1100
1000
0010
0001
0010
1000
0100
0010
,  // measure 37
0100
0000
1000
0000
0010
0000
M010
0000
0001
0000
1000
0001
1000
0000
1000
0001
,  // measure 38
1000
0010
0001
0010
0100
0001
0010
0100
,  // measure 39
2000
0000
0000
0000
0000
0000
0000
0000
0000
0000
0000
0000
0000
0000
0000
3000
2002
0000
0000
0000
0000
0000
0000
0000
3003
0000
0000
0000
1000
0000
0000
0000
,  // measure 40
1000
1000
1000
1000
1000
1000
1000
1000
,  // measure 41
1000
1000
1000
1000
1001
0000
0001
1000
,  // measure 42
0000
1000
0001
0000
0001
0100
0000
0100
,  // measure 43
0010
0000
1010
0000
1001
0000
1000
0001
,  // measure 44
0000
0001
1000
0000
1000
0100
0000
0100
,  // measure 45
0010
0100
1000
0001
1001
0000
0001
1000
,  // measure 46
0000
1000
0001
0000
0001
0010
0000
0010
,  // measure 47
0100
0000
1100
0000
1001
0000
1000
0001
,  // measure 48
0000
0000
0001
0000
1000
0000
0000
0000
1000
0000
0010
0100
0010
0000
0010
1000
,  // measure 49
0010
0000
0001
1000
0001
0000
0001
0000
1001
0000
0100
0000
0000
0000
0100
0000
,  // measure 50
0000
0000
0010
0000
0000
0000
0010
1000
0001
0000
0010
0000
0000
0000
0010
0000
,  // measure 51
0000
0000
0100
0000
0000
0000
0100
1000
0001
0000
0100
0000
0000
0000
0100
0000
,  // measure 52
0000
0000
0010
0000
0000
0000
0010
1000
0001
0000
0010
0000
0000
0000
0010
0000
,  // measure 53
0000
0000
0100
0010
0100
0000
0100
1000
0100
0000
0010
0000
0001
0000
0010
0100
,  // measure 54
0010
0000
0001
0000
0100
0000
0001
1000
0001
0000
0100
0000
1000
0000
0100
0010
,  // measure 55
0100
0000
1000
0000
0100
0000
0010
1000
0001
1000
0001
1000
0001
1000
0001
1000
,  // measure 56
0001
1000
0001
1000
0001
1000
0001
1000
0001
0000
0000
0000
0000
0000
0000
0000
,  // measure 57
0000
0000
0000
0000
1001
0001
1000
0010
,  // measure 58
1000
0001
0010
0001
1000
0001
1000
0010
,  // measure 59
1000
0001
1000
0100
1000
1000
0010
1000
,  // measure 60
0001
0010
0001
1000
0001
0010
1000
0010
,  // measure 61
0100
1000
0010
0100
0001
1000
0001
0100
,  // measure 62
0001
1000
0100
1000
0001
1000
0001
0100
,  // measure 63
0001
1000
0001
0010
0001
0001
0100
0001
,  // measure 64
1000
0000
0100
0010
0100
0000
0100
1000
0001
0000
0100
0000
0010
0000
0100
0000
,  // measure 65
0001
1000
0100
1000
1000
0001
1000
0100
,  // measure 66
1000
0001
0100
0001
1000
0001
1000
0100
,  // measure 67
1000
0001
2000
0000
3001
1000
0100
1000
,  // measure 68
0001
0000
0100
0000
0001
0000
1000
0000
0100
0000
0100
0000
1000
0000
0010
0100
,  // measure 69
0010
1000
0100
0010
0001
1000
0001
0010
,  // measure 70
0001
1000
0010
1000
0001
1000
0001
0010
,  // measure 71
0001
0000
1000
0000
0001
0000
0100
0000
0001
0000
0000
1000
0001
0000
0000
0010
,  // measure 72
0001
0000
0000
1000
0001
0000
0000
0100
0001
0000
0010
0100
0010
0000
0010
0000
,  // measure 73
0002
0000
1000
1000
1003
0000
0010
1010
,  // measure 74
0000
0000
1000
0000
1100
0000
0000
0000
0101
0000
0001
1000
0100
0000
0010
0000
,  // measure 75
0220
0000
0000
0330
1001
0000
0000
0000
0001
0000
0010
0000
0001
0000
1000
0000
,  // measure 76
0001
0000
0100
0000
0010
0000
1000
0100
1000
0000
0100
0010
0100
0000
1000
0000
,  // measure 77
0001
0100
0001
0100
0001
0000
0000
0000
0101
0000
0000
0000
1001
0000
0000
0000
,  // measure 78
1001
1100
1100
1001
,  // measure 79
1001
0000
0001
1000
0002
0000
0000
0000
0000
0000
0000
0000
2000
0000
0000
0000
,  // measure 80
0000
0000
0000
0003
0020
0000
0000
0000
0000
0000
0000
0000
0000
0000
0000
0000
,  // measure 81
0000
3030
0000
0000
;

//---------------dance-single - ----------------
#NOTEDATA:;
#CHARTNAME:;
#STEPSTYPE:dance-single;
#DESCRIPTION:;
#CHARTSTYLE:;
#DIFFICULTY:Beginner;
#METER:4;
#RADARVALUES:0.309708,0.422751,0.199452,0.069375,0.000000,250.000000,227.000000,23.000000,8.000000,0.000000,0.000000,0.000000,0.000000,0.000000,0.309708,0.422751,0.199452,0.069375,0.000000,250.000000,227.000000,23.000000,8.000000,0.000000,0.000000,0.000000,0.000000,0.000000;
#CREDIT:;
#DISPLAYBPM:190.000000;
#NOTES:
0000
0000
0000
0000
,
0000
0000
0000
0000
,
0000
0000
0000
0000
,
0000
0000
0000
0000
,
1000
0000
1000
0000
,
1000
0000
1000
0000
,
0001
0000
0001
0000
,
0001
0001
1000
1000
,
0010
0000
0100
0100
,
0100
0000
0001
0001
,
0001
0000
0010
0010
,
0010
0100
1000
0001
,
1000
1000
1000
1000
,
0001
0001
0001
0001
,
0200
0000
0020
0000
,
0330
0000
0000
0000
,
1001
1001
0001
0000
,
0100
0100
0100
0000
,
0010
0010
0010
0000
,
1000
1000
1000
0000
,
1001
1001
1000
0000
,
0100
0100
0100
0000
,
0010
0010
0010
0000
,
0001
0001
1000
1000
,
0000
1001
0001
0000
,
1000
0010
0010
0100
,
0001
0001
1000
0000
,
1000
0100
0100
0000
,
1001
1001
0001
0000
,
0100
0010
0010
1000
,
0001
0001
0001
0001
,
0001
0000
0000
0000
,
1001
1001
0000
0000
,
0000
0000
0000
1000
,
1000
0010
0000
0000
,
0000
0000
0000
1000
,
1001
1001
0000
0000
,
0000
0000
0000
0001
,
0001
0010
0000
0000
,
1001
0000
2002
3003
,
0000
0000
0000
0000
,
0000
0000
1000
1000
,
1000
0000
0001
0001
,
0001
0100
0010
0010
,
0010
0000
1000
1000
,
1000
0100
0010
0010
,
0010
0000
0100
1000
,
1000
0010
0100
0100
,
0100
0000
0001
0001
,
1000
1000
0001
0001
,
0001
0001
1000
1000
,
1000
1000
0001
0001
,
0001
0001
1000
1000
,
1000
1000
1001
0000
,
1001
0000
1001
0000
,
1001
0000
1001
0001
,
0101
0001
1001
0000
,
0000
0000
1000
1000
,
0010
0000
0100
0001
,
0001
0010
0100
0100
,
1000
0000
0010
0100
,
0100
0001
0010
0010
,
0010
0000
0100
1000
,
1000
0010
0100
0100
,
0100
0000
0001
0010
,
0100
1000
0001
0001
,
0100
0000
0010
1000
,
1000
0100
0010
0001
,
0001
0000
0100
0010
,
0010
1000
0100
0010
,
0010
0000
0001
0100
,
0100
0010
1000
0100
,
0100
0010
0001
0000
,
0000
0000
0000
0000
1001
0000
0000
1001
,
0000
1001
1000
0010
,
0200
0301
0001
1000
,
1000
0010
0100
0010
,
1000
0001
0001
0001
,
0001
1000
1000
1000
,
1000
0020
0000
0230
,
0000
0302
0000
0000
,
0000
0003
0000
0000
;
