#VERSION:0.83;
#TITLE:PUPA;
#SUBTITLE:uma remix;
#ARTIST:Morimori Atsushi;
#TITLETRANSLIT:;
#SUBTITLETRANSLIT:;
#ARTISTTRANSLIT:;
#GENRE:;
#ORIGIN:;
#CREDIT:;
#BANNER:PUPA uma remix.png;
#BACKGROUND:PUPA uma remix-bg.png;
#PREVIEWVID:;
#JACKET:PUPA uma remix-jacket.png;
#CDIMAGE:;
#DISCIMAGE:;
#LYRICSPATH:;
#CDTITLE:MEGAtive-cdtitle.png;
#MUSIC:PUPA uma remix.ogg;
#OFFSET:0.000000;
#SAMPLESTART:74.666664;
#SAMPLELENGTH:13.333336;
#SELECTABLE:YES;
#BPMS:0.000=180.000;
#STOPS:;
#DELAYS:;
#WARPS:;
#TIMESIGNATURES:0.000=4=4;
#TICKCOUNTS:0.000=4;
#COMBOS:0.000=1;
#SPEEDS:0.000=1.000=0.000=0;
#SCROLLS:0.000=1.000;
#FAKES:;
#LABELS:0.000=Song Start;
#BGCHANGES:;
#KEYSOUNDS:;
#ATTACKS:
;

//---------------dance-single - ----------------
#NOTEDATA:;
#CHARTNAME:;
#STEPSTYPE:dance-single;
#DESCRIPTION:;
#CHARTSTYLE:;
#DIFFICULTY:Easy;
#METER:9;
#RADARVALUES:0.454802,0.508803,0.398911,0.000000,0.000000,415.000000,363.000000,52.000000,0.000000,0.000000,0.000000,0.000000,0.000000,0.000000,0.454802,0.508803,0.398911,0.000000,0.000000,415.000000,363.000000,52.000000,0.000000,0.000000,0.000000,0.000000,0.000000,0.000000;
#CREDIT:;
#NOTES:
// measure 0
0000
0000
0000
0000
,  // measure 1
0000
0000
0000
0000
,  // measure 2
0000
0000
0000
0000
,  // measure 3
0000
0000
0000
0000
,  // measure 4
1001
0001
0001
0001
,  // measure 5
0001
0001
0001
0001
,  // measure 6
1000
0010
0100
0001
,  // measure 7
1000
0000
0000
0000
,  // measure 8
0001
0000
1000
0000
0000
0010
1000
0000
,  // measure 9
0001
0000
0010
0100
0000
0100
0010
0000
,  // measure 10
0001
0000
1000
0000
0000
0100
1000
0000
,  // measure 11
0001
0000
0100
0010
0000
0010
0100
0001
,  // measure 12
1000
0000
0001
0000
0000
0100
0001
0000
,  // measure 13
1000
0000
0100
0010
0000
0010
0100
0000
,  // measure 14
1000
0000
0001
0000
0000
0010
0001
0000
,  // measure 15
1000
0000
0010
0100
0000
0100
0010
1000
,  // measure 16
0001
0000
1000
0000
0000
0100
1000
0000
,  // measure 17
0001
0000
0100
0010
0000
0010
0100
0000
,  // measure 18
0001
0000
1000
0000
0000
0010
1000
0000
,  // measure 19
0001
0000
0010
0100
0000
0100
0010
0001
,  // measure 20
1000
0000
0001
0000
0000
0010
0001
0000
,  // measure 21
1000
0000
0010
0100
0000
0100
0010
0000
,  // measure 22
1000
0000
0001
0000
0000
0100
0001
0000
,  // measure 23
1000
0000
0100
0010
0000
0010
0100
1000
,  // measure 24
0001
0000
0000
0100
0000
0000
0010
0000
,  // measure 25
0000
1000
0000
0000
0000
0000
0000
0000
,  // measure 26
1000
0000
0000
0100
0000
0000
0010
0000
,  // measure 27
0000
0001
0000
0000
0000
0000
0000
0000
,  // measure 28
0001
0100
0000
0100
0001
0000
1000
0100
,  // measure 29
0000
0100
1000
0000
0000
0000
0000
0000
,  // measure 30
0001
0010
0000
0010
0001
0000
1000
0010
,  // measure 31
0000
0010
1000
0000
0001
0000
0000
0000
,  // measure 32
1001
0000
0000
0110
0000
0000
1001
0000
,  // measure 33
0000
0110
0000
0000
1001
0000
1001
0000
,  // measure 34
1100
0000
0000
1010
0000
0000
1100
0000
,  // measure 35
0000
1010
0000
0000
1100
0000
1100
0000
,  // measure 36
0101
0000
0000
0011
0000
0000
0101
0000
,  // measure 37
0000
0011
0000
0000
0101
0000
0101
0000
,  // measure 38
1001
0000
0000
0000
,  // measure 39
0000
0000
0000
0000
,  // measure 40
1001
1000
0010
0010
,  // measure 41
0100
0100
0001
0000
,  // measure 42
1000
1000
0100
0100
,  // measure 43
0010
0010
0001
0000
,  // measure 44
0001
0001
0100
0100
,  // measure 45
0010
0010
1000
0000
,  // measure 46
1000
1000
0100
0100
,  // measure 47
0010
0010
0001
0000
,  // measure 48
1001
1000
1000
1000
,  // measure 49
1000
1000
1000
1000
,  // measure 50
0001
0001
0001
0001
,  // measure 51
0001
0000
0001
0000
0001
0100
0001
0000
,  // measure 52
1000
1000
1000
1000
,  // measure 53
1000
1000
1000
1000
,  // measure 54
1000
0001
1000
0001
1000
0001
1000
0001
,  // measure 55
1000
0010
0100
0000
,  // measure 56
1001
0000
1000
0100
1000
0000
0001
0000
,  // measure 57
0100
0000
0010
1000
0010
0000
1000
0001
,  // measure 58
1000
0000
0001
0010
0001
0000
1000
0000
,  // measure 59
0010
0000
0100
0001
0100
0000
0001
0000
,  // measure 60
1001
0000
1000
0010
1000
0000
0001
0000
,  // measure 61
0010
0000
0100
1000
0100
0000
1000
0001
,  // measure 62
1000
0000
0001
0100
0001
0000
1000
0100
,  // measure 63
1000
0010
0100
0000
,  // measure 64
1001
0000
0001
0100
0001
0000
1000
0000
,  // measure 65
0100
0000
0010
0001
0010
0000
0001
1000
,  // measure 66
0001
0000
1000
0010
1000
0000
0001
0000
,  // measure 67
0010
0000
0100
1000
0100
0000
1000
0000
,  // measure 68
1001
0000
0001
0010
0001
0000
1000
0000
,  // measure 69
0010
0000
0100
0001
0100
0000
0001
1000
,  // measure 70
0001
0000
1000
0100
1000
0000
0001
0100
,  // measure 71
0001
0010
0100
0000
,  // measure 72
1001
0000
1000
0100
0010
0000
0100
0000
,  // measure 73
1000
0000
0001
0100
0010
0000
0100
0000
,  // measure 74
0001
0000
1000
0100
0010
0000
0100
0000
,  // measure 75
1000
0001
0100
0010
,  // measure 76
1001
0000
1000
0010
0100
0000
0010
0000
,  // measure 77
1000
0000
0001
0010
0100
0000
0010
0000
,  // measure 78
1001
1000
1001
0001
,  // measure 79
1001
0110
1001
0000
,  // measure 80
1001
0000
0001
0010
0100
0000
0010
0000
,  // measure 81
0001
0000
1000
0010
0100
0000
0010
0000
,  // measure 82
1000
0000
0001
0010
0100
0000
0010
0000
,  // measure 83
0001
1000
0010
0100
,  // measure 84
1001
0000
0001
0100
0010
0000
0100
0000
,  // measure 85
0001
0000
1000
0100
0010
0000
0100
0000
,  // measure 86
1001
0001
1001
1000
,  // measure 87
1001
0110
1001
0000
,  // measure 88
1001
0000
0000
1001
0000
0000
1001
0000
,  // measure 89
0000
0000
0000
0000
,  // measure 90
0110
0000
0000
0110
0000
0000
0110
0000
,  // measure 91
0000
0000
0000
0000
,  // measure 92
1001
0000
0000
1001
0000
0000
1001
0000
,  // measure 93
0000
0000
0000
0000
,  // measure 94
0110
0000
0000
0110
0000
0000
0110
0000
;

//---------------dance-single - ----------------
#NOTEDATA:;
#CHARTNAME:;
#STEPSTYPE:dance-single;
#DESCRIPTION:;
#CHARTSTYLE:;
#DIFFICULTY:Medium;
#METER:14;
#RADARVALUES:0.578640,0.690518,0.644394,0.000000,0.199455,528.000000,444.000000,84.000000,0.000000,0.000000,0.000000,0.000000,0.000000,0.000000,0.578640,0.690518,0.644394,0.000000,0.199455,528.000000,444.000000,84.000000,0.000000,0.000000,0.000000,0.000000,0.000000,0.000000;
#CREDIT:;
#NOTES:
0000
0000
0000
0000
,
0000
0000
0000
0000
,
0000
0000
0000
0000
,
0000
0000
0000
0000
,
1001
0001
0001
0001
,
1001
1000
1000
1000
,
1001
0110
1001
0110
,
0001
0000
0000
0000
,
1010
0000
1000
0000
0000
0001
0010
0000
,
0100
1000
0010
0100
0000
0001
0010
0000
,
0101
0000
0001
0000
0000
1000
0100
0000
,
0010
0001
0100
0010
0000
1000
0100
0010
,
0001
0000
0001
0100
0000
0110
0000
0010
,
1000
0100
0010
0001
0000
0001
1000
0010
,
1000
0000
1000
0010
0000
0110
0000
0100
,
0001
0000
0001
1000
0000
1000
0100
0000
,
0011
0000
0001
0000
0000
1000
0010
0000
,
0100
0001
0010
0100
0000
1000
0010
0000
,
1100
0000
1000
0000
0000
0001
0100
0000
,
0010
1000
0100
0010
0000
0001
0100
0010
,
1000
0000
1000
0100
0000
0110
0000
0010
,
0001
0100
0010
1000
0000
1000
0001
0010
,
0001
0000
0001
0010
0000
0110
0000
0100
,
1000
0000
1000
0001
0000
0001
0100
0000
,
1001
0000
0000
0001
0000
0000
0001
0000
0001
0000
0000
1000
0000
0000
1000
0000
,
1000
0000
0000
0010
0000
0000
1000
0000
0000
0000
0000
0000
0000
0000
0000
0000
,
0001
0000
0000
0001
0000
0000
0001
0000
0001
0000
0000
1000
0000
0000
1000
0000
,
0100
0000
0000
0010
0000
0000
0001
0000
0000
0000
0000
0000
0000
0000
0000
0000
,
1001
0000
0000
1000
0000
0000
1000
0000
1001
0000
0000
0001
0000
0000
0001
0000
,
0001
0000
0000
0100
0000
0000
0010
0000
0000
0000
0000
0000
0000
0000
0000
0000
,
1001
0000
0000
1000
0000
0000
1000
0000
1001
0000
0000
0001
0000
0000
0001
0000
,
0010
0000
0000
0100
0000
0000
1000
0000
0001
0000
0000
0000
0000
0000
0000
0000
,
1001
0000
0000
1000
0000
0000
1010
0000
0010
0000
0000
0000
0101
0000
0001
0000
,
1000
1100
0000
1000
1010
0000
0011
0000
,
1001
0000
0000
0001
0000
0000
0101
0000
0100
0000
0000
0000
1010
0000
1000
0000
,
0001
0011
0000
0001
0101
0000
1100
0000
,
1001
0000
0000
1000
0000
0000
1100
0000
0100
0000
0000
0000
0011
0000
0001
0000
,
1000
1010
0000
1000
1100
0000
0101
0000
,
1001
0000
0000
0000
,
0000
0000
0000
0000
,
1001
1000
0010
0100
,
0001
0000
0010
0100
0010
0000
0000
0000
,
1001
0001
0100
0010
,
1000
0100
0010
0000
,
1001
0001
0010
0100
,
1000
0000
0010
0100
0010
0000
0000
0000
,
1001
1000
0100
0010
,
0001
0100
0010
0000
,
1001
0000
0000
0000
1000
0000
0010
0000
1000
0000
0000
0001
0000
0000
1000
0000
,
0100
0000
0100
1000
0001
0000
0001
1000
,
0001
0000
0000
0000
0001
0000
0100
0000
0001
0000
0000
1000
0000
0000
0001
0000
,
0010
0000
0000
0100
0000
0000
1000
0000
0001
0000
0000
0000
0000
0000
0000
0000
,
1001
0000
0000
0000
1000
0000
0010
0000
1000
0000
0000
0001
0000
0000
1000
0000
,
0100
0000
0100
1000
0001
0000
0001
1000
,
0001
0100
0001
0100
0010
1000
0010
1000
,
1001
0110
1001
0011
,
1001
0000
0000
0000
1000
0000
0010
0000
0100
0000
0000
0001
0000
0000
1000
0000
,
0100
0000
0100
0010
0001
0000
0001
1000
,
0001
0000
0000
0000
0001
0000
0100
0000
0010
0000
0000
1000
0000
0000
0001
0000
,
0010
0000
0000
0010
0000
0000
0100
0000
1000
0000
0000
0000
0001
0000
0000
0000
,
1001
0000
0000
0000
1000
0000
0100
0000
0010
0000
0000
0001
0000
0000
1000
0000
,
0010
0000
0010
0100
0001
0000
0001
1000
,
1001
0000
0000
0001
0000
0000
0001
0000
1001
0000
0000
1000
0000
0000
1000
0000
,
1010
0011
1001
0000
,
1001
0000
0000
0000
0001
0000
0100
0000
0010
0000
0000
1000
0000
0000
0001
0000
,
0010
0000
0010
0100
1000
0000
1000
0001
,
1000
0000
0000
0000
1000
0000
0010
0000
0100
0000
0000
0001
0000
0000
1000
0000
,
0100
0000
0000
0100
0000
0000
0010
0000
0001
0000
0000
0000
1000
0000
0000
0000
,
1001
0000
0000
0000
0001
0000
0010
0000
0100
0000
0000
1000
0000
0000
0001
0000
,
0100
0000
0100
0010
1000
0000
1000
0001
,
1001
0000
0000
1000
0000
0000
1000
0000
1001
0000
0000
0001
0000
0000
0001
0000
,
0101
1100
1001
0000
,
1001
0000
0000
0000
1000
0000
0010
0100
0010
0000
0000
1000
0000
0000
0001
0000
,
0010
0000
0100
1000
0010
0000
0100
0001
,
1000
0000
0000
0000
1000
0000
0100
0010
0100
0000
0000
1000
0000
0000
0001
0000
,
0100
0000
0010
1000
0100
0000
0010
0000
,
1001
0000
0000
0000
0001
0000
0100
0010
0100
0000
0000
0001
0000
0000
1000
0000
,
0100
0000
0000
0000
0010
0000
0001
0000
0100
0000
0000
0000
0010
0000
1000
0001
,
1000
0000
0000
1000
0000
0000
1000
0000
1001
0000
0000
0001
0000
0000
0001
0000
,
0101
0000
0000
0100
0000
0000
0100
0000
0110
0000
0000
0000
0000
0000
0000
0000
,
1001
0000
0000
0000
0001
0000
0010
0100
0010
0000
0000
0001
0000
0000
1000
0000
,
0010
0000
0100
0001
0010
0000
0100
1000
,
0001
0000
0000
0000
0001
0000
0100
0010
0100
0000
0000
0001
0000
0000
1000
0000
,
0100
0000
0000
0010
0000
0000
0001
0000
0100
0000
0000
0000
0010
0000
0000
0000
,
1001
0000
0000
0000
1000
0000
0100
0010
0100
0000
0000
1000
0000
0000
0001
0000
,
0100
0000
0000
0000
0010
0000
1000
0000
0100
0000
0000
0000
0010
0000
0001
1000
,
0001
0000
0000
0001
0000
0000
0001
0000
1001
0000
0000
1000
0000
0000
1000
0000
,
1100
0000
0000
0100
0000
0000
0100
0000
0110
0000
0000
0000
0000
0000
0000
0000
,
1010
0000
0000
0011
0000
0000
1001
0000
,
0000
0000
0000
0000
,
0101
0000
0000
1100
0000
0000
1001
0000
,
0000
0000
0000
0000
,
0011
0000
0000
1010
0000
0000
1001
0000
,
0000
0000
0000
0000
,
1100
0000
0000
0101
0000
0000
1001
0000
,
0000
0000
0000
0000
,
0000
0000
0000
0000
,
0000
0000
0000
0000
;

//---------------dance-single - ----------------
#NOTEDATA:;
#CHARTNAME:;
#STEPSTYPE:dance-single;
#DESCRIPTION:;
#CHARTSTYLE:;
#DIFFICULTY:Hard;
#METER:15;
#RADARVALUES:0.709053,0.835890,0.437267,0.283840,0.464117,647.000000,590.000000,57.000000,37.000000,0.000000,0.000000,0.000000,0.000000,0.000000,0.709053,0.835890,0.437267,0.283840,0.464117,647.000000,590.000000,57.000000,37.000000,0.000000,0.000000,0.000000,0.000000,0.000000;
#CREDIT:;
#NOTES:
0000
0000
0000
0000
,
0000
0000
0000
0000
,
0000
0000
0000
0000
,
0000
0000
0000
0000
,
1001
0100
0100
0100
,
1001
0010
0010
0010
,
1001
1010
0011
1001
,
0020
0000
0030
0000
,
1000
0100
0010
0000
0001
0100
0010
1000
,
0100
0010
0001
0100
0010
1000
0001
0000
,
0001
0010
0100
0000
1000
0010
0100
0001
,
0010
0100
1000
0010
0100
0001
1000
0100
,
1000
0000
0010
0000
0100
0000
1000
0000
0000
0000
1000
0000
0100
0000
0001
0010
,
0001
0100
0010
1000
0000
1000
0010
0010
,
0001
0100
0010
0001
0000
0001
0010
1000
,
0001
0010
0100
1000
0000
0010
0100
0000
,
0001
0100
0010
0000
1000
0100
0010
0001
,
0100
0010
1000
0100
0010
0001
1000
0000
,
1000
0010
0100
0000
0001
0010
0100
1000
,
0010
0100
0001
0010
0100
1000
0001
0100
,
0001
0000
0010
0000
0100
0000
0001
0000
0000
0000
0001
0000
0100
0000
1000
0010
,
1000
0100
0010
0001
0000
0001
0010
0010
,
1000
0000
1000
0100
0001
0100
1000
0010
,
0100
0001
0010
1000
0010
0001
0100
0010
,
1000
0000
0000
1000
0000
0000
1000
0000
0010
0000
0000
0010
0000
0000
0010
0000
,
0100
0000
0000
0100
0000
0000
0100
0000
0000
0000
0000
0000
0000
0000
0000
0000
,
0001
0000
0000
0001
0000
0000
0001
0000
0010
0000
0000
0010
0000
0000
0010
0000
,
0100
0000
0000
0100
0000
0000
0100
0000
0000
0000
0000
0000
0000
0000
0000
0000
,
1000
0000
1000
0010
0000
0000
1000
0000
1100
0000
0000
1000
0010
0000
0100
0000
,
0100
0000
0000
0010
0000
0000
0001
0000
0000
0000
0000
0000
0000
0000
0000
0000
,
0001
0000
0001
0100
0000
0000
0001
0000
0011
0000
0000
0001
0100
0000
0010
0000
,
0010
0000
0000
0100
0000
0000
1000
0000
0001
0000
0000
1000
0000
0000
0001
0000
,
1001
0000
1000
0010
0000
0000
1100
0000
1000
0000
0000
0010
0100
0000
0001
0000
,
1000
0000
0100
0010
0000
0000
0100
0000
1100
0000
0000
0000
0101
0000
0000
0000
,
1001
0000
0001
0100
0000
0000
0011
0000
0001
0000
0000
0100
0010
0000
1000
0000
,
0001
0000
0010
0100
0000
0000
0010
0000
0011
0000
0000
0000
1010
0000
0000
0000
,
1001
0000
1000
0100
0000
0000
1010
0000
1000
0000
0000
0100
0010
0000
0001
0000
,
1000
0000
0010
0100
0000
0000
0010
0000
1010
0000
0000
0000
0011
0000
0000
0000
,
1001
0020
0000
0230
0000
0302
0000
2000
,
0000
3003
0000
0000
,
1001
0000
0000
0000
1000
0000
0010
0000
0100
0000
0000
0001
0000
0000
0001
0000
,
0001
0000
1000
0100
0010
0000
0001
1000
,
0001
0000
0000
0000
0001
0000
0100
0000
0010
0000
0000
1000
0000
0000
1000
0000
,
1000
0001
0000
0001
0000
0000
0100
0000
0010
0000
0000
0000
0000
0000
0000
0000
,
1000
0000
0000
0000
1000
0000
0100
0000
0010
0000
0000
0001
0000
0000
0001
0000
,
0001
0000
1000
0010
0100
0000
0001
1000
,
0001
0000
0000
0000
0001
0000
0010
0000
0100
0000
0000
1000
0000
0000
1000
0000
,
1000
0001
0000
0001
0000
0000
0010
0000
0100
0000
0000
0000
0000
0000
0000
0000
,
1001
0000
0000
0000
1000
0010
1000
0010
0100
0000
0000
0001
0000
0000
0001
0000
,
0001
0000
1000
0100
0010
0000
0001
1000
,
0001
0000
0000
0000
0001
0010
0001
0010
0100
0000
0000
1000
0000
0000
1000
0000
,
0010
0000
0000
0010
0000
0000
0100
0000
0001
0000
0001
1000
0000
0000
1000
0000
,
1001
0000
0000
0000
1000
0100
1000
0100
0010
0000
0000
0001
0000
0000
0001
0000
,
0001
0000
0000
0000
1000
0000
0010
0000
0100
0000
0000
0000
0001
0000
1000
0010
,
0100
0001
1000
0100
0010
0001
0100
0010
,
1010
0000
0000
1000
0001
0000
0100
0000
0110
0000
0000
0000
1001
0000
0000
0000
,
1001
0000
0000
0000
1000
0100
0010
0001
1000
0000
1000
0010
0000
0010
1000
0000
,
0002
0000
0013
0100
2000
0000
3010
0100
,
0001
0000
0000
0000
0001
0010
0100
1000
0001
0000
0001
0100
0000
0100
0001
0000
,
2000
0000
0000
3200
0000
0000
0320
0000
0032
0000
0000
0000
1003
0000
0000
0000
,
1001
0000
0000
0000
1000
0100
0010
0001
1000
0000
1000
0010
0000
0010
1000
0000
,
0002
0000
0000
0000
0013
0000
0100
0000
2000
0000
0000
0000
3010
0000
0100
0001
,
1000
0000
1000
0100
0000
0100
1000
0000
0001
0000
1000
0010
0000
0010
1000
0000
,
0001
0000
0010
0100
0000
0000
0100
0000
1100
0000
0000
0000
0101
0000
0000
0000
,
1001
0000
0000
0000
1000
0010
0100
0001
1000
0000
1000
0100
0000
0100
1000
0000
,
0002
0000
0103
0010
2000
0000
3100
0010
,
0001
0000
0000
0000
0001
0100
0010
1000
0001
0000
0001
0010
0000
0010
0001
0000
,
2000
0000
0000
3020
0000
0000
0230
0000
0302
0000
0000
0000
1003
0000
0000
0000
,
1001
0000
0000
0000
1000
0010
0100
0001
1000
0000
1000
0100
0000
0100
1000
0000
,
0002
0000
0000
0000
0103
0000
0010
0000
2000
0000
0000
0000
3100
0000
0010
0001
,
1000
0000
1000
0010
0000
0010
1000
0000
0001
0000
1000
0100
0000
0100
1000
0000
,
0001
0000
0100
0010
0000
0000
0010
0000
1010
0000
0000
0000
0000
0000
0000
0000
,
1001
0000
0000
0000
1000
0100
0010
0100
1000
0000
0010
0100
0000
0001
0010
0000
,
0002
0000
0103
0010
2000
0000
3100
0010
,
0001
0000
0000
0000
0001
0010
0100
0010
0001
0000
0100
0010
0000
1000
0100
0000
,
2000
0000
0000
3020
0000
0000
0230
0000
0302
0000
0000
0000
1003
0000
0000
0000
,
1001
0000
0000
0000
1000
0100
0010
0100
1000
0000
0010
0100
0000
0001
0010
0000
,
0002
0000
0000
0000
0103
0000
0010
0000
2000
0000
0000
0000
3100
0000
0010
0001
,
1000
0000
1000
0010
0000
0010
1000
0000
1001
0000
1000
0100
0000
0100
1000
0000
,
1001
0000
0001
0100
0000
0000
0010
0000
1010
0000
0000
0000
0011
0000
0000
0000
,
1001
0000
0000
0000
1000
0010
0100
0010
1000
0000
0100
0010
0000
0001
0100
0000
,
0002
0000
0013
0100
2000
0000
3010
0100
,
0001
0000
0000
0000
0001
0100
0010
0100
0001
0000
0010
0100
0000
1000
0010
0000
,
2000
0000
0000
3200
0000
0000
0320
0000
0032
0000
0000
0000
1003
0000
0000
0000
,
1001
0000
0000
0000
1000
0010
0100
0010
1000
0000
0100
0010
0000
0001
0100
0000
,
0002
0000
0000
0000
0013
0000
0100
0000
2000
0000
0000
0000
3010
0000
0100
0001
,
1000
0000
1000
0100
0000
0100
1000
0000
1001
0000
1000
0010
0000
0010
1000
0000
,
1001
0000
0001
0100
0010
0000
0010
0000
1001
0000
0000
0000
0000
0000
0000
0000
,
1100
0000
0000
0101
0000
0000
1001
0000
,
0000
0000
0000
0000
,
0011
0000
0000
1010
0000
0000
1001
0000
,
0000
0000
0000
0000
,
0101
0000
0000
1100
0000
0000
1001
0000
,
0000
0000
0000
0000
,
1010
0000
0000
0011
0000
0000
1001
0000
,
0000
0000
0000
0000
,
0000
0000
0000
0000
,
0000
0000
0000
0000
;

//---------------dance-single - ----------------
#NOTEDATA:;
#CHARTNAME:;
#STEPSTYPE:dance-single;
#DESCRIPTION:;
#CHARTSTYLE:;
#DIFFICULTY:Challenge;
#METER:17;
#RADARVALUES:0.774807,0.944920,0.644394,0.214798,0.510145,707.000000,623.000000,84.000000,28.000000,0.000000,0.000000,0.000000,0.000000,0.000000,0.774807,0.944920,0.644394,0.214798,0.510145,707.000000,623.000000,84.000000,28.000000,0.000000,0.000000,0.000000,0.000000,0.000000;
#CREDIT:;
#NOTES:
0000
0000
0000
0000
,
0000
0000
0000
0000
,
0000
0000
0000
0000
,
0000
0000
0000
0000
,
0011
0001
0001
0001
,
1010
1000
1000
1000
,
1100
0101
0011
1010
,
0001
0000
0000
0000
,
1000
0100
0010
0100
0001
0100
1000
0010
,
0100
1000
0100
0001
0010
0100
0010
0010
,
0001
0100
0010
0100
1000
0100
0001
0010
,
0100
0001
0100
1000
0010
0100
0010
0010
,
1000
0000
0001
0000
0100
0000
0001
0000
0010
0000
0100
0000
1000
0000
0001
0010
,
0100
0001
0100
1000
0010
0100
0100
0010
,
0001
1000
0100
1000
0010
0100
0001
1000
,
0100
0010
0100
1000
0010
0100
0001
1000
,
0001
0010
0100
0010
1000
0010
0001
0100
,
0010
0001
0010
1000
0100
0010
0100
0100
,
1000
0010
0100
0010
0001
0010
1000
0100
,
0010
1000
0010
0001
0100
0010
0100
0100
,
0001
0000
1000
0000
0010
0000
1000
0000
0100
0000
0010
0000
0001
0000
1000
0100
,
0010
1000
0010
0001
0100
0010
0010
0100
,
1000
0001
0010
0001
0100
0010
1000
0001
,
0010
0100
0010
0001
0100
0010
1000
0001
,
1000
0000
0000
1000
0000
0000
1000
0000
0010
0000
0000
0010
0000
0000
0010
0000
,
0100
0000
0000
0100
0000
0000
0100
0000
0000
0000
0000
0000
0000
0000
0000
0000
,
0001
0000
0000
0001
0000
0000
0001
0000
0010
0000
0000
0010
0000
0000
0010
0000
,
0100
0000
0000
0100
0000
0000
0100
0000
0000
0000
0000
0000
0000
0000
0000
0000
,
1001
0000
1000
0010
0000
0010
0100
0000
0110
0000
0000
0001
0010
0000
0010
0000
,
0100
0000
0001
1000
0000
1000
0001
0000
0000
0000
0000
0000
0000
0000
0000
0000
,
1001
0000
0001
0010
0000
0010
0100
0000
0110
0000
0000
1000
0010
0000
0100
0000
,
0100
0000
0001
1000
0000
1000
0001
0000
0100
0000
0000
0000
0000
0000
0000
0000
,
1001
0000
0001
0100
0000
0000
0011
0000
0010
0000
0000
0100
1000
0000
0001
0000
,
0001
0000
1000
0010
0000
0000
0100
0000
0101
0000
0000
0000
1100
0000
0000
0000
,
1001
0000
1000
0100
0000
0000
1010
0000
0010
0000
0000
0100
0001
0000
1000
0000
,
1000
0000
0001
0010
0000
0000
0100
0000
1100
0000
0000
0000
0101
0000
0000
0000
,
1001
0000
1000
0010
0000
0000
1100
0000
0100
0000
0000
0010
0001
0000
1000
0000
,
1000
0000
0001
0100
0000
0000
0010
0000
1010
0000
0000
0000
0011
0000
0000
0000
,
2002
0000
0000
0000
,
0000
0000
3003
0000
,
1001
0000
0000
0000
0001
0000
1000
0010
1000
0000
0000
0001
0000
0000
0001
0000
,
0010
0000
0100
1000
0010
0000
0100
0001
,
0010
0000
0000
0000
0100
0000
0100
1000
0010
0000
0000
0010
0000
0000
1000
0000
,
0001
0000
0000
0001
0000
0000
0001
0000
1000
0000
0000
0000
0000
0000
0000
0000
,
1000
0000
0000
0000
1000
0000
0001
0010
0001
0000
0000
1000
0000
0000
1000
0000
,
0010
0000
0100
0001
0010
0000
0100
1000
,
0010
0000
0000
0000
0100
0000
0100
0001
0010
0000
0000
0010
0000
0000
0001
0000
,
1000
0000
0000
1000
0000
0000
1000
0000
0002
0000
0000
0000
1003
0000
0000
0000
,
1001
0000
0000
0000
0010
1000
0001
1000
0001
0000
0001
1000
0000
0000
1000
0000
,
0100
0000
0010
0100
1000
0000
0001
0100
,
0010
0000
0000
0000
1000
0001
0100
0001
0100
0000
0100
0010
0000
0000
1000
0000
,
0001
0000
0000
1000
0001
0000
0100
0000
0010
0000
1000
0001
1000
0000
1000
0000
,
1001
0000
0000
0000
0100
1000
0001
1000
0001
0000
0001
1000
0000
0000
1000
0000
,
0010
0000
0000
0000
0100
0000
0010
0000
1000
0000
0000
1000
0001
0000
0010
0100
,
0010
0001
1000
0010
0110
0100
0001
0010
,
0110
1010
1001
0000
,
1001
0000
0000
0000
1000
0100
0010
0100
1000
0000
1000
0010
0000
0010
0100
0000
,
0102
0000
1003
0100
0120
0000
0130
1000
,
0001
0000
0000
0000
0001
0100
0010
0100
0001
0000
0001
0010
0000
0010
0100
0000
,
2100
0000
0000
3010
0100
0000
0001
0000
0012
0000
0000
0000
1003
0000
0000
0000
,
1001
0000
0000
0000
0001
0010
0100
0010
0001
0000
0001
0100
0000
0100
0010
0000
,
2010
0000
0000
0000
3001
0000
0010
0000
0210
0000
0000
0000
0310
0000
0001
1000
,
0010
0000
1000
0100
0000
0100
1000
0000
0011
0000
1000
0010
0000
0010
0100
0000
,
1002
0000
0000
1003
0010
0000
0100
0000
0102
0000
0000
0000
1003
0000
0000
0000
,
1001
0000
0000
0000
0001
0010
0100
0010
0001
0000
0001
0100
0000
0100
0010
0000
,
2010
0000
3001
0010
0210
0000
0310
0001
,
1000
0000
0000
0000
1000
0010
0100
0010
1000
0000
1000
0100
0000
0100
0010
0000
,
0012
0000
0000
0103
0010
0000
1000
0000
2100
0000
0000
0000
3001
0000
0000
0000
,
1001
0000
0000
0000
1000
0100
0010
0100
1000
0000
1000
0010
0000
0010
0100
0000
,
0102
0000
0000
0000
1003
0000
0100
0000
0120
0000
0000
0000
0130
0000
1000
0001
,
0100
0000
0001
0010
0000
0010
0001
0000
1100
0000
0001
0100
0000
0100
0010
0000
,
2001
0000
0000
3001
0100
0000
0010
0000
1010
0000
0000
0000
0000
0000
0000
0000
,
1001
0000
0000
0000
0001
0100
1000
0100
0001
0000
0001
0010
0000
0001
0100
0000
,
0210
0000
0301
0010
0120
0000
0130
1000
,
0001
0000
0000
0000
1000
0010
0001
0010
1000
0000
1000
0100
0000
1000
0010
0000
,
0120
0000
0000
1030
0200
0000
1000
0000
1300
0000
0000
0000
0011
0000
0000
0000
,
1001
0000
0000
0000
0001
0100
1000
0100
0001
0000
0001
0010
0000
0001
0100
0000
,
0210
0000
0000
0000
0301
0000
0010
0000
0120
0000
0000
0000
0130
0000
1000
0010
,
0100
0000
0001
0010
0000
0010
0001
0000
1001
0000
1000
0010
0000
0010
1000
0000
,
1001
0000
0000
1000
0020
0000
0100
0000
0130
0000
0000
0000
1010
0000
0000
0000
,
1001
0000
0000
0000
1000
0010
0001
0010
1000
0000
1000
0100
0000
1000
0010
0000
,
0120
0000
0000
0000
1030
0100
0010
0100
2000
0000
0000
0000
3010
0000
0100
0000
,
0001
0000
0000
0000
0001
0010
1000
0010
0001
0000
0001
0100
0000
0001
0010
0000
,
0120
0000
0000
0031
0100
0010
1000
0010
1000
0000
0000
0000
0011
0000
0000
0000
,
1001
0000
0000
0000
1000
0010
0001
0010
1000
0000
1000
0100
0000
1000
0010
0000
,
0100
0000
0000
0000
0010
0000
0000
0000
1000
0000
0000
0000
0100
0000
0000
0000
0010
0000
0000
0000
0001
0000
0000
0000
0010
0000
0000
0100
0000
0000
0010
0000
0000
0100
0000
0000
1000
0000
0000
0010
0000
0000
0100
0000
0000
0001
0000
0000
,
1000
0010
0100
0001
1001
1000
0100
0010
,
1001
0000
0010
1000
0101
0000
0010
0000
0110
0000
0000
0000
0000
0000
0000
0000
,
1001
0000
0000
1100
0000
0000
0101
0000
,
0000
0000
0000
0000
,
1001
0000
0000
0011
0000
0000
1010
0000
,
0000
0000
0000
0000
,
1001
0000
0000
1100
0000
0000
0011
0000
,
0000
0000
0000
0000
,
1001
0000
0000
1010
0000
0000
0101
0000
,
0000
0000
0000
0000
,
0000
0000
0000
0000
,
0000
0000
0000
0000
;
