#TITLE:禁断の地へと誘う獣らの囁き(kors k x sky_delta REMIX);
#SUBTITLE:;
#ARTIST:成田暁彦;
#TITLETRANSLIT:Murmurs from the Land Forbidden (kors k x sky_delta REMIX);
#SUBTITLETRANSLIT:;
#ARTISTTRANSLIT:Narita Akihiko;
#GENRE:;
#CREDIT:;
#MUSIC:Murmurs from the Land Forbidden (kors k x sky_delta remix).ogg;
#BANNER:Murmurs from the Land Forbidden (kors k x sky_delta remix).png;
#BACKGROUND:Murmurs from the Land Forbidden (kors k x sky_delta remix)-bg.png;
#CDTITLE:cdtitle.png;
#SAMPLESTART:88.203;
#SAMPLELENGTH:15.000;
#SELECTABLE:YES;
#OFFSET:-0.703;
#BPMS:0.000=192.000;
#STOPS:;
#ORIGIN:;
#TAGS:;
#PREVIEWVID:;
#JACKET:Murmurs from the Land Forbidden (kors k x sky_delta remix)-jacket.png;
#CDIMAGE:;
#DISCIMAGE:;
#BGCHANGES:;
#FGCHANGES:;

//--------------- dance-single - MEGAtive ----------------
#NOTES:
     dance-single:
     MEGAtive:
     Beginner:
     3:
     0.159642,0.271216,0.146824,0.399687,0,137,119,18,49,0,0,0,0,0,0.159642,0.271216,0.146824,0.399687,0,137,119,18,49,0,0,0,0,0:
0000
0000
0000
0000
,
0000
0000
0000
0000
,
0000
0000
0000
0000
,
0000
0000
0000
0000
,
2002
0000
0000
0000
,
3003
0000
0000
0000
,
0002
0000
0000
0000
,
0003
0000
0000
0000
,
2000
0000
0000
0000
,
3000
0000
0000
0000
,
0200
0000
0000
0000
,
0300
0000
0000
0000
,
1001
0000
0010
0010
,
0000
0000
0000
0000
,
1001
0000
0100
0100
,
0000
0000
0000
0000
,
1001
0000
0010
0010
,
0000
0000
0000
0000
,
1001
0000
0100
0100
,
0000
0000
0000
0000
,
2002
0000
0000
0000
,
3003
0000
0000
0000
,
0001
0000
0000
0101
,
0000
0000
1000
0000
,
2002
0000
0000
0000
,
3003
0000
0000
0000
,
1000
1000
0001
0001
,
0000
0000
0010
0000
,
0220
0000
0000
0000
,
0330
0000
0000
0000
,
0001
0001
0001
0000
,
0000
0000
0100
0000
,
0220
0000
0000
0000
,
0330
0000
0100
0000
,
0001
0000
0001
0000
,
1000
0000
0000
0000
,
2002
0000
3003
0000
,
0001
0000
0010
0000
,
0220
0000
0330
0000
,
0100
0000
1000
0000
,
2002
0000
3003
0000
,
0001
0000
0100
0000
,
0020
0000
0000
1030
,
0000
0000
0001
0001
,
0002
0000
0003
0000
,
0100
0000
0010
0000
,
2000
0000
3000
0000
,
0100
0000
0010
0000
,
0002
0000
0003
0000
,
1000
0000
0010
0000
,
0200
0000
0000
0000
,
0301
0000
0000
0000
,
1001
0000
0000
0000
,
0000
0000
0000
0000
,
1000
0000
0100
0000
,
0010
0000
0001
0000
,
0100
0000
0010
0000
,
1000
0000
0001
0000
,
0020
0000
0230
0000
,
2300
0000
3002
0000
,
2000
0000
0000
0000
,
3003
0000
0000
0000
,
1000
0000
0000
0000
,
0000
0000
0000
0000
,
0010
0000
0000
0000
,
0000
0000
0000
0000
,
0200
0000
0000
0000
,
0302
0000
0000
0000
,
1003
0000
1000
0000
,
0002
0000
0003
0000
,
2001
0000
0000
0000
,
3010
0000
0100
0000
,
0002
0000
0000
0000
,
0013
0000
0100
0000
,
2000
0000
0000
0000
,
3020
0000
0000
0000
,
0230
0000
0000
0000
,
0301
0000
0000
0000
,
0000
1001
0000
1000
,
1000
0000
0010
0000
,
0100
0000
0001
0001
,
0001
0000
1000
0000
,
0200
0000
0000
0000
,
0320
0000
0000
0000
,
0031
0000
0001
0000
,
0200
0000
0300
0000
,
2002
0000
0000
0000
,
3003
0000
0000
0000
,
1000
1000
0000
0010
,
0100
0100
0000
0001
,
2000
3000
0000
0100
,
0200
0000
2300
0000
,
3002
0000
0000
0000
,
0203
0000
0300
0000
,
0220
0000
0000
0000
,
0330
0000
0000
0000
;

//--------------- dance-single - MEGAtive ----------------
#NOTES:
     dance-single:
     MEGAtive:
     Easy:
     7:
     0.312292,0.387451,0.081569,0.505726,0,268,258,10,62,0,0,0,0,0,0.312292,0.387451,0.081569,0.505726,0,268,258,10,62,0,0,0,0,0:
0000
0000
0000
0000
,
0000
0000
0000
0000
,
0000
0000
0000
0000
,
0000
0000
0000
0000
,
2002
0000
0000
0000
,
3000
0000
0000
0023
,
0230
0000
0000
0000
,
0000
2300
0000
0000
0000
3002
0000
0000
,
2003
0000
0000
0000
,
0000
0000
0000
3020
,
0230
0000
0302
0000
,
0023
0000
0230
0000
,
1300
0000
0000
1000
0100
0000
1000
0000
,
0000
1000
0000
0000
1000
0000
0000
0000
,
0001
0000
0000
0001
0100
0000
0001
0000
,
0000
0001
0000
0000
0001
0000
1000
0000
,
1000
0000
0000
0100
0010
0000
0100
0000
,
0000
0100
0000
0000
0010
0000
0000
0000
,
0001
0000
0000
0100
0010
0000
0100
0000
,
0000
0010
0000
0000
2000
0000
0000
0000
,
3002
0000
0003
0200
0000
0300
0020
0000
,
0030
2000
0000
3000
0001
0000
0001
0000
,
2000
0000
3000
0200
0000
0300
0010
0000
,
0000
2001
0000
0000
3001
0000
0001
0000
,
2000
0000
3000
0020
0000
0030
0200
0000
,
0300
0002
0000
0003
1000
0000
1000
0000
,
0001
0010
0000
0001
0000
0001
0000
1000
,
0000
0010
0100
0000
0001
0000
0001
0000
,
1000
0100
0020
0001
,
0000
0100
0000
0000
0001
0000
0031
0000
,
1000
0010
0200
0020
,
0000
0000
0330
0000
,
1000
0100
0010
0001
,
0100
0010
1000
0001
,
0010
0100
0010
0001
,
2000
0000
3000
0000
,
2002
3003
0001
0100
,
1000
0100
0001
2000
,
0002
3003
1000
0100
,
0001
0100
1000
0001
,
2000
3000
0001
0010
,
1000
0010
0001
1000
,
0002
0000
0000
0203
0000
0000
0320
0000
,
0000
2030
0000
0000
0001
0000
0001
0000
,
3002
0000
1003
0010
,
0001
0010
1000
0001
,
2000
0000
3001
0010
,
1000
0010
0001
1000
,
0002
0000
1003
0100
,
0001
0100
1000
0001
,
2000
0000
3020
0000
,
0130
0000
0000
0100
0000
0000
0001
0000
,
2002
0000
0000
0000
,
3003
0000
0000
0000
,
1000
0100
0010
0001
,
0100
0010
1000
0000
,
0001
0100
0010
1000
,
0100
0010
0001
0000
,
1001
0000
0110
0000
,
1001
0000
0200
0000
,
0302
0000
0000
0000
,
0000
0000
0000
0000
,
1003
0000
0010
0000
0000
0010
0000
0000
,
0010
0000
0000
0010
0000
0000
0100
0000
,
0001
0000
0010
0000
0000
0010
0000
0000
,
0010
0000
0000
0010
0000
0000
0100
0000
,
1000
0001
0100
0000
,
0010
1000
0001
0000
,
1000
1000
0001
0001
,
0010
0100
1000
0001
,
2000
0000
0000
0001
0000
0000
0010
0000
,
0000
0001
0000
0000
3200
0000
0000
0000
,
0320
0000
0000
0100
0000
0000
0001
0000
,
0032
0000
0203
0000
,
0310
0000
2000
0000
3000
0200
0000
0300
,
0002
0000
0003
0200
0000
0300
2000
0000
,
3002
0000
0000
0000
,
1003
0000
0000
0000
,
0001
0001
0100
0010
,
1000
0100
0010
0100
,
1000
0000
0001
0100
,
0010
1000
0100
0010
,
0001
0001
0100
0010
,
1000
1000
0100
0010
,
0002
0000
0000
0000
,
1003
0000
0000
0000
,
0220
0000
0330
0000
,
0001
1000
0001
1000
,
0001
0000
0010
0001
0000
0000
1000
0000
,
0010
0000
0100
0001
0000
0000
1000
0000
,
0100
0000
0000
1100
0000
0000
1000
0000
,
0001
0100
0010
1000
,
0100
0001
0100
1000
,
0010
0001
0010
1000
,
2002
0000
0000
0000
,
3003
0000
0000
0000
;

//--------------- dance-single - MEGAtive ----------------
#NOTES:
     dance-single:
     MEGAtive:
     Medium:
     11:
     0.511552,0.619922,0.334432,0.489412,0.024471,439,398,41,60,0,0,0,0,0,0.511552,0.619922,0.334432,0.489412,0.024471,439,398,41,60,0,0,0,0,0:
0000
0000
0000
0000
,
0000
0000
0000
0000
,
0000
0000
0000
0000
,
0000
0000
0000
0000
,
2002
0000
0000
0000
,
0000
0000
3000
0203
,
0020
0000
0000
0000
0000
0000
0000
0300
,
0000
2000
0000
0030
0000
0200
0000
3300
,
1000
0000
0000
1000
0000
0000
1000
0000
,
0000
1000
0000
0000
1000
0100
0010
0000
,
0001
0000
0000
0001
0000
0000
0001
0000
,
0000
0001
0000
0000
0001
0100
0010
0000
,
2010
0000
0000
0001
3001
0000
1001
0000
,
0000
0110
0000
0000
1001
0000
0000
0000
,
0012
0000
0000
1000
1003
0000
1001
0000
,
0000
0110
0000
0000
1001
0000
0001
0000
,
0102
0000
0000
1000
1003
0000
1001
0000
,
0000
0110
0000
0000
1001
0000
0000
0000
,
2100
0000
0000
0001
3001
0000
1001
0000
,
0000
0110
0000
0000
2000
0000
0000
0000
,
3001
0000
0100
0010
0000
0010
0100
0000
,
0100
0001
0000
0001
2000
0000
3200
0000
,
0310
0000
0100
1000
0000
1000
0100
0000
,
0000
0012
0000
0000
1000
0000
1003
0000
,
0101
0000
0001
0100
0000
0100
0001
0000
,
0001
0100
0000
0100
0010
0000
1000
0000
,
0100
0010
0100
0010
0001
1000
0001
1000
,
0000
1000
0010
0000
0210
0000
0001
0000
,
0301
0000
1000
0000
1001
0000
0001
0010
,
0000
0010
0001
0000
0001
0100
0010
0000
,
1000
0000
0010
0100
0010
0000
2001
0000
,
0000
0100
0000
0000
3002
0000
0000
0000
,
0103
0010
1000
0000
0100
0010
0001
0000
,
1000
0010
0100
0000
0001
0010
0100
0000
,
1000
0001
1000
0001
0100
0010
1000
0001
,
0020
0000
0130
0000
,
2000
0200
0000
3300
1000
0001
0100
0010
,
0000
0010
1000
0100
0000
0010
0200
0000
,
0320
0002
0000
0033
0010
0001
0100
0010
,
0000
0100
0010
1000
0000
1000
0100
0010
,
0002
0200
0000
0303
0001
1000
0010
0100
,
0000
0100
0100
0010
0000
1000
0001
0010
,
0200
0000
0310
0002
0000
1003
0020
0000
,
0030
0220
0000
0030
0302
0000
1003
0000
,
0002
0000
0000
0000
1003
0000
0100
0010
,
0100
0000
1000
0001
0100
0010
0100
0000
,
1000
0000
0100
0010
0100
0000
0001
0000
,
1000
0100
0010
0000
0100
1000
0010
0000
,
0002
0000
0000
0000
0013
0000
0100
0010
,
0100
0000
0001
0000
0010
0100
1000
0000
,
0100
1100
1001
0101
,
0220
0000
0330
0000
,
2002
0000
3003
0000
,
1000
0100
0001
0100
1000
0001
0100
0000
,
0101
0000
0001
0100
0010
0000
0001
0010
,
0100
0010
2000
0000
0001
0000
3001
0000
,
1000
0000
0100
0010
0100
1000
0010
0000
,
0001
0010
0100
0000
0110
0000
1001
0000
,
2000
0000
3200
0000
0320
0000
0032
0000
0203
0000
0320
0000
,
2030
0000
3002
0000
0203
0000
2300
0000
0000
3200
0000
0000
,
0302
0000
0000
0000
,
0000
0000
0000
0000
,
1003
0000
0100
1000
0000
0100
1000
0000
,
0001
0010
0000
0001
0010
0000
0001
0000
,
1000
0000
0010
1000
0000
0010
1000
0000
,
0001
0100
0000
0001
0100
0000
0010
0000
,
1000
1000
0001
0001
,
0010
0010
0100
0100
,
1000
0010
0100
0000
0001
0010
0100
0000
,
1000
0010
0001
0010
1000
0000
0100
0000
,
1100
0000
0000
0110
0000
0000
0011
0000
,
0000
1001
0000
0000
0101
0000
0100
0000
,
1001
0000
0000
0101
0000
0000
0110
0000
,
1002
0000
0000
0100
0100
0000
0000
0000
,
1003
0000
0010
0100
0000
0001
0010
0000
,
0100
0010
0000
0001
0100
0000
0010
1000
,
0200
0000
0000
0010
0000
0000
1000
0000
,
1300
0000
2000
0000
,
3001
0000
0001
0100
1000
0000
1000
0100
,
0010
0100
0001
0000
1000
0100
0010
0100
,
0001
0000
0100
0010
0100
1000
0010
0000
,
0001
0010
0100
0010
1000
0000
1000
0000
,
0100
0010
0100
0010
0100
0000
1000
0000
,
0001
0100
0001
0100
0001
0000
1000
0000
,
0010
0100
0001
1000
0010
0100
0001
0010
,
0200
0001
0010
1000
,
2300
0000
0000
0000
,
3001
0000
0001
0000
0001
0100
1000
0000
,
1000
0100
0010
0200
0000
0000
0301
0000
,
0010
0100
0010
0002
0000
1003
0010
0000
,
0100
0000
0000
1001
0000
0001
0010
0000
,
0100
0010
0100
0010
0001
1000
0001
0000
,
0100
0010
1000
0100
0010
0001
0100
0010
,
2000
0000
0000
3000
,
2200
0000
0000
0000
,
3300
0000
0000
0000
;

//--------------- dance-single - MEGAtive ----------------
#NOTES:
     dance-single:
     MEGAtive:
     Hard:
     15:
     0.704987,0.929884,0.54651,0.67702,0.240628,605,538,67,83,5,0,0,0,0,0.704987,0.929884,0.54651,0.67702,0.240628,605,538,67,83,5,0,0,0,0:
0000
0000
0000
0000
,
0000
0000
0000
0000
,
0000
0000
0000
0000
,
0000
0000
0000
0000
,
2002
0000
0000
0000
,
0000
0000
0003
3020
,
0200
0000
0000
0000
0000
0000
0000
0030
,
0000
0002
0000
0300
0000
0020
0000
0033
,
0001
0010
0000
0001
0010
0000
0100
1000
,
0000
0100
1000
0000
0100
0010
0001
1000
,
0010
0100
0000
0010
0100
0000
0001
1000
,
0000
0001
1000
0000
0100
0020
0000
0000
,
0031
0000
0000
1000
1100
0000
0011
0000
,
0000
1001
0000
0000
1100
0000
0000
0000
,
1001
0000
0000
0001
0101
0000
1010
0000
,
0000
0110
0000
0000
0101
0000
1001
0000
,
1100
0000
0000
0100
1100
0000
0011
0000
,
0000
0110
0000
0000
1100
0000
0000
0000
,
1001
0000
0000
0001
0101
0000
1010
0000
,
0000
1001
0000
0000
2000
0000
0000
0000
,
3100
0010
0100
2000
0000
0001
0001
0000
,
0010
0010
0000
0001
3002
0000
0023
0000
,
0130
1000
0010
0200
0000
0310
0110
0000
,
1000
0000
1002
0000
0000
0000
0013
0100
0010
0000
0002
0000
0203
0000
0320
0000
,
1030
0100
0010
0200
0000
0010
0010
0000
,
1000
1000
0000
0010
0010
0000
1300
0000
,
1100
1000
0001
0100
0110
0010
1000
1001
,
0000
0000
0011
0000
0000
0000
0000
0000
0101
0000
0100
0001
1000
0000
0000
0000
,
1200
0000
0010
0000
0301
0000
0100
0010
,
0100
1000
0001
0000
0100
0000
0010
0000
,
1020
0100
0031
0021
,
0000
0000
0100
0000
0000
0000
0000
0000
1030
0000
0010
0100
0010
0000
0000
0000
,
1000
0010
0100
0010
1000
0100
0010
0100
,
1000
0001
0100
0010
1000
0100
0010
0001
,
0100
0010
0100
0000
0001
1000
0001
0000
1000
0100
1000
0000
0001
0100
0001
0000
,
2000
0000
0200
3300
,
1200
0000
0002
0000
0000
0000
0303
0000
0001
0000
0100
0000
0010
0M00
0010
0000
,
0100
0000
0001
0000
0010
M000
0010
0000
0100
0000
0001
0000
0020
0000
0000
0000
,
1030
0000
2020
0000
0000
0000
3030
0000
1000
0000
0010
0000
0100
M000
0100
0000
,
0010
0000
1000
0000
0100
00M0
0100
0000
0001
0000
0010
0100
0010
0000
0100
1000
,
0020
0000
0002
0000
0000
0000
0033
0000
0001
0000
0010
0000
0100
M000
0100
0000
,
0010
0000
0001
1000
0001
0000
0100
0000
0020
0000
0002
0000
0000
0000
0033
0000
,
0011
0001
0010
0100
0010
1000
1002
0000
,
1003
1200
0000
0000
0001
0000
0010
0000
,
1300
0001
0100
0010
1010
1000
0001
0010
,
0100
0010
0001
1000
1010
0000
0110
0000
,
0102
0020
0000
0033
0011
0001
1000
0010
,
0100
0000
0001
0000
0010
0000
0100
0000
1000
0000
0100
0010
0100
0000
0010
0000
,
0002
0100
0100
1003
1010
0010
0100
0001
,
0010
0100
1000
0010
0110
0000
0101
0000
,
1001
0000
0000
1000
0100
0000
0000
0010
0100
0000
0000
1000
0001
0000
0000
0001
,
0200
0000
0000
0010
0000
0000
0310
0000
,
2002
0000
0000
3003
,
1000
0100
0010
0000
0001
0100
0010
0000
1000
0100
0010
0000
0110
0000
0000
0000
,
1100
0000
0000
0100
1000
0000
0010
0000
0100
0000
1000
0000
1100
0000
0000
0000
,
0110
0010
2000
0000
3100
0010
0011
0000
,
1001
0000
0000
1000
0001
0000
0010
0000
0100
0000
0001
0000
0101
0000
0000
0000
,
0110
0010
0001
0000
1001
0000
0110
0000
,
2000
0000
3020
0000
0032
0000
2003
0000
3200
0000
0320
0000
,
2030
0000
3002
0000
0023
0000
0230
0000
0000
2300
0000
0000
,
0002
0000
0000
0000
,
0000
0000
0000
3003
,
0001
0000
1000
0010
0000
0001
0010
0000
,
1000
0010
0000
0001
0010
0000
1000
0000
,
1000
0000
0001
0010
0000
1000
0010
0000
,
0001
0010
0000
1000
0010
0000
0001
0000
,
0001
0000
0100
0010
0100
0000
0001
1000
,
0001
0000
0010
0100
0010
0000
0100
1000
,
0001
0100
0010
0100
1000
0001
0010
0100
,
0010
0100
0010
0100
0001
1000
0001
1000
0200
0000
0000
0000
1300
0000
0000
0000
,
1100
1000
0010
0210
0000
1000
1000
0000
,
0010
0010
0000
0301
0101
0000
0100
0001
,
0011
0010
0100
1200
0000
0001
0001
0000
,
0010
0000
0010
0000
0000
0000
1000
0000
1300
0000
0010
0100
0001
1000
0100
0010
,
0001
0000
0010
0000
0100
M000
0100
0000
0001
0000
0010
000M
0010
0000
1000
0000
,
0100
00M0
0100
0000
0001
0000
0010
000M
0010
0000
1000
0000
0100
0000
0100
0010
,
2000
0000
0010
0001
0000
0001
3100
0000
,
0110
0001
0002
0000
,
1003
0000
1000
0000
0001
0100
0010
0000
1000
0000
0010
0100
0010
0100
0001
0000
,
1000
0000
0100
0010
0100
0000
1000
0000
0001
0000
0100
0010
1000
0000
0010
0000
,
0100
0000
0001
1000
0100
0000
0010
0000
0100
0000
1000
0001
0100
0000
0010
0000
,
0100
0000
0001
0010
0100
0000
0010
0000
0001
0000
0100
0010
0100
0000
0001
0000
,
2000
0100
3002
0100
2003
0010
3002
0010
,
2003
3020
0032
0023
2030
3200
0302
0203
,
1300
1000
1000
1000
0001
0001
0001
0001
,
0200
0320
0032
2003
,
3200
0000
0000
0000
,
0010
0000
0010
0000
0010
0000
0010
0000
0310
0100
0001
1000
0100
0000
0000
0000
,
1100
1000
0001
0012
0000
1000
0103
0000
,
0110
0000
0010
0000
1000
0000
0001
0000
0010
0000
0100
0000
0010
0001
1000
0001
,
0200
0000
0000
0000
0301
0010
0100
0000
1000
0000
0010
0000
1010
0000
0000
0000
,
0110
0010
1000
0001
0010
0100
0010
0000
,
0011
0010
0001
1000
0010
0100
0001
0010
,
0100
1000
0001
1000
0010
0100
0001
1000
0001
0010
0100
1000
0001
0000
0000
0000
,
0202
0000
0000
0000
,
0303
0000
0000
0000
;
