#VERSION:0.83;
#TITLE:いんたらくとふぁんたじあ;
#SUBTITLE:;
#ARTIST:Hololive Fantasy;
#TITLETRANSLIT:Interact Fantasia;
#SUBTITLETRANSLIT:;
#ARTISTTRANSLIT:;
#GENRE:;
#CREDIT:;
#MUSIC:Interact Fantasia.ogg;
#BANNER:Interact Fantasia.png;
#BACKGROUND:Interact Fantasia-bg.png;
#CDTITLE:cdtitle.png;
#SAMPLESTART:13.333;
#SAMPLELENGTH:9.524;
#SELECTABLE:YES;
#OFFSET:0.000;
#BPMS:0.000=189.000;
#STOPS:;
#SPEEDS:0.000=1.000=0.000=0;
#SCROLLS:0.000=1.000;
#TICKCOUNTS:0.000=4;
#TIMESIGNATURES:0.000=4=4;
#LABELS:0.000=Song Start;
#COMBOS:0.000=1;
#ORIGIN:;
#PREVIEWVID:;
#JACKET:Interact Fantasia-jacket.png;
#CDIMAGE:;
#DISCIMAGE:;
#BGCHANGES:;
#FGCHANGES:;

//--------------- dance-single - MEGAtive ----------------
#NOTEDATA:;
#STEPSTYPE:dance-single;
#DESCRIPTION:MEGAtive;
#DIFFICULTY:Beginner;
#METER:4;
#RADARVALUES:0.20032,0.264495,0.22671,0.411436,0,167,140,27,49,0,0,0,0,0,0.20032,0.264495,0.22671,0.411436,0,167,140,27,49,0,0,0,0,0;
#CHARTNAME:;
#CHARTSTYLE:;
#CREDIT:;
#NOTES:
0000
0000
0000
0000
,
0000
0000
0000
0000
,
0000
0000
0000
0000
,
0000
0000
0000
0000
,
0000
0000
0000
0000
,
2002
0000
3003
0000
,
0220
0000
0330
0000
,
1001
0000
0000
0000
,
1000
0000
0000
0000
,
0010
0000
0000
0000
0000
0000
0000
1001
,
0000
0000
0000
0000
,
0001
0000
0010
0000
,
0001
0000
0000
0000
,
1000
0000
0010
0000
,
1000
0000
0000
0000
,
2002
0000
0000
3003
0000
0000
0000
0000
,
0220
0000
0000
0330
0000
0000
0000
0000
,
2001
0000
0000
0000
,
3001
0000
0000
0000
0000
0000
0000
2002
,
0000
3003
0000
0000
0000
0000
0000
0220
,
0000
0330
0000
0000
,
2002
0000
3003
0000
0000
0000
0000
0220
,
0000
0000
0330
0000
0000
0000
0000
1001
,
0000
0000
1000
0000
,
0001
0000
0010
0000
,
0001
0000
0000
0000
1000
0000
0000
1001
,
0000
0000
0000
0000
0000
0000
0000
0110
,
0000
0010
0000
1000
,
0000
0000
0001
0000
0000
0000
0000
1001
,
0000
1000
0000
0100
,
0000
0000
0010
0000
0000
0000
0000
0110
,
0000
0000
0100
0000
0000
0000
0000
1001
,
0000
0000
0000
1000
0000
0000
0000
0000
,
0001
0000
0000
0001
0000
0000
0000
0000
,
0220
0330
0000
0000
,
2000
0000
0000
0000
,
3002
0000
0000
0000
,
0023
0000
0000
0000
,
0230
0000
0000
0300
0000
0000
1000
0000
,
1000
0000
0000
0001
0000
0000
0000
0000
,
0100
0000
0000
0100
0000
0000
0000
0000
,
2002
0000
3003
0000
,
0000
0000
0000
0000
,
1001
0000
0000
0000
0000
0000
0000
0110
,
0000
0000
0000
0000
,
0000
2002
0000
0000
3003
0000
0000
0000
,
0220
0330
0000
0000
,
0001
0000
0100
0100
,
0100
0000
0010
0000
,
1000
0000
0001
0001
,
0001
0000
0010
0000
,
0100
0000
1000
1000
,
1000
0000
0010
0000
,
0100
0000
0001
0001
,
0001
0000
0010
0000
,
0100
0000
1000
1000
,
1000
0000
0001
0000
,
1000
0000
0010
0010
,
0010
0000
0100
0000
,
0002
0000
0000
0000
,
0023
0000
0000
0000
,
0230
0000
0000
0000
,
2300
0000
0000
0000
,
3001
0000
0010
0010
,
0010
0000
0001
0000
,
1000
0000
0010
0010
,
0020
0000
0230
0000
,
0301
0000
1000
1000
,
2000
0000
3200
0000
,
0310
0000
0100
0100
,
0200
0000
2300
0000
,
3001
0000
0100
0100
,
0100
0000
0010
0000
,
1000
0000
0100
0100
,
0200
0000
0320
0000
,
0031
0000
0001
0000
,
1000
0000
1000
0000
,
2002
0000
0000
0000
,
3003
0000
0000
0000
,
1000
0000
0010
0000
,
1000
0000
0000
0000
,
0001
0000
0010
0000
,
0001
0000
0000
0000
,
1000
0000
0000
0100
0000
0000
0000
0000
,
1000
0000
0000
0010
0000
0000
0000
0000
,
2002
0000
3003
0000
,
0001
0000
0100
0000
,
0220
0000
0330
0000
,
2002
0000
0000
0000
,
0000
0000
0000
0000
,
3003
0000
0000
0000
;

//--------------- dance-single - MEGAtive ----------------
#NOTEDATA:;
#STEPSTYPE:dance-single;
#DESCRIPTION:MEGAtive;
#DIFFICULTY:Easy;
#METER:7;
#RADARVALUES:0.333467,0.37785,0.268693,0.268693,0,278,246,32,32,0,0,0,0,0,0.333467,0.37785,0.268693,0.268693,0,278,246,32,32,0,0,0,0,0;
#CHARTNAME:;
#CHARTSTYLE:;
#CREDIT:;
#NOTES:
0000
0000
0000
0000
,
0000
0000
0000
0000
,
0000
0000
0000
0000
,
0000
0000
0000
0000
,
0000
0000
0000
0000
,
0002
0000
0000
0103
0000
0000
1000
0000
,
0000
0100
0000
0000
0001
0000
0000
0000
,
1002
0000
0000
0000
,
2003
0000
0000
0000
,
3100
0000
0010
0000
0001
0000
0000
1001
,
0000
0000
0000
0000
,
1000
0010
0100
0010
,
1000
0100
0010
0100
,
1000
0010
0100
0001
,
0010
0000
0000
1001
0000
0000
0001
0000
,
1000
0000
0000
1001
0000
0000
0010
0000
,
0010
0000
0000
0110
0000
0000
0001
0000
,
0001
1001
2000
0000
,
0200
0000
3300
0000
0000
0000
0000
2000
,
0000
0000
3000
0000
0000
0000
0000
0200
,
0000
0310
0000
0000
,
0200
0000
0000
0000
0300
0000
0000
2000
,
0000
0000
3001
0000
0000
0000
0000
1001
,
0000
1000
0010
0000
,
0100
0001
0010
0000
,
0100
0000
1000
0000
0010
0000
0000
2002
,
0000
0000
3003
0000
0000
0000
0000
1001
,
0000
0000
0001
0000
0100
0000
0000
0110
,
0000
0000
0010
0000
1000
0000
0000
1001
,
0000
0000
0001
0000
0010
0000
0000
0110
,
0000
0000
0100
0000
1000
0000
0000
1001
,
0000
0000
0001
0000
0100
0000
0000
0110
,
0000
0000
0000
1001
0000
0000
1000
0000
,
0100
0000
0000
0110
0000
0000
0010
0000
,
1002
0000
0003
1000
,
0002
0000
0000
0100
,
2003
0000
0000
0010
,
3002
0000
0000
0010
,
2003
0000
0000
3010
0000
0000
0010
0000
,
1000
0000
0000
1001
0000
0000
0001
0000
,
0010
0000
0000
0110
0000
0000
0100
0000
,
2000
0000
0000
0000
,
3002
0000
0000
0000
,
0103
0000
0010
0000
1000
0000
0000
1001
,
0000
0000
0000
0110
0000
0000
0000
1001
,
0000
0001
0100
0010
,
0220
0330
0000
0000
,
1000
0010
0100
0001
,
0010
0100
0010
0001
,
0200
0010
0010
0000
,
0301
0010
0100
1000
,
0001
0010
0100
0010
,
0001
0100
0010
1000
,
0100
0010
0100
1000
,
0002
0100
0100
0000
,
1003
0010
0100
0001
,
0010
0100
0010
0001
,
1000
0010
0100
0001
,
2000
0100
0100
0000
,
3001
0000
0000
1001
0000
0000
0100
0000
,
0000
0110
0000
0000
1000
0000
1001
0000
,
0002
0000
0100
0100
,
0103
0010
2000
0000
,
3001
0010
0100
0010
,
0100
1000
0001
0100
,
0020
0100
0100
0000
,
1030
0100
0010
0001
,
1000
0010
0100
0010
,
0100
0001
0010
0100
,
1000
0001
1000
0010
,
0200
0010
0010
0000
,
0301
0010
0100
0010
,
0001
0100
0010
1000
,
0001
0010
0100
1000
,
0100
0010
0100
1000
,
0002
0000
0100
0000
,
0103
0010
1000
0001
,
0010
0000
0000
0110
0000
0000
1000
0000
,
2002
3003
0000
0000
,
0001
0010
0100
0010
,
0001
0100
0010
0100
,
0001
0010
0100
1000
,
0010
0000
0000
1001
0000
0000
1000
0000
,
0010
0000
0000
0110
0000
0000
0001
0000
,
0001
0000
0000
1001
0000
0000
1000
0000
,
0001
0010
0100
0010
,
0001
0000
0100
0000
0010
0000
1000
0001
,
0000
0000
0000
0000
,
2002
0000
0000
0000
,
0000
0000
0000
0000
,
3003
0000
0000
0000
;

//--------------- dance-single - MEGAtive ----------------
#NOTEDATA:;
#STEPSTYPE:dance-single;
#DESCRIPTION:MEGAtive;
#DIFFICULTY:Medium;
#METER:11;
#RADARVALUES:0.473811,0.491205,0.12595,0.386246,0.004198,395,380,15,46,0,0,0,0,0,0.473811,0.491205,0.12595,0.386246,0.004198,395,380,15,46,0,0,0,0,0;
#CHARTNAME:;
#CHARTSTYLE:;
#CREDIT:;
#NOTES:
0000
0000
0000
0000
,
0000
0000
0000
0000
,
0000
0000
0000
0000
,
0000
0000
0000
0000
,
0000
0000
0000
0000
,
1000
0000
0100
0010
0000
0000
0011
0000
,
0001
0100
0000
0100
0001
0000
1000
0000
,
0002
0010
0010
0010
,
2003
0100
0100
0100
,
3001
0000
0001
0000
0100
0010
0000
2002
,
0000
3003
0000
0000
,
1000
0010
0001
0010
,
1000
0000
0001
0020
0000
0130
1000
0010
,
0000
0100
0001
0010
0000
0100
1000
0001
,
1000
0000
0010
0100
0000
0001
0002
0000
,
1003
0000
0100
0020
0000
0130
1000
0000
,
0001
0000
0100
0020
0000
0130
0001
0000
,
1000
0000
0000
0000
1001
0000
0000
0000
0001
0000
0000
0010
0000
0000
0100
0000
,
2000
0000
3000
0000
0000
0000
0001
0002
,
0000
0000
0003
0000
0000
0000
0100
0100
,
0000
0010
0020
0000
0030
0000
0000
0000
,
2000
0000
3000
0000
0000
0000
0100
0100
,
0000
0010
0020
0000
0030
0000
0000
1001
,
0000
0001
0100
0000
0100
0010
0100
0000
,
0001
1000
0001
0000
0010
0100
0010
0000
,
0001
1000
0001
0000
0100
0010
0000
2002
,
0000
0000
3003
0000
0000
1000
0001
2000
,
0000
3100
0010
0000
0100
0000
1000
0020
,
0000
0031
0020
0000
1030
0000
0001
0002
,
0000
0013
0100
0000
0010
0000
0001
0200
,
0000
1300
0200
0000
0301
0000
1000
2000
,
0000
3100
0010
0000
0001
0000
1000
0010
,
0000
0001
0010
1000
0000
0001
0001
0000
,
1000
0100
0010
0001
0000
0100
0100
0000
,
2002
0000
3003
0000
0000
0010
0100
0000
,
2000
0000
0000
0100
,
3002
0000
0000
0100
,
2003
0000
0000
0010
,
3001
0000
0001
0010
0000
0100
0010
0000
,
0001
0100
0010
1000
0000
0100
0100
0000
,
1000
0100
0010
0001
0000
0100
0100
0000
,
0001
0001
0001
0001
,
1000
1000
1000
1000
,
0001
0100
0010
0000
1000
0100
0010
0100
,
0000
0010
0001
0100
0000
0010
1000
0100
,
0000
0010
0020
0000
0001
0000
1000
0000
,
0031
0002
0000
0000
0003
0000
0000
0000
,
0101
0000
0100
0010
1000
0000
0100
0010
,
0100
1000
0010
0001
,
0010
0000
0100
0001
0010
0000
0100
1000
,
0100
0001
0100
1000
,
1001
0000
0001
0100
0010
0000
1000
0001
,
0010
1000
0010
0001
,
1000
0000
0100
0010
0001
0000
0100
0010
,
0100
1000
0100
0001
,
1001
0000
1000
0100
0010
0000
0001
0100
,
0010
0001
0010
1000
,
0001
0000
0100
0010
0100
0000
0010
1000
,
0100
0001
0100
1000
,
1001
0000
0001
0002
0000
0103
0200
0000
,
0310
0020
0000
1030
2000
0000
3001
0000
,
1000
1000
1000
1000
,
0001
0010
0001
0000
1000
0010
0001
0010
,
1000
0000
0100
0010
0100
0000
1000
0000
,
0010
0100
0010
0000
0001
0000
0010
0000
,
1000
0000
0001
0010
0001
0000
1000
0200
,
0000
0302
0203
2300
,
3001
0000
0100
0010
0100
0000
0001
0000
,
0010
0100
0010
0000
1000
0000
0010
0000
,
0001
0000
1000
0100
0000
0010
0100
1000
,
0001
0000
1000
0000
0010
0100
0010
0000
,
1000
0000
0001
0010
0001
0000
1000
0000
,
0100
0010
0100
0000
1000
0000
0010
0000
,
0001
0000
0010
0000
1000
0000
0100
0010
,
0100
1000
0001
0000
0100
0010
0100
0000
,
0001
0001
1000
1000
,
0100
0010
0100
1000
0001
0000
0100
0000
,
0110
0000
0000
1010
0000
0000
1001
0000
,
0001
0002
0000
0000
0003
0000
0000
0000
,
0001
0010
1000
0010
,
0001
0000
1000
0020
0000
0130
0001
0010
,
0000
0100
1000
0010
0000
0100
0001
1000
,
0001
0000
0010
0100
0000
1000
2000
0000
,
3001
0000
0100
0020
0000
1030
0100
0000
,
0010
0000
0001
0020
0000
0130
1000
0000
,
2010
0010
0010
0010
,
3010
0100
0001
0000
1000
0100
0010
0002
,
0000
0000
0003
0000
,
2002
0000
0000
0000
,
0000
0000
0000
0000
,
3003
0000
0000
0000
;

//--------------- dance-single - MEGAtive ----------------
#NOTEDATA:;
#STEPSTYPE:dance-single;
#DESCRIPTION:MEGAtive;
#DIFFICULTY:Hard;
#METER:14;
#RADARVALUES:0.62735,0.680129,0.268693,0.520593,0.054578,523,491,32,62,0,0,0,0,0,0.62735,0.680129,0.268693,0.520593,0.054578,523,491,32,62,0,0,0,0,0;
#CHARTNAME:;
#CHARTSTYLE:;
#CREDIT:;
#NOTES:
0000
0000
0000
0000
,
0000
0000
0000
0000
,
0000
0000
0000
0000
,
0000
0000
0000
0000
,
0000
0000
0000
0000
,
0101
0000
0000
0000
0100
0010
0100
0000
0000
0000
0000
0000
1010
0000
0000
0000
,
1000
0100
0000
0010
0001
0000
1000
0000
,
0002
0100
0100
0100
,
2003
0010
0010
3010
,
1010
0000
0101
0000
0001
1000
0000
2200
,
0000
0000
0000
0000
3300
0000
0000
0000
0000
0000
1000
0100
0010
0000
0000
0000
,
0011
0000
0001
0100
0001
0000
1000
0100
,
1000
0000
0001
0200
0000
1300
0100
0002
,
0000
1003
0010
0002
0000
0013
1000
0001
,
1000
0000
0100
0010
0000
0001
0011
0000
,
1000
0100
0001
0200
0000
1300
1100
0000
,
0001
0100
1000
0200
0000
0301
0101
0000
,
1001
0000
0000
0000
1100
0000
0000
0000
0100
0000
0000
0110
0000
0000
0001
0000
,
2002
0000
3003
0000
0000
0000
1000
2000
,
0000
0000
3000
0000
0000
0000
0001
0002
,
0000
0100
0103
0000
0000
0000
0000
0000
,
2002
0000
3003
0000
0000
0000
0010
0020
,
0000
0100
0130
0000
0000
0000
0000
0101
,
0000
0001
0010
0001
0010
0100
0010
0100
,
1000
0100
1000
0001
1000
0001
0100
0000
,
0110
0000
0000
0000
0010
0000
1000
0001
1000
0000
1000
0000
0000
0000
2200
0000
,
0000
0000
3300
0000
0000
1000
0100
0002
,
0000
0103
1000
0010
0100
0001
1000
0200
,
0000
0301
0100
1000
0020
0100
0130
0102
,
0000
0103
0001
0010
0100
1000
0001
0200
,
0000
1300
0100
0001
0020
0100
0130
2100
,
0000
3100
0010
0100
1000
0001
0100
2000
,
0000
3100
0010
2000
0000
3100
1100
0000
,
1000
0100
0010
0002
0000
0103
0010
2000
,
0002
0000
3003
0000
0000
1000
1000
0000
,
0102
0000
0000
0100
0000
0100
0100
0000
,
2003
0100
0000
0100
0000
0100
0100
0000
,
3002
0000
0000
0010
0000
0010
0010
0000
,
1003
0000
0100
0000
0010
0000
0001
0000
0000
0000
0100
0010
0100
0000
0010
0000
,
1000
1000
0100
0002
0000
0103
1000
0010
,
0100
0100
0010
0002
0000
0013
0100
0001
,
1000
1000
1000
1000
,
0001
0000
0000
0000
0010
0000
0100
0000
0010
0000
0001
1000
0001
0000
0000
0000
,
0100
0010
0100
1000
0100
0010
0100
0002
,
0000
0013
0100
2000
0000
3010
0001
0020
,
0000
0130
0100
0001
1000
0001
0010
0100
,
1000
2000
0000
0000
3000
0000
0000
0000
,
0011
0000
0010
0001
0100
1000
0100
0010
,
0100
0000
0001
0010
0001
1000
0100
0001
,
0100
0000
1000
0001
0100
1000
0100
0002
,
0010
0203
0320
2030
,
3001
0000
0100
0001
0010
1000
0010
0100
,
0010
0000
0001
0100
0001
1000
0010
0001
,
0010
0000
1000
0001
0010
1000
0010
0001
,
1000
0010
0100
0001
1000
0010
1000
0001
,
0010
0000
0100
1000
0010
0001
0010
0100
,
0010
0000
1000
0100
1000
0001
0010
1000
,
0010
0000
0001
1000
0010
0001
0010
1000
,
0001
0010
0100
1000
0100
0010
0001
0000
,
1000
0100
1000
0001
0100
0001
1000
0100
,
0010
0001
0100
0010
2000
0000
3001
0000
,
1000
0000
0001
0100
0001
0100
1000
0100
,
1000
0000
0100
0000
0010
0000
0000
0000
0100
0000
0001
1000
0001
0000
0000
0000
,
0011
0000
0001
0100
0010
1000
0100
0010
,
0100
1000
0001
0100
0010
0001
0010
0100
,
0002
0000
1003
0100
0020
0000
0130
2000
,
0010
3002
0203
0320
,
1030
0000
1000
0100
0010
0001
0100
0010
,
0100
0000
0001
0000
1000
0000
0100
0000
0020
0000
0000
0100
0000
0000
0001
0000
,
0032
0000
1003
0010
0000
0100
0002
0000
,
0103
0000
1000
0000
0100
0000
0001
0000
1000
0000
0100
0010
0100
0000
1000
0000
,
1001
0000
0001
0100
0010
0100
0001
1000
,
0100
0010
0100
1000
0001
0010
0001
1000
,
0010
0100
0010
0001
0010
0100
0001
1000
,
0001
0000
0000
0000
0011
0000
0000
0010
0100
0000
0000
1000
0001
0000
0000
0000
,
0101
0000
0100
0000
0100
0010
0100
0010
,
1000
0100
0010
0001
0100
0010
0001
0010
,
0100
0000
0000
0000
0010
1000
0100
0000
0000
0000
0010
0001
0100
0000
0000
0000
,
0110
0220
0000
0000
0000
0330
0000
0000
,
1010
0000
1000
0100
1000
0000
0001
0100
,
0001
0000
1000
0200
0000
0301
0100
2000
,
0000
3001
0010
2000
0000
3010
0001
1000
,
0001
0000
0100
0010
0000
1000
1010
0000
,
1000
0001
0010
0001
0000
1000
0100
0010
,
0001
1000
0010
1000
0000
0001
0100
0010
,
1000
0100
1000
0100
0001
0100
0001
0100
,
1000
0001
0100
0010
0001
1000
0100
0220
,
0000
0000
0330
0000
,
2002
0000
0000
0000
,
0000
0000
0000
0000
,
3003
0000
0000
0000
;

//--------------- dance-single - MEGAtive ----------------
#NOTEDATA:;
#STEPSTYPE:dance-single;
#DESCRIPTION:MEGAtive;
#DIFFICULTY:Challenge;
#METER:16;
#RADARVALUES:0.840865,0.982409,0.873252,0.495403,0.365255,701,597,104,59,0,0,0,0,0,0.840865,0.982409,0.873252,0.495403,0.365255,701,597,104,59,0,0,0,0,0;
#CHARTNAME:;
#CHARTSTYLE:;
#CREDIT:;
#NOTES:
0000
0000
0000
0000
,
0000
0000
0000
0000
,
0000
0000
0000
0000
,
0000
0000
0000
0000
,
0000
0000
0000
0000
,
0101
0000
0000
0000
0001
0010
0100
0000
0000
0000
0000
0000
1100
0000
0000
0000
,
1000
0001
0000
0100
0010
0000
1000
0000
,
1002
0010
1000
0100
,
2003
0010
0001
3100
,
1100
0000
1001
0000
0101
0100
0000
0220
,
0000
0000
0000
0000
0330
0000
0000
0000
0000
0000
0010
0100
0010
0000
1000
0100
,
0010
0000
0011
0100
0011
0000
1010
0100
,
1010
0000
1001
0011
0000
1100
0010
1001
,
0000
0101
0010
1001
0000
1100
0010
1001
,
1000
0000
1010
0110
0000
0110
0100
0001
,
0011
0010
0100
2100
0000
0010
3010
0000
,
0101
0001
1000
1010
0000
0110
0100
0001
,
0101
0000
0000
0000
2001
0000
3000
0000
0011
0000
0000
0110
0000
0000
1100
0000
,
2002
0000
3003
0000
0000
0000
1000
2100
,
0000
0000
3000
0000
0000
0000
0000
1020
,
0000
0100
0230
0000
0300
0000
0000
0000
,
0012
0000
0000
0000
0003
0000
1000
2010
,
0000
0010
3010
0000
0000
0000
0000
0011
,
0001
1000
0100
0010
0100
1000
0001
1000
,
0010
0100
0001
1000
0001
0010
0100
1000
,
1100
0000
0000
0000
1001
0000
0001
0100
0010
0000
0110
0000
0000
0000
2002
0000
,
0000
0000
3003
0000
0000
0001
0010
0210
,
0000
1300
0010
0100
1000
0001
0010
0210
,
0000
0301
0010
0000
0110
0100
1000
1020
,
0000
1030
0100
0010
1000
0001
0100
0120
,
0000
0000
0031
0000
0100
0000
0010
0100
0010
0100
0010
1000
0001
0000
0012
0000
,
0000
1003
0010
0001
0010
0100
0001
0102
,
0000
1003
0100
1200
0000
1300
1010
0000
,
0110
0000
0100
0000
0001
0000
1001
0000
0000
0000
1100
0000
1000
0000
0100
0010
,
0002
0000
0003
0000
0000
1000
1010
0000
,
0102
0000
0000
1000
0000
0010
0010
0000
,
2003
0100
0000
0100
0000
0001
0001
0000
,
3002
0000
0000
0100
0000
1000
1000
0000
,
1003
0000
0100
0000
0010
0000
0011
0000
0000
0000
0001
0100
0010
0000
1000
0000
,
1010
0010
1000
2100
0000
3100
1100
0000
,
0011
0001
0100
0201
0000
0010
0310
0000
,
2010
0010
0010
0010
,
3002
0000
0000
0000
0013
0000
0100
0000
1000
0000
0001
0100
0010
0000
0000
0000
,
1000
0010
0100
0010
0001
0010
0100
0101
,
0000
0000
0001
0000
1000
0000
1100
0000
0000
0000
0100
0000
0010
0001
1000
0001
,
0100
0000
0110
0000
0010
0000
1000
0000
1001
0000
0001
0010
0001
0000
1000
0100
,
0010
0220
0000
0330
0000
0000
0000
0000
,
2100
0000
0000
0000
3001
0000
0001
0100
0010
0000
0000
0000
0100
0010
1000
0010
,
0100
0000
0001
0010
0100
0000
0010
0001
1000
0000
0000
0000
0100
0010
0001
0010
,
0100
0000
1000
0010
0100
0000
0010
1000
0001
0000
0000
0000
0010
0100
1000
0001
,
2000
0000
3010
0100
0002
0000
0013
0100
2000
0000
3010
0100
0001
0000
0010
0000
,
0012
0000
0000
0000
1003
0000
0100
0010
0001
0000
0000
0000
1000
0010
0100
0010
,
1000
0000
0001
0010
0100
0000
0010
0001
1000
0000
0000
0000
0010
1000
0001
1000
,
0010
0000
1000
0100
0010
0000
0100
1000
0001
0000
0000
0000
0100
0010
0100
0010
,
2000
0000
3200
0000
0302
0000
0203
0000
0320
0000
0032
0000
0103
0010
0100
0010
,
2000
0000
0000
0000
3010
0000
0100
0001
0020
0000
0000
0000
0130
1000
0001
1000
,
0020
0000
0130
0001
0020
0000
0130
1000
0010
0000
0100
0000
0001
0010
0001
1000
,
0020
0000
0130
0001
0020
0000
0130
1000
0002
0000
0000
0000
0103
0010
1000
0001
,
0010
0000
0100
1000
0001
0000
0100
0010
1000
0000
0001
0010
0001
1000
0100
0010
,
0001
0001
0100
0110
0010
1000
1100
0100
,
0010
0000
0011
0000
0001
0000
0100
0000
0110
0000
0010
1000
0001
1000
0100
0010
,
0002
0000
1003
0100
1000
0001
1000
0010
,
0100
0000
1000
0000
0001
0000
0010
0000
0100
0001
1000
0001
1000
0100
0010
0000
,
0012
0000
0103
1000
0100
0001
1000
0100
,
0001
0100
1000
0010
0100
0001
0010
1000
,
0020
0000
0130
1000
0020
0000
0130
1000
,
0100
0010
0100
0001
1000
0100
0010
0001
,
0200
0000
0310
0001
0010
0100
0010
1000
,
0100
0001
0100
1000
0010
0100
1000
0100
,
0001
1000
0100
0010
0100
0001
1000
0010
,
0001
0000
1000
0000
0001
0100
0010
0100
1000
0000
1000
0100
0010
0000
1000
0000
,
1010
0010
0100
1000
0100
0010
1000
0001
,
0010
0100
0001
0100
0010
0001
1000
0100
,
1000
0001
0100
0001
1000
0010
0001
0010
,
1000
0000
1000
0000
1010
0000
0010
0100
0001
0000
0010
0100
1000
0100
0010
0000
,
0011
0001
0100
0001
0100
1000
0001
0010
,
1000
0000
0001
0000
1000
0000
0100
0000
0001
0000
1000
0010
0100
0010
0001
1000
,
0100
0000
1000
0010
0100
0010
0001
0000
1000
0100
0010
0100
0001
0000
1000
0000
,
1001
2002
0000
0000
0000
0000
3003
0000
,
1100
0000
0101
0010
0101
0000
1100
0010
,
1100
0000
1001
0101
0000
1010
0100
1001
,
0000
0011
0100
1001
0000
1010
0100
1001
,
0001
0000
0011
0110
0000
1100
1000
0001
,
0101
0000
0100
0001
0010
0000
0110
0000
0000
0000
0100
0000
1100
0000
1000
0010
,
0100
0001
1000
1010
0000
0101
0001
0010
,
0110
0100
1000
0100
0001
0100
1000
0001
,
0100
1000
0001
0010
0100
0001
1000
1100
,
0100
1000
0010
0000
0100
0010
0100
0010
1000
0000
0000
0000
0000
0000
0000
0000
,
0022
0000
0000
0000
,
0000
0000
0000
0000
,
0033
0000
0000
0000
;
