#TITLE:GIGANTOMAKHIA;
#SUBTITLE:;
#ARTIST:BlackYooh vs. siromaru;
#TITLETRANSLIT:;
#SUBTITLETRANSLIT:;
#ARTISTTRANSLIT:;
#GENRE:;
#CREDIT:;
#MUSIC:GIGANTOMAKHIA.ogg;
#BANNER:GIGANTOMAKHIA.png;
#BACKGROUND:GIGANTOMAKHIA-bg.png;
#CDTITLE:cdtitle.png;
#SAMPLESTART:91.253;
#SAMPLELENGTH:12.947;
#SELECTABLE:YES;
#OFFSET:-0.306;
#BPMS:0.000=190.000;
#STOPS:;
#ORIGIN:;
#TAGS:;
#PREVIEWVID:;
#JACKET:GIGANTOMAKHIA-jacket.png;
#CDIMAGE:;
#DISCIMAGE:;
#BGCHANGES:-1.000=GIGANTOMAKHIA.avi=1.000=0=0=0=StretchNoLoop====,
99999.000=-nosongbg-=1.000=0=0=0=StretchNoLoop====
;
#FGCHANGES:;

//--------------- dance-single - GIGAtive ----------------
#NOTES:
     dance-single:
     GIGAtive:
     Beginner:
     6:
     0.226277,0.348175,0.043796,0.510949,0,217,211,6,70,0,0,0,0,0,0.226277,0.348175,0.043796,0.510949,0,217,211,6,70,0,0,0,0,0:
0000
0000
0000
0000
,
0000
0000
0000
0000
,
0000
0000
0000
0000
,
0000
0000
0000
0000
,
2002
0000
0000
0000
,
3003
0000
0000
0000
,
0220
0000
0000
0000
,
0330
0000
0000
0000
,
1000
0000
0000
1000
0000
0000
0000
0000
,
0000
0000
0000
0000
,
0001
0000
0000
0001
0000
0000
0000
0000
,
0000
0000
0000
0000
,
1000
0100
1000
0000
,
0001
0100
0010
0000
,
1000
0001
0010
0100
,
2000
0000
0000
0000
,
3000
0000
0001
0000
0000
0001
0000
0000
,
0000
1000
0000
0000
0020
0000
0000
0000
,
0130
0000
0000
0000
0100
0000
0000
0001
,
0000
0000
2000
0000
,
3001
0000
0000
0000
0001
0000
0000
0010
,
0000
0000
0200
0000
,
1300
0000
0000
0000
0000
1000
0000
1000
,
0000
0000
0000
0010
0000
0000
0100
0000
,
0002
0000
0003
0020
0000
0030
2000
0000
,
3000
0010
0002
0000
,
2003
0000
0000
3020
0000
0030
0002
0000
,
0003
0010
0200
0000
,
0302
0000
0003
0020
0000
0030
2000
0000
,
3000
0010
0002
0000
,
2003
0000
3000
0020
0000
0030
0002
0000
,
0000
0023
0000
0000
,
1030
0000
0000
0000
,
0000
0000
0000
0000
,
0001
0000
0000
0000
,
0000
0000
0000
0000
,
2000
0000
3200
0000
,
0320
0000
0032
0000
,
2003
0000
3020
0000
,
0130
0000
0000
0000
,
1001
0000
0000
0001
0000
0001
0000
0000
,
0100
0010
2000
0000
,
3001
0010
0000
0010
,
0001
2000
3000
0000
,
1001
0000
0000
1000
0000
1000
0000
0001
,
0000
0200
0000
0000
0310
0000
1000
0000
,
0001
0010
0000
0100
,
2000
0000
3001
0000
,
1001
0000
0000
1000
0000
1000
0000
0000
,
0010
0100
0002
0000
,
1003
0100
0000
0100
,
1000
0002
0003
0000
,
1001
0000
0000
1000
0000
2000
0000
0000
,
3020
0230
0302
0000
,
1003
0000
0200
0000
0000
0320
0000
0000
,
0032
0000
0000
0203
0000
0000
0000
0000
,
0310
0000
0000
0000
,
1000
0000
0000
0000
,
0001
0000
0000
0000
,
0010
0000
0000
0000
,
0200
0000
0000
0000
,
2300
0000
0000
0000
,
3002
0000
0000
0000
,
0203
0000
0000
0000
,
0310
0000
1000
0000
,
0002
0000
0000
0000
,
0013
0000
0100
0000
,
1000
0000
0001
0000
,
0200
0000
0000
0000
,
0000
0000
0000
0000
,
0300
0000
0000
0000
,
0000
0000
0000
0000
,
0001
0001
2000
0000
,
3100
0100
0020
0000
,
0031
0001
0200
0000
,
0020
0000
0330
0000
,
1000
1000
0001
0010
,
0000
0100
0000
0000
0010
0000
0000
0000
,
0002
0000
0203
0000
,
0310
2000
0000
0000
,
3001
0001
0000
0010
,
0100
1000
0001
0000
,
0100
0100
0000
0010
,
0100
0001
2000
0000
,
3000
0001
0001
0020
,
0030
0100
0100
2000
,
3002
0000
0203
0000
,
0310
0000
0000
1000
,
0001
0010
0000
0010
,
0001
0100
0000
0010
,
1000
0100
0000
0010
,
0000
0002
0000
0000
0000
0000
0000
0000
,
0003
1000
0010
1000
,
0000
0001
0010
0100
,
2000
0000
3020
0000
,
0230
0000
0301
1000
,
0001
0010
0001
0000
,
1000
0100
0010
0001
,
1000
0010
1000
0000
,
0001
0100
0010
1000
,
0001
0002
0000
0000
,
0003
0020
0000
0000
,
0130
1000
0002
0000
,
0103
0010
1000
0001
,
2000
0000
0000
0000
,
0000
0000
0000
0000
,
3000
0000
0000
0000
;

//--------------- dance-single - GIGAtive ----------------
#NOTES:
     dance-single:
     GIGAtive:
     Easy:
     10:
     0.4317,0.541606,0.226277,0.408759,0.083942,414,383,31,56,0,0,0,0,0,0.4317,0.541606,0.226277,0.408759,0.083942,414,383,31,56,0,0,0,0,0:
0000
0000
0000
0000
,
0000
0000
0000
0000
,
0000
0000
0000
0000
,
0000
0000
0000
0000
,
2000
0000
0000
0000
,
3100
0010
0001
1000
,
0020
0000
0000
0000
,
0200
0000
0330
0000
,
1000
0000
0000
1000
0000
0000
0001
0000
,
0000
0000
0000
0000
,
0001
0000
0000
0001
0000
0000
1000
0000
,
0000
0000
0000
0000
,
0010
0100
0001
1000
,
0100
0010
0001
1000
,
0010
0100
0010
0000
1000
0001
1000
0000
,
0200
0000
0000
0000
,
0300
0000
1000
0000
1000
0001
0000
0001
,
0000
0100
0000
0100
0000
0000
1001
0000
,
0001
0000
0001
0000
0100
0010
0000
0010
,
0000
1000
0000
1000
0000
0000
1001
0000
,
0001
0000
0010
0000
0100
1000
0000
1000
,
0000
0001
0000
0001
0000
0000
1001
0000
,
1000
0000
1000
0000
0001
0100
0000
0100
,
0000
0010
0000
0010
0000
0000
1001
0000
,
1000
0100
0000
0010
0100
0000
1000
0001
,
0100
0110
0001
1001
,
1000
0100
0000
0010
0001
0000
0100
0010
,
0100
0110
0001
1001
,
1000
0100
0000
0010
0100
0000
0010
0001
,
0100
0110
0001
1001
,
1000
0010
0000
0100
0001
0000
1000
0100
,
0020
0032
0203
0320
,
1030
0000
1000
0000
,
0001
0000
0001
0000
,
0010
0000
0010
0000
,
0100
0000
0000
0000
,
1000
0100
0010
0001
,
1000
0010
0100
0001
,
1000
0100
0010
0000
0001
0100
0010
0000
,
0220
0000
0330
0000
,
1000
1000
0000
0010
0000
0001
0010
0000
,
0100
0000
0110
0000
0010
1000
0000
0001
,
2000
0000
0000
0000
3100
0000
0000
0010
0000
0000
0100
0000
1000
0000
0000
0000
,
2000
0000
0000
0000
3010
0000
0000
0200
0000
0000
0000
0000
0300
0000
0000
0000
,
0001
0001
0000
0010
0000
0100
1000
0010
,
0000
0100
0100
0000
0001
0000
1001
0000
,
0002
0000
0000
0000
0013
0000
0000
0100
0000
0000
0010
0000
0002
0000
0000
0000
,
1003
0000
0000
1000
0000
0000
0010
0000
0200
0000
0000
0000
0000
0000
0000
0000
,
0301
0001
0000
0010
0000
1000
0010
0000
,
0100
0000
0110
0000
0010
0001
0000
0100
,
0002
0000
0000
0000
0013
0000
0000
0100
0000
0000
0010
0000
0001
0000
0000
0000
,
0002
0000
0000
0000
0103
0000
0000
0020
0000
0000
0000
0000
0000
0000
0000
0000
,
1030
1000
0000
0010
0000
0001
0010
0000
,
0200
0320
1030
1000
,
1001
0000
0000
0000
0001
0000
0000
0010
0000
0000
0100
0000
0000
1000
0000
0000
,
0010
0000
0000
0100
0000
0000
0001
0000
0020
0000
0000
0000
0000
0000
0000
0000
,
0032
0000
0000
0000
,
0023
0000
0100
0000
,
0032
0000
2003
0000
,
3020
0000
0230
0000
,
0302
0000
2003
0000
,
3200
0000
0320
0000
,
0230
0000
2300
0000
,
3002
0000
0203
0000
,
0310
1000
0001
0000
,
1000
0100
0010
0000
,
0100
1000
0001
0000
,
0100
0010
1000
0001
,
0020
0000
0000
0000
,
0130
0000
0000
0000
,
2000
0000
0000
0000
,
0002
0000
3003
0000
,
0001
0000
0000
0000
1001
0000
0000
0000
1000
0000
0000
0001
0000
0000
0100
0000
,
0010
0000
0000
0000
0110
0000
0000
0000
0100
0000
0000
0001
0000
0000
1000
0000
,
0100
0000
0000
0000
1100
0000
0000
0000
1000
0000
0000
0100
0000
0000
0010
0000
,
0000
0000
0010
0000
0000
0100
0000
0000
1000
0000
0000
0001
0000
0000
0100
0000
,
0010
0110
2000
3001
,
0000
0000
1000
0000
0000
1000
0000
0000
0100
0000
0000
0010
0000
0000
0001
0000
,
1000
0000
0000
0010
0000
0000
0100
0000
0010
0000
0000
0100
0000
0000
0001
0000
,
1000
2002
0000
3003
,
1001
0000
0001
0000
0010
0100
0000
0110
,
0000
0010
0001
0000
0001
1000
0010
0000
,
0100
0000
0101
0000
0001
0000
0001
1000
,
0000
1001
0000
0000
0001
0000
0001
1000
,
0000
0000
0100
0000
0100
0000
0010
0002
,
0000
0000
0103
0000
0100
0000
0010
1000
,
0002
0023
0230
2300
,
3001
0001
1000
1000
,
0001
0000
0000
0000
1001
0000
0000
0000
1000
0000
0000
0001
0000
0000
0010
0000
,
0100
0000
0000
0000
0110
0000
0000
0000
0010
0000
0000
0001
0000
0000
1000
0000
,
0010
0000
0000
0000
0110
0000
0000
0000
0100
0000
0000
0001
0000
0000
1000
0000
,
0000
0000
1000
0000
0000
0100
0000
0000
0010
0000
0000
0001
0000
0000
0100
0000
,
0000
0000
0010
1000
0100
0000
0010
0001
,
0100
0000
0010
1000
0002
0000
0000
0000
,
1003
0100
0010
0000
0100
1000
0001
0000
,
0100
0010
0100
0000
0001
1000
0002
0000
,
1003
0000
1000
0000
0100
0010
0100
0000
,
1000
0001
1001
1001
,
1000
0000
1000
0000
0010
0100
0010
0000
,
1000
0001
1000
0000
1001
0000
1001
0000
,
0002
0000
0013
0100
0010
0000
0001
1000
,
0002
0000
0103
0010
0100
0000
0001
1000
,
0002
0023
0230
2300
,
3010
0100
0010
0100
0010
0100
0010
0100
,
0002
0000
0000
0000
,
0000
0000
0000
0000
,
0003
0000
0000
0000
;

//--------------- dance-single - GIGAtive ----------------
#NOTES:
     dance-single:
     GIGAtive:
     Medium:
     13:
     0.562044,0.812409,0.153285,0.474453,0.120438,539,518,21,65,0,0,0,0,0,0.562044,0.812409,0.153285,0.474453,0.120438,539,518,21,65,0,0,0,0,0:
0000
0000
0000
0000
,
0000
0000
0000
0000
,
0000
0000
0000
0000
,
0000
0000
0000
0000
,
0002
0000
0103
0010
,
0100
0001
1000
0001
,
0020
0000
0000
0000
,
0200
0000
0330
0000
,
1000
0000
0020
0100
0000
0000
1030
0000
,
0001
0010
0100
1000
,
0001
0000
0200
0010
0000
0000
0301
0000
,
1000
0100
0010
0001
,
1000
1000
1000
1000
,
0001
0001
0001
0001
,
1000
0010
0100
0010
0100
0001
0010
0100
,
2000
0100
0001
0010
,
3000
0000
1010
0000
1000
0001
0000
0010
,
0000
1000
0000
0010
0001
0000
1000
0000
,
1001
0000
0001
0000
1000
0010
0000
0001
,
0000
0010
0000
1000
0001
0000
0010
0000
,
0100
1000
0100
1000
0001
0100
0000
1000
,
0000
0100
0000
0001
1000
0000
0001
0000
,
0010
0000
0110
0000
0100
1000
0000
0001
,
0000
0100
0000
1000
0100
0000
0002
0000
,
1003
0100
0001
0001
0100
1000
1000
0010
,
0200
0000
0301
0000
0001
0010
0001
0010
,
0001
0100
1000
1000
0100
0001
0001
0010
,
0200
0000
2300
0000
3010
0010
0100
0100
,
0001
0010
1000
1000
0010
0001
0001
0100
,
0020
0000
1030
0000
1000
0010
1000
0010
,
1000
0100
0001
0001
0100
1000
1000
0010
,
0100
0001
0010
0100
1000
0010
0100
0001
,
1000
1000
1000
1000
,
0010
0010
0010
0010
,
0100
0100
0100
0100
,
0001
0002
0000
0000
,
1003
0100
0001
0100
,
1000
0010
0001
0010
,
0100
0000
0100
0010
0000
0010
1000
0000
1000
0001
0000
0001
,
0020
0000
0000
0031
,
0101
0001
0000
1100
0000
1100
0100
1000
,
0002
0000
0103
0010
0100
0001
0001
0010
,
0200
0000
0000
0000
1000
0000
0000
0010
0000
0000
1300
0000
0100
0000
0010
0000
,
0002
0000
0000
0000
0100
0000
0000
2000
0000
0000
0000
0000
3003
0000
0000
0000
,
1100
1000
0000
0101
0000
0101
0001
2000
,
0000
3100
0010
0100
1000
0001
0100
0010
,
0200
0000
0000
0000
0001
0000
0000
0010
0000
0000
0301
0000
0010
0000
0100
0000
,
1000
0100
0000
1000
0100
0000
0010
0000
0002
0000
0000
0000
0100
0000
0000
0000
,
1003
1000
0000
0011
0000
0011
0001
1000
,
0020
0000
0130
1000
0100
0001
1000
0001
,
0020
0000
0000
0000
0100
0000
0000
0001
0000
0000
0130
0000
1000
0000
0001
0000
,
0200
0000
0000
0000
0010
0000
0000
0002
0000
0000
0000
0000
0303
0000
0000
0000
,
0101
0100
0000
1001
0000
1001
0001
0010
,
0100
1000
0100
0000
0010
0000
0001
0000
0100
0000
0010
0000
1000
0000
1000
0000
,
0002
0000
0000
0000
0103
0000
0000
0010
0000
0000
0001
0000
0000
1000
0000
0000
,
0100
0000
0000
0010
0000
0000
1000
0000
0002
0000
0023
0000
0230
0000
2300
0000
,
3002
0000
0000
0000
,
0203
0000
0320
0000
,
2030
0000
0100
0001
,
3020
0100
2030
0001
,
3200
0000
0320
0000
,
0032
0000
0203
0000
,
0320
0000
0032
0000
,
2003
0000
3200
0000
,
0310
1000
0001
1000
,
0100
0001
0100
1000
,
0001
0010
0001
0100
,
0010
1000
0001
0100
,
2000
0000
0000
0000
,
3000
0000
0000
0000
,
0100
0000
0000
0000
,
0002
0000
0000
1003
,
2100
0000
0000
0000
3100
0000
1000
0000
0010
0000
0000
0001
0000
0000
0010
0000
,
0200
0000
0000
0000
0301
0000
1000
0000
0100
0000
0000
0001
0000
0000
0100
0000
,
2000
0000
0000
0000
3010
0000
0100
0000
1000
0000
0000
0001
0000
0000
0020
0000
,
0000
0000
1030
0000
0000
1000
0000
0000
0001
0000
0000
0010
0000
0000
0100
0000
,
1000
0001
0010
0001
1000
0100
0001
0000
,
0100
0000
1000
0000
0000
1000
0000
0000
0001
0000
0000
0100
0000
0000
0010
0000
,
1000
0000
0000
0001
0000
0000
0100
0000
1000
0000
0000
0001
0000
0000
0010
0000
,
0100
0002
0010
1003
,
1002
0000
0103
0010
0100
0001
0000
1001
,
0000
1000
0200
0000
0301
0100
0010
0100
,
2000
0000
3010
0100
0010
1000
0001
0020
,
0000
1030
0010
0001
1000
1000
0001
0001
,
0000
0000
1000
0010
0100
0001
0010
1000
,
0000
0000
1000
0010
0100
0010
0001
1000
,
0010
0100
1000
0100
0010
1000
0001
0010
,
0100
1100
1000
1001
,
0002
0000
0000
0000
0103
0000
0001
0000
0010
0000
0000
0100
0010
0000
0001
0000
,
2000
0000
0000
0000
3100
0000
0010
0000
0001
0000
0000
0100
0010
0000
1000
0000
,
0002
0000
0000
0000
0103
0000
0010
0000
1000
0000
0000
0001
0010
0000
0200
0000
,
0000
0000
1300
0000
0000
0010
0000
0000
0001
0000
0000
1000
0000
0000
0200
0000
,
0000
0000
0301
1000
0100
0001
0100
1000
,
0020
0000
0130
1000
0200
0000
0010
0000
,
0301
1000
0100
0001
1000
0010
0001
0100
,
0010
0001
1000
0100
0010
0100
0002
0000
,
1003
0100
1000
0001
0100
0001
1000
0100
,
0010
0001
0100
0010
1000
0000
1010
0000
,
0010
0100
0010
1000
0100
1000
0001
0100
,
0010
1000
0100
0010
0001
0000
1001
0000
,
2000
0000
3010
0001
0010
1000
0100
0010
,
0002
0000
0013
1000
0010
0001
0100
0010
,
1000
0001
0010
1000
0010
0001
0100
1000
,
0100
0010
0100
0000
0010
0100
0001
0000
1000
0001
1000
0000
0001
0010
0100
0000
,
2000
0000
0000
0000
,
0000
0000
0000
0000
,
3000
0000
0000
0000
;

//--------------- dance-single - GIGAtive ----------------
#NOTES:
     dance-single:
     GIGAtive:
     Hard:
     16:
     0.740355,1.160584,0.379562,0.540146,0.463504,710,658,52,74,4,0,0,0,0,0.740355,1.160584,0.379562,0.540146,0.463504,710,658,52,74,4,0,0,0,0:
0000
0000
0000
0000
,
0000
0000
0000
0000
,
0000
0000
0000
0000
,
0000
0000
0000
0000
,
2100
0000
3010
0100
,
0010
0001
1000
0100
,
0020
0000
1000
0000
,
2030
0000
0002
3003
,
1000
0100
1000
0001
0100
0010
0100
0001
,
1000
0100
0010
0001
1000
0010
0100
0001
,
1000
0010
1000
0001
0010
0100
0010
0001
,
1000
0010
0100
0010
1000
0001
0010
0100
,
2000
0100
0001
0010
,
3002
0100
1000
0010
,
1003
0100
1000
0100
0001
0100
0001
0100
,
0020
0032
0203
0320
0032
2003
3200
0320
,
0030
0000
0101
0000
1000
1020
0000
0001
,
0000
0100
0000
1030
0010
0000
1010
0000
,
0011
0000
1100
0000
0001
0021
0000
1000
,
0000
0100
0000
0031
0010
0000
0100
0000
,
1000
0000
1000
0000
0001
0000
0001
0000
0100
0010
0100
0000
0000
0000
1020
0000
,
0000
0000
0001
0000
0000
0000
0100
0000
0130
0010
0100
0010
1000
0000
0000
0000
,
1001
0000
0011
0000
0100
1200
0000
0001
,
0000
0010
0000
1300
0100
0000
1001
0000
,
0001
0100
0010
0000
0010
0000
1000
0100
0010
0000
0010
0000
0001
0100
0010
1000
,
0001
0000
0010
0000
0001
0000
0000
1000
0100
0000
0001
0000
0100
0000
0010
0000
,
0100
1000
0010
0000
0010
0000
0100
0001
0010
0000
0010
0000
0100
1000
0001
0100
,
0010
0000
0001
0000
0010
0000
0100
0000
0001
0000
1000
0001
1000
0000
1000
0000
,
0001
1000
0100
0000
0100
0000
0010
0001
0100
0000
0100
0000
0001
1000
0100
0010
,
0001
0000
1000
0000
0100
0000
0000
0001
0100
0000
0010
0000
0100
0000
1000
0000
,
0001
0100
0010
0000
0010
0000
1000
0100
0010
0000
0010
0000
0001
0010
0001
1000
,
0020
0032
2003
3200
0320
2030
3002
2003
,
3100
0000
0000
0100
0000
0000
0010
0000
0000
0010
0000
0001
,
0100
0000
0000
0100
0000
0000
0010
0000
0000
0010
0000
1000
,
0100
0000
0000
0100
0000
0000
0010
0000
0000
0010
0000
0100
,
1000
0002
0000
0000
,
1003
0000
1000
0010
0M00
0010
0001
0000
0001
1000
0000
1000
,
0100
00M0
0100
0001
0000
0001
1000
0000
1000
0010
0M00
0010
,
0001
1000
0100
1000
0100
0010
0001
0010
0001
1000
0010
0100
,
0020
0000
0000
1030
,
1010
0000
1010
0000
0000
0000
1001
0000
0000
0000
0011
0000
0001
0000
1000
0100
,
0010
0000
0011
0001
0100
0010
0001
1000
,
0200
0000
0000
0000
1000
0000
0000
0010
0000
0000
0301
0000
1000
0000
0100
0000
,
0001
0000
0000
0000
0201
0000
0000
2000
0000
0000
0000
0000
3300
0000
0000
0000
,
1100
1100
0000
1001
0000
0101
0100
0110
,
0000
1001
0001
1000
0100
0001
1000
0010
,
0200
0000
0000
0000
0001
0000
0000
0010
0000
0000
1300
0000
0001
0000
0100
0000
,
1000
0000
0000
1000
0100
0000
0010
0000
0100
0000
0001
0000
0010
0000
0001
0000
,
0011
0000
0011
0000
0000
0000
1001
0000
0000
0000
1010
0000
1000
0000
0001
0100
,
0010
0000
0110
0100
0001
0010
1000
0001
,
0200
0000
0000
0000
0001
0000
0000
0010
0000
0000
1300
0000
0001
0000
0100
0000
,
1000
0000
0000
0000
1200
0000
0000
0002
0000
0000
0000
0000
0303
0000
0000
0000
,
0101
0101
0000
1001
0000
1100
0100
0110
,
0100
1000
0001
1000
0001
0000
0100
0000
0010
0000
0001
0000
1000
0000
0100
0000
,
0020
0000
0000
0000
0001
0000
0000
0100
0000
0000
1000
0000
0000
0230
0000
0000
,
0001
0000
0000
0010
0000
0000
1300
0000
0100
0010
0100
0010
1000
0001
1000
0001
,
0020
0000
0000
0000
0000
0000
0000
0200
0300
0000
0000
0000
0000
0000
0000
0000
,
0032
0000
2003
0000
,
3020
0000
0000
0000
0130
0010
0100
0001
,
2000
3200
0320
0032
,
0203
0000
0000
0000
0000
0000
0000
0020
0030
0000
0000
0000
0000
0000
0000
0000
,
0302
0000
0000
0000
0000
0000
0000
0020
0030
0000
0000
0000
0000
0000
0000
0000
,
2003
0000
0000
3100
0002
0000
0000
1003
,
0020
0000
0000
0130
2000
0000
0000
0000
,
3001
0000
0100
0000
0010
0000
1000
0001
,
1000
0100
0001
0100
,
0010
0100
1000
0001
,
0100
0010
1000
0001
,
0020
0000
0000
0000
,
0000
0000
0000
0000
,
0130
0000
0000
0000
,
2002
0000
0000
3003
,
1000
0000
0001
0100
0010
0000
0001
0000
0020
0000
0000
0100
0000
0000
1030
0000
,
0001
0000
1000
0100
0010
0000
1000
0000
0020
0000
0000
0100
0000
0000
0031
0000
,
0001
0000
1000
0010
0100
0000
1000
0000
0200
0000
0000
0010
0000
0000
0302
0000
,
1003
0000
0200
0000
0000
0010
0000
0000
0001
0000
0000
0010
0000
0000
1300
0000
,
0001
0000
0001
0000
0100
0000
0100
0000
0010
1000
0010
1000
0001
0000
0010
0000
,
0100
0010
0001
0000
1000
0010
0000
0010
1000
0000
0001
0010
0000
0010
0001
1000
,
0001
0000
0000
1001
0000
0000
1000
0000
1010
0000
0000
0110
0000
0000
0100
0000
,
0101
0000
0001
0100
0010
0001
1000
0100
,
0020
0000
1030
1000
0001
0010
1000
0010
,
0001
0000
0100
0000
0100
0000
1000
0000
0100
0010
0100
0000
0010
1000
0001
0000
,
0002
0000
0013
1000
0010
0001
0100
0100
,
0010
0100
0001
0000
1000
0100
0010
0000
0001
0000
0001
1000
0100
0000
0200
0000
,
0000
0000
0000
0000
1300
0000
1000
0000
0001
0100
0020
0000
0001
0000
0001
0000
,
0000
0000
0000
0000
1030
0000
1000
0000
0001
0010
0200
0000
0001
0000
0301
0000
,
0100
0010
0100
0010
0001
0000
1000
0000
0010
0100
0010
0100
0001
0000
1000
0000
,
1010
1001
0011
1100
,
0100
0000
1000
0000
0001
0100
0010
0100
0020
0000
0000
0001
0000
0000
0100
0000
,
1030
0000
0001
0000
1000
0100
1000
0100
0020
0000
0000
1000
0000
0000
0100
0000
,
0031
0000
1000
0000
0010
0100
0001
0100
0002
0000
0000
1000
0000
0000
0010
0000
,
0013
0000
0011
0000
0000
0001
0000
0000
0101
0000
0000
0100
0000
0000
0110
0000
,
0000
0000
1001
1000
0010
0100
1000
0001
,
0010
0000
0M00
0000
0010
0000
0001
0010
0100
0000
0010
0000
0001
0000
0001
0000
,
0100
0010
1000
0000
0100
0010
0001
0000
1000
0010
0100
0000
0001
0010
0100
0000
,
0010
0001
0100
0000
0010
0100
0010
0100
0001
1000
0001
1000
0002
0000
0000
0000
,
0013
0001
0100
0010
0001
1000
0100
0010
,
1000
1000
0001
0001
0011
0000
1100
0000
,
0100
0001
1000
0010
0100
1000
0001
0100
,
0010
0001
1000
0100
0110
0000
1001
0000
,
0002
0000
1003
1000
0100
0100
0010
0010
,
0002
0000
0103
0100
0010
0010
1000
1000
,
0001
0010
0100
0000
1000
0010
0100
0000
0001
0010
0100
0000
1000
0010
0100
0001
,
1000
0100
1000
0100
0010
0100
0010
0001
1000
0001
0100
0010
1000
0001
0010
0100
,
2000
0000
0000
0000
,
0000
0000
0000
0000
,
3000
0000
0000
0000
;

//--------------- dance-single - GIGAtive ----------------
#NOTES:
     dance-single:
     GIGAtive:
     Challenge:
     18:
     0.985401,1.276642,0.810219,0.452555,0.978102,945,834,111,62,0,0,0,0,0,0.985401,1.276642,0.810219,0.452555,0.978102,945,834,111,62,0,0,0,0,0:
0000
0000
0000
0000
,
0000
0000
0000
0000
,
0000
0000
0000
0000
,
0000
0000
0000
0000
,
0201
0000
0301
1000
,
0010
0001
1000
0100
,
0020
0000
1030
0001
,
2002
0000
3003
0000
,
1000
0000
0100
0010
0100
0000
1000
0000
0001
0000
0100
0000
0010
0000
0100
0000
,
0001
0010
0100
0010
0001
1000
0100
1000
,
0001
0000
0100
0010
0100
0000
0001
0000
1000
0000
0100
0000
0010
0000
0001
0000
,
1000
0010
0100
0010
1000
0001
0010
0100
,
2000
0100
0001
0010
,
3002
0100
1000
0010
,
1003
0100
0010
0100
0001
1000
0010
0100
,
0010
0001
1000
0001
0100
0010
0100
0001
1000
0100
0010
0001
1000
0010
0100
0001
,
1000
0000
1100
0000
0011
1001
0000
1010
,
0000
0101
0000
1010
2001
0000
3100
0000
,
0011
0000
0000
0000
1100
0000
0000
0000
0100
1000
0010
0000
0000
0000
0101
0000
,
0000
1010
0000
0110
0102
0000
1003
0000
,
0011
0000
0001
0000
0100
0000
0100
0000
1000
0100
0010
0000
0000
0000
0110
0000
,
0000
0000
1010
0000
0000
0000
1001
0000
1000
0010
0100
0001
0100
0000
0000
0000
,
1100
0000
1100
0000
1001
0101
0000
0110
,
0000
1010
0000
1001
0011
0000
1100
0000
,
1000
0100
1000
0100
0010
0000
1000
0010
0100
0010
0100
0000
1000
0010
0100
0001
,
1000
0000
0100
0010
0100
0000
0010
0001
0100
0000
0010
0000
0010
0000
0100
0000
,
0001
0100
0001
0100
0010
0000
0001
0010
0100
0010
0100
0000
0001
0010
0100
1000
,
0001
0000
0100
0010
0100
0001
1000
0001
0010
0000
0010
0100
0010
0000
0001
0000
,
0001
0010
0001
0010
0100
0000
0001
0100
0010
0100
0010
0000
0100
1000
0001
0100
,
0010
0000
0100
0010
0100
0000
0001
1000
0100
0000
0010
0100
0010
0000
0001
0000
,
1000
0100
1000
0100
0010
0000
1000
0010
0100
0010
0100
0000
0010
0001
0100
0010
,
1000
0001
0010
0100
1000
0010
0100
0001
0010
0001
1000
0100
0010
0100
1000
0001
,
1000
0000
0000
0010
0000
0000
0001
0000
0000
0010
0000
0100
,
0010
0000
0000
1000
0000
0000
0100
0000
0000
0001
0000
0100
,
0010
0000
0000
0001
0000
0000
0100
0000
0000
1000
0000
0100
,
0010
2000
0000
0000
,
3001
0010
0001
1000
0001
0100
0010
1000
0100
0010
0100
1000
,
0001
0100
0010
1000
0100
0010
0001
0100
0010
1000
0001
0010
,
0100
0010
1000
0001
0100
0010
0100
1000
0001
0100
0010
1000
,
0002
0000
0003
1001
,
1100
0000
1002
0000
0103
0000
1001
0000
0000
0000
0011
0000
0001
1000
0010
0100
,
0010
0000
0000
0000
0201
0000
0310
0000
0101
0000
0100
0010
1000
0001
1000
0100
,
0010
0000
0000
0000
1100
0000
0000
0021
0000
0000
1000
0000
1030
0010
0100
0010
,
0001
0000
0000
0000
0101
0000
0000
0010
2000
0000
0001
0000
0001
0000
3001
0000
,
0011
0000
2001
0000
3010
0000
1001
0000
0000
0000
1100
0000
0100
0010
0001
0100
,
0010
0000
0110
0000
0101
0000
0110
0000
1010
0000
1000
0001
0010
0100
0010
0001
,
1000
0000
0000
0000
1010
0000
0000
0201
0000
0000
1000
0000
1300
0100
0010
0100
,
0001
0100
0000
0100
0001
1000
0100
0010
0001
1000
0010
0100
0001
1000
0001
0010
,
0100
0000
1200
0000
0310
0000
1100
0000
0000
0000
1001
0000
0001
0100
0010
0100
,
1000
0000
0000
0000
1100
0000
0100
0000
0110
0000
0010
0100
0001
1000
0001
0010
,
0100
0000
0000
0000
1100
0000
0000
0021
0000
0000
1000
0000
1030
0010
0100
0010
,
0001
0000
0000
0000
1001
0000
0000
0210
0000
0000
0310
0000
0110
0000
0000
0000
,
1001
0201
0310
0101
0000
1001
1000
0010
,
0001
0010
0100
0010
1000
0001
1000
0100
0010
0000
0100
1000
0100
1000
0001
0100
,
0010
0000
0000
0000
0101
0000
0000
1010
0000
0000
1001
0000
0000
0110
0000
0000
,
1100
0000
0000
0011
0000
0000
1100
0000
0100
1000
0010
0100
0001
0010
0100
1000
,
0020
0000
0000
0000
0000
0000
0000
0200
0300
0000
0000
0000
0000
0000
0000
0000
,
2030
0000
3200
0000
,
0320
0000
0000
0000
0130
1000
0001
0100
,
0020
0032
0023
0230
,
0302
0000
0000
0000
0000
0003
0000
2000
3200
0000
0000
0000
0000
0000
0000
0000
,
0320
0000
0230
0000
,
2300
0000
0000
0000
0000
0000
3010
0100
0002
0000
0000
0000
0000
0000
0013
0100
,
2000
0000
0000
0000
0000
0000
0000
3020
0230
0000
0000
0000
0000
0000
0000
0000
,
0301
0000
0100
0000
1000
0000
0100
0010
,
0100
0001
1000
0000
0100
0000
0001
0000
,
0100
0010
0100
0000
1000
0001
0100
0000
,
0010
0100
0001
0000
1000
0100
0010
0001
,
0021
0000
0000
0000
0000
0000
0031
0100
,
2000
0000
0000
3200
0000
0000
0302
0000
,
2003
0000
3200
0000
,
2300
0000
3000
1001
,
1000
0100
0010
0001
0100
0010
0100
0001
1000
0000
0000
0011
0000
0000
1100
0000
,
1001
0000
0001
0100
0010
1000
0100
0010
0001
0000
0000
1100
0000
0000
0011
0000
,
0001
1000
0100
0010
0100
1000
0001
0100
0010
0000
0000
0101
0000
0000
1010
0000
,
0100
0000
1010
0000
0000
1001
0000
0000
0011
0000
0000
1100
0000
0000
0110
0000
,
0001
0000
0001
0000
0100
0000
0100
0000
0010
0001
0010
0100
0010
0000
1000
0000
,
0100
0010
0100
0000
1000
0010
0000
0001
0010
0000
0100
0010
0000
0100
0001
1000
,
0001
0000
0000
1100
0000
0000
0011
0000
1001
0000
0000
1010
0000
0000
0101
0000
,
1001
0000
0000
0000
1000
0010
0100
0010
0100
0001
0100
0001
0100
0001
0010
0001
,
0010
0000
1200
0310
1100
1001
0000
0201
,
0310
0000
0101
0000
1001
0000
0000
0000
1000
0100
0010
0000
1000
0010
0100
0010
,
0001
0000
1001
0001
0201
0310
0102
1003
,
0001
0010
0100
0000
0001
0100
0010
0100
1000
0000
1000
0010
0100
0000
0020
0000
,
0000
0000
0000
0000
1030
0000
1000
0000
0001
0100
1000
0000
0100
0000
0020
0000
,
0000
0000
0000
0000
1030
0000
1000
0000
0001
0010
1000
0000
0010
0000
0100
0000
,
0010
0001
1000
0001
0100
0010
1000
0100
0010
0001
0100
0010
1000
0001
0010
0100
,
2000
0000
3010
0100
0002
0000
0013
0100
2000
0000
3010
0000
0101
0000
0000
0000
,
0001
0100
0010
1000
0100
0010
0100
1000
0001
0000
0000
1010
0000
0000
0101
0000
,
1001
0000
1000
0100
0010
0001
1000
0010
0100
0000
0000
1010
0000
0000
0101
0000
,
1000
0001
0010
0100
0010
0001
0100
0010
1000
0000
0000
0011
0000
0000
1100
0000
,
0001
0000
0101
0000
0000
1010
0000
0000
0110
0000
0000
1001
0000
0000
1100
0000
,
0000
0000
0000
0000
0001
0010
0001
0100
0010
0100
0001
1000
0100
0010
0001
1000
,
0020
0000
0000
0000
0130
0001
1000
0100
0020
0000
0100
0000
0001
0000
0100
0000
,
0031
1000
0100
0010
0001
0100
0010
1000
0001
0010
0100
0010
0001
1000
0010
0100
,
0001
0010
0100
1000
0010
0100
0001
0010
0100
1000
0010
0100
0001
0010
0001
0010
,
0001
1000
0100
0010
0001
0000
0010
0000
0100
1000
0001
1000
0010
0000
0100
0000
,
0100
0010
1000
0001
1000
0000
0100
0000
0020
0000
0001
0000
0230
0000
0000
0000
,
1300
0010
0100
0001
1000
0000
0010
0000
0100
0001
1000
0100
0010
0000
0001
0000
,
0010
0100
0010
0001
1000
0000
0100
0000
0010
0000
0010
0001
0100
0000
0010
0000
,
0020
0000
0000
0000
1030
0010
0100
0010
1000
0010
0100
0010
1000
0010
0100
0010
,
2000
0000
0000
0000
3001
0010
0100
0010
0001
0010
0100
0010
0001
0010
0100
0010
,
0001
0100
0010
1000
0001
1000
0100
0010
0100
1000
0010
0100
0001
0010
0001
1000
,
0100
1000
0100
1000
0100
0010
0100
0010
0100
0001
0100
0001
1000
0010
0100
0010
,
0002
0000
0000
0000
,
0000
0000
0000
0000
,
0003
0000
0000
0000
;
