#TITLE:We Call It Acieed!;
#SUBTITLE:;
#ARTIST:D-MOB, Gary Haisman;
#TITLETRANSLIT:;
#SUBTITLETRANSLIT:;
#ARTISTTRANSLIT:;
#GENRE:;
#CREDIT:;
#MUSIC:we-call-it-acieed.ogg;
#BANNER:we-call-it-acieed-bn.png;
#BACKGROUND:we-call-it-acieed-bg.png;
#CDTITLE:;
#SAMPLESTART:22.902;
#SAMPLELENGTH:26.830;
#SELECTABLE:YES;
#OFFSET:1.762;
#BPMS:0.000=124.676;
#STOPS:;
#BGCHANGES:2.762=we-call-it-acieed-mv.avi=1.000=1=0=0=StretchNoLoop==CrossFade==,
99999.000=-nosongbg-=1.000=0=0=0=StretchNoLoop====
;
#FGCHANGES:;

//--------------- dance-single - Lye ----------------
#NOTES:
     dance-single:
     Lye:
     Easy:
     3:
     0,0,0,0,0:
0000
0000
0000
0000
,
0000
0000
0000
0000
,
0000
0000
0000
0000
,
0002
0000
0000
0003
,
0020
0000
0000
0030
,
0200
0000
0000
0300
,
2000
0000
0000
3000
,
0010
0000
0100
0000
,
0001
0000
0010
0000
,
0100
0000
0010
0000
,
0001
0000
0100
0001
,
0020
0030
0100
0000
,
2000
3000
0010
0000
,
0200
0300
0001
0000
,
0010
0000
0001
1000
,
0010
0000
1000
0001
,
0010
0000
0100
1000
,
1000
0000
0001
0001
,
0100
0000
0010
1000
,
0001
0000
0100
0010
,
1001
0000
0100
0000
,
2000
0000
3001
0000
,
0020
0000
0130
0000
,
2000
0000
3100
0000
,
0002
0000
0103
0000
,
0020
0000
1030
0000
,
0100
0000
0010
0001
,
0001
0000
0010
0001
,
1000
0000
0010
1000
,
1000
0000
0100
0010
,
0020
0000
0000
0030
,
0200
0000
0000
0300
,
2000
0000
0000
3000
,
0002
0000
0000
0003
,
1000
0010
0010
0000
,
0001
0100
0100
0000
,
0010
1000
0001
0000
,
0001
1000
0010
0000
,
1000
0001
0010
0000
,
0100
0000
1000
0000
,
0110
0000
0001
0000
,
1001
0000
1000
0010
,
0110
0000
0100
0100
,
0001
0000
0010
0000
,
0200
0000
0000
0300
,
0020
0000
0000
0030
,
0002
0000
0000
0003
,
2000
0000
0000
3000
,
0010
0010
1000
1000
,
0001
0001
0100
0100
,
0100
0000
0010
0000
,
1000
0000
0001
0000
,
1000
1000
0100
0100
,
0010
0010
0001
1000
,
0010
0000
0100
0000
,
0010
0000
1000
0000
,
0100
0010
0100
0010
,
0001
1000
0001
1000
,
0010
0100
0010
1000
,
0001
0100
0001
0010
,
0001
0000
1000
0000
,
0010
0000
0100
0000
,
0001
0001
1000
0000
,
0001
0001
1000
0000
,
0010
0000
0100
0000
,
0001
0000
1000
0001
,
2000
0000
0000
3000
,
0002
0000
0000
0003
;

//--------------- dance-single - Lye ----------------
#NOTES:
     dance-single:
     Lye:
     Medium:
     7:
     0,0,0,0,0:
0000
0000
0000
0000
,
0000
0000
0000
0000
,
0000
0000
0000
0000
,
0002
0000
0000
0003
,
0020
0000
0000
0030
,
0200
0000
0000
0300
,
2000
0000
0000
3000
,
0001
0200
0000
0000
0310
0000
0000
0000
,
1000
0020
0000
0000
0130
0000
0000
0000
,
0100
0002
0000
0000
0013
0000
0000
0000
,
0100
2000
0000
0000
3010
0000
0110
0000
,
1000
0002
0000
0000
0103
0000
0101
0000
,
0010
2000
0000
0000
3100
0000
1100
0000
,
0100
0020
0000
0000
0031
0000
1010
0000
,
0010
0000
0001
1001
,
0010
0000
1000
1001
,
0010
0000
0100
1100
,
1000
0010
0100
0101
,
0100
0001
0010
1001
,
0001
0000
0100
0000
0010
0100
0010
0000
,
1002
0000
0013
0000
,
1000
0020
0000
0000
0230
0000
0300
0000
,
0002
1000
0103
0000
,
2000
0001
3100
0000
,
0002
1000
0103
0000
,
0020
1000
1030
0000
,
0100
0000
0010
0011
,
0001
0000
0010
0101
,
0010
0000
1000
1100
,
0010
0000
0001
0110
,
0100
0002
0000
0000
0003
1000
1000
1000
,
1000
0200
0000
0000
0300
0010
0000
0001
,
0001
0200
0000
0000
0000
0000
0300
0000
,
0010
2000
0000
3000
1000
0000
1000
0000
,
1000
0100
1000
0000
0010
0000
0100
0000
,
0001
0010
0100
0000
0100
0000
1100
0000
,
0010
0100
0001
0000
0001
0000
1001
0000
,
0001
0100
0010
0000
1000
0000
1010
0000
,
1000
1000
0001
0000
0010
0000
0110
0000
,
0100
1000
1000
0001
,
1010
0100
0001
1000
,
1001
0000
0010
0000
1000
0000
0100
0010
,
0012
0003
0100
0100
,
0010
0000
1000
0001
,
0100
0020
0000
0000
0030
0100
0100
0100
,
0100
0020
0000
0000
0000
0000
0030
0000
,
1000
0200
0000
0000
0300
0000
0011
0000
,
1000
0002
0000
0000
0000
0000
0003
0000
,
0010
0001
1000
1000
,
0010
0000
0010
0000
0100
0001
0100
0001
,
0100
0100
0010
0000
,
1000
0001
0100
0000
,
0010
1000
0001
0100
,
0010
0000
1000
0000
0001
0010
0001
0010
,
0001
1000
0100
1100
,
0000
0001
0100
0101
,
0100
0100
0010
0000
0100
0000
0010
0000
,
1000
1000
0001
0000
1000
0000
0001
0000
,
0010
0010
0100
0000
1000
0000
0010
0100
,
0001
0100
0001
0010
,
0001
0000
1000
0000
,
0020
0000
0000
0000
0100
0000
1000
0030
,
1001
0001
1000
0000
,
0001
1000
0010
0000
,
0010
0010
0100
0100
,
0001
0000
1000
0000
0001
1000
0001
0000
,
0001
2000
0000
0000
0000
0000
3000
0000
,
0010
0200
0000
0000
0000
0000
0300
0000
;

//--------------- dance-single - Lye ----------------
#NOTES:
     dance-single:
     Lye:
     Hard:
     12:
     0,0,0,0,0:
0000
0000
0000
0000
,
0001
0100
0000
0101
,
0010
1000
0000
1100
,
0001
0002
0000
0000
0000
0000
0003
0000
,
0100
0200
0000
0000
0000
0000
0300
0000
,
0010
0020
0000
0000
0000
0000
0030
0000
,
1000
2000
0000
0000
0000
0000
3000
0000
,
0001
0000
1000
0000
0010
0000
0000
0100
0000
0000
0001
0000
0000
1000
0000
0000
,
0100
0000
1000
0000
0010
0000
0000
0100
0000
0000
0001
0000
0000
0001
0000
0000
,
0100
0000
0010
0000
1000
0000
0000
0100
0000
0000
0010
0000
0000
0100
0000
0000
,
1000
0000
1000
0000
0001
0000
0000
0010
0000
0000
0100
0000
0000
1000
0000
0000
,
1000
0100
1000
0000
0010
0000
0000
0100
0000
0000
1000
0000
0000
0100
0000
0000
,
0010
0100
0001
0000
0010
0000
0000
0100
0000
0000
1000
0000
0000
0010
0000
0000
,
0100
0010
0100
0000
0001
0000
0000
0010
0000
0000
0100
0000
0000
1000
0000
0000
,
0110
0000
0001
1000
0001
0000
1010
0000
,
0010
0000
0100
0001
0100
0000
0011
0000
,
0100
0000
1000
0001
0010
0000
1010
0000
,
1000
0000
0000
0000
0010
0000
0000
0100
0000
0000
0000
0000
0101
0000
0000
0000
,
0100
0001
1000
0000
0010
0000
1010
0000
,
0100
0000
0001
0100
0000
0100
0001
0000
0000
0010
0100
0000
0010
0000
0001
0000
,
0102
0000
0013
0110
,
0100
2000
0000
0000
3000
0100
0100
0010
,
0002
2000
0000
0000
3003
0000
1010
0000
,
1000
0002
0000
0000
0103
0000
1010
0000
,
0100
0020
0000
0000
0000
0030
1000
0000
,
0010
0000
0200
0000
0000
0000
0000
0000
0310
0000
0000
0000
0101
0000
0000
1000
,
0100
0000
0100
0000
0010
0000
0000
0001
0000
0000
0100
0000
1100
0000
0000
0000
,
0010
0000
0100
0000
0001
0000
0000
0010
0000
0000
1000
0000
0101
0000
0000
0000
,
0010
0000
1000
0000
0001
0000
0000
0010
0000
0000
0100
0000
1100
0000
0000
0000
,
0010
0000
0100
0000
0001
0000
0000
0001
0000
0000
1000
0000
1010
0000
0000
0000
,
0100
0000
0001
0000
0100
0000
0000
0010
0000
0000
1000
0000
1000
0000
1000
0000
,
1000
0000
0100
0000
0010
0000
0000
0001
0000
0000
0010
0001
0000
0001
0010
0000
,
0100
0000
1000
0000
0010
0000
0000
0100
0000
0000
0010
0000
1000
0000
0000
0000
,
0010
0000
1000
0000
0001
0000
0000
0000
0100
0001
0000
1000
0010
0000
0100
0000
,
0001
0100
0010
1000
0100
0000
0110
0000
,
0001
0010
0100
0010
0001
0000
1010
0000
,
0010
0100
0001
1000
0001
0000
1100
0000
,
0001
0010
1000
0010
0001
0000
0011
0000
,
1000
0100
0001
0100
1000
0000
0110
0000
,
0100
0000
0100
0010
0000
0010
0001
0000
1000
0001
0000
0000
1010
0000
0000
0000
,
MMM1
0000
0000
0000
0100
0000
0100
0001
0000
0001
1000
0000
1100
0000
0000
0000
,
MM1M
0000
0010
0000
0010
0000
0000
0000
1000
0000
0000
0100
0000
0000
0010
0000
,
MM02
0000
0000
0000
0003
0000
0000
1MM0
0000
0000
001M
0000
0000
M100
0000
0000
,
00M1
0000
0000
0000
0000
0000
0000
001M
0000
0000
0000
0000
0110
0000
0000
0000
,
0100
0000
1000
0000
0010
0000
0000
0100
0000
0000
0001
0000
0001
0000
0001
0000
,
0001
0000
0010
0000
0100
0000
0000
0010
0000
0000
0001
0000
0000
1000
0000
0000
,
1000
0000
0001
0000
0100
0000
0000
0010
0000
0000
1000
0000
1010
0000
0000
0000
,
1000
0000
0001
0000
0100
0000
0000
0010
0000
0000
1000
0000
0101
0000
0000
0000
,
0010
0000
0100
0000
0001
0000
0000
1000
0000
1000
0000
1000
0000
0000
0000
0000
,
0010
0000
0100
0000
0001
0000
0000
0001
0000
0100
0000
0001
0000
0100
0000
0000
,
0010
1000
0100
0010
0001
0000
1010
0000
,
0001
0100
0010
0100
0001
0000
1100
0000
,
0010
0000
0100
0000
0010
0000
0000
0100
0000
0001
0000
0100
0000
0000
0100
0000
,
0010
0000
1000
0000
0010
0000
0000
0100
0000
0001
0000
0010
0000
0001
0000
0000
,
0100
0010
1000
0010
0100
0000
1010
0000
,
0100
0001
1000
0001
0010
0000
1100
0000
,
0100
0000
0100
0000
0010
0000
0000
0100
0000
0010
0000
0010
0001
0000
0000
0000
,
1000
0000
1000
0000
0001
0000
0000
0100
0000
0010
0000
0100
0001
0000
0000
0000
,
0010
0000
0010
0000
0100
0000
0000
1000
0000
0010
0000
0100
0001
0000
0100
0000
,
0010
0000
0100
0000
0001
0000
0000
0010
0000
0100
0000
1000
0010
0000
0100
0000
,
0001
0000
0000
0000
0000
0000
0000
1000
0000
0000
0010
0000
0000
0100
0000
0000
,
0040
0000
0000
0000
,
1030
0100
0010
0001
1000
0000
1100
0000
,
0001
0010
0100
1000
0001
0000
0101
0000
,
0010
0000
0100
0000
0100
0000
0000
0010
0000
0100
0000
0100
0000
0000
0001
0000
,
0001
0000
1000
0000
1000
0000
0000
0010
0000
1000
0000
0001
0000
0100
0000
0000
,
0010
0000
1000
0000
0010
0000
0000
0100
0000
0000
0001
0000
0000
0100
0000
0000
,
0010
0000
1000
0000
0100
0000
0000
0010
0000
0000
0001
0000
0000
0100
0000
0000
;

//--------------- dance-single - Lye ----------------
#NOTES:
     dance-single:
     Lye:
     Challenge:
     14:
     0,0,0,0,0:
0000
0000
0000
0000
,
0001
0000
0000
0000
0100
0000
0000
0001
0100
0000
0000
0000
1010
0000
0000
0000
,
1000
0000
0000
0000
0010
0000
0000
1000
0010
0000
0000
0000
0101
0000
0000
0000
,
0010
0000
0100
0000
1000
0000
0000
0010
1000
0000
0000
0000
0100
0000
0000
0000
,
0100
0000
0010
0000
0001
0000
0000
0100
0001
0000
0000
0000
0010
0000
0000
0000
,
0100
1000
0100
1000
0100
0000
0010
0000
0001
0010
0001
0000
0100
0001
0100
0000
,
0010
1000
0010
1000
0010
0000
0100
0000
0001
0100
0001
0000
1000
0010
1000
0000
,
0001
0100
0001
0000
0010
0000
0000
0100
0000
0000
1000
0000
0000
1000
0000
0000
,
0100
0010
0001
0000
0010
0000
0000
0100
0000
0000
0010
0000
0000
0010
0000
0000
,
0001
0100
0001
0000
1000
0000
0000
1000
0000
0000
0010
0000
0000
0010
0000
0000
,
0100
0001
0100
0000
0001
0000
0000
0010
0000
0000
0100
0000
0000
1000
0000
0000
,
1000
0100
1000
0100
0010
0000
0001
0100
0000
0000
0010
0000
0000
1000
0000
0000
,
0010
0100
0001
0100
0010
0000
1000
0100
0000
0000
0100
0000
0000
0010
0000
0000
,
0100
1000
0100
0010
0001
0000
0100
0010
0000
0000
1000
0000
0000
0001
0000
0000
,
0010
0001
0010
0001
0100
0000
0010
1000
0000
0000
1000
0000
0000
1000
0000
0000
,
0100
0010
0001
0000
0010
0000
0100
0010
0000
0000
0100
0000
0000
1000
0000
0000
,
0100
0010
0001
0000
1000
0000
0010
0100
0000
0001
0010
0000
0100
1000
0000
0000
,
1000
0010
0100
0000
0001
0000
0100
0010
0000
0000
1000
0000
0000
0010
0000
0000
,
0100
0010
1000
0001
0100
0000
0010
0000
1000
0100
0010
0000
0001
0100
0001
0000
,
1000
0000
0100
0001
0000
0100
0001
0000
0000
0010
0100
0000
0010
0000
0001
0000
,
0102
0000
0013
0110
,
0100
1000
0100
0000
0010
0000
0001
0100
0000
0100
0001
0000
0100
0000
0010
0000
,
1000
0100
0010
0000
0100
0000
1000
0100
0000
0100
1000
0000
1010
0000
0000
0000
,
0100
0010
0100
0000
0001
0000
1000
0100
0000
0100
1000
0000
0010
0000
0100
0000
,
0100
0010
1000
0000
0100
0000
0010
0001
0000
0100
0001
0000
0010
1000
0000
0000
,
0010
1000
0100
0000
0010
0000
0010
0001
0000
0010
0100
0000
1000
0100
0000
1000
,
0100
1000
0100
0000
0010
0000
0000
0100
0000
0000
1000
0000
1010
0000
0000
0000
,
0010
0100
0001
0000
0001
0000
0010
0100
0000
0100
1000
0000
0011
0000
0000
0000
,
0010
0100
1000
0000
0001
0000
0100
0001
0000
0001
0010
0000
1100
0000
0000
0000
,
0010
0100
0001
0000
1000
0000
0100
1000
0000
1000
0100
0000
0110
0000
0000
0000
,
0001
0100
0001
0000
0100
0000
0010
1000
0000
1000
0001
0000
0001
0000
0001
0000
,
1000
0100
1000
0000
0010
0000
0100
0001
0000
0000
0010
0001
0000
0001
0010
0000
,
0100
1000
0100
0000
0010
0000
0001
0100
0000
0000
0010
0000
1000
0000
0000
0000
,
0010
0100
0001
0000
0010
0000
0100
1000
0100
0010
0000
0001
0010
0000
0100
0000
,
1000
0100
0010
0100
1000
0000
1000
0000
0010
0100
0001
0100
0000
0010
1000
0000
,
0001
0100
0010
1000
0100
0000
0010
0000
0001
0100
0010
1000
0000
0100
0010
0000
,
0001
0100
0010
0100
0001
0000
1000
0010
0000
0100
0010
0100
0001
0100
0001
0000
,
1000
0100
1000
0100
1000
0000
0010
0100
0001
0010
0001
0010
0001
0100
0001
0000
,
1000
0100
1000
0010
0100
0000
0010
1000
0000
0100
0010
0001
0000
0100
0000
0000
,
0100
0000
0100
0010
0000
0010
1000
0000
1000
0001
0000
0000
0011
0000
0000
0000
,
M1M2
0003
0000
0000
0100
0000
0100
0001
0000
0001
1000
0000
1100
0000
0000
0000
,
2M1M
3000
0010
0000
0010
0000
0100
0000
0001
0000
0000
1000
0000
0000
0100
0000
,
21MM
3000
0000
0000
0000
0000
0000
2MM2
3003
0000
022M
0330
0000
MM22
0033
0000
,
02M2
0303
0000
0000
0M00
0000
0000
002M
0030
0000
1000
0000
0100
1000
0000
0000
,
10M0
0001
0100
0000
0010
0000
0010
1000
0000
1000
0010
0000
0010
0000
0010
0000
,
0010
0100
0001
0000
0100
0000
0010
1000
0000
1000
0100
0000
1000
0100
0000
0000
,
1000
0100
0010
0000
0100
0000
0010
0001
0000
0001
0100
0000
0100
0010
0000
0000
,
1000
0100
1000
0000
0100
0000
0010
0001
0000
0001
0010
0000
0100
1000
0000
0000
,
0010
0000
0100
0000
0001
0000
0001
1000
0000
1000
0000
1000
0000
0000
0010
0100
,
0010
0000
0100
0000
0001
0000
0000
0010
0000
0001
0000
1000
0000
0010
0000
0000
,
0100
0010
1000
0100
0010
0000
0001
0000
0001
0100
0010
1000
0000
0100
1000
0000
,
0001
0010
0001
0010
0100
0000
1000
0000
0010
0100
0001
0010
0000
0001
0010
0000
,
0001
0000
1000
0000
0100
0000
0000
0010
0000
0001
0000
0100
0000
0000
0100
0010
,
1000
0000
0100
0000
0010
0000
0000
0001
0000
0100
0000
0010
0000
1000
0000
0010
,
0100
0010
0100
0010
1000
0000
0010
0000
0100
0010
0100
0010
0100
0001
0100
0000
,
0010
1000
0001
0100
0001
0000
0001
0000
0010
0100
1000
0100
1000
0010
0100
0000
,
0001
0000
0010
0000
0001
0010
0000
0100
0000
0010
0000
0001
1000
0000
0100
0010
,
0100
0000
1000
0000
0010
0100
0000
0001
0000
1000
0000
1000
0010
0000
0100
0001
,
0010
0000
0010
0000
0100
1000
0000
1000
0000
0010
0000
0100
0001
0000
0100
0010
,
0100
0000
0010
0000
1000
0100
0000
0010
0000
0100
0000
1000
0100
0000
0010
0000
,
0022
0033
0000
0000
0000
0000
0000
0000
0000
0000
0000
0000
0000
0000
2200
3300
0000
0000
0000
0000
0220
0330
0000
0000
0000
0000
0202
0303
0000
0000
0000
0000
,
0010
0001
0010
0001
0010
0001
0010
0001
1000
0100
1000
0100
1000
0100
1000
0100
,
1000
0100
0010
0001
0100
0010
1010
0000
,
0001
0010
0100
1000
0001
0010
0110
0000
,
0010
0000
0001
0000
0100
0000
0000
0010
0000
1000
0000
0100
0000
0000
1000
0010
,
0100
0000
0001
0000
0010
0000
0000
0010
0000
0001
0000
0100
0000
0100
0000
0001
,
0010
0001
1000
0100
0010
0000
0001
0100
0000
0000
0001
0000
0000
0001
0000
0000
,
0100
0010
1000
0000
0100
0000
0100
0010
0000
0000
0001
0000
0000
0100
0000
0000
;
