#TITLE:Unmei;
#SUBTITLE:;
#ARTIST:Sumika;
#TITLETRANSLIT:;
#SUBTITLETRANSLIT:;
#ARTISTTRANSLIT:;
#GENRE:;
#CREDIT:Lye;
#MUSIC:unmei.ogg;
#BANNER:unmei-bn.png;
#BACKGROUND:unmei-bg.png;
#CDTITLE:;
#SAMPLESTART:4.840;
#SAMPLELENGTH:18.642;
#SELECTABLE:YES;
#OFFSET:-0.524;
#BPMS:0.000=194.640
,16.000=146.000
,48.000=194.640
,66.000=146.000
,98.000=73.000
,116.000=146.000
,184.000=194.640
;
#STOPS:;
#DISPLAYBPM:146.000:194.640;
#BGCHANGES:-1.524=unmei.avi=1.000=1=0=0=StretchNoLoop==CrossFade==,
99999.000=-nosongbg-=1.000=0=0=0=StretchNoLoop====
;
#FGCHANGES:;

//--------------- dance-single - Lye ----------------
#NOTES:
     dance-single:
     Lye:
     Easy:
     5:
     0,0,0,0,0:
0000
0000
0000
0000
,
0000
0000
2000
3200
,
0320
0032
0000
0000
,
0000
0000
0000
0003
,
2000
3000
0001
0000
,
0010
0001
0100
0000
,
0020
0030
2000
3000
0020
0030
0000
0000
,
0100
0001
0010
0000
,
0200
0300
1000
0000
,
0010
1000
0001
0000
,
0200
0300
0020
0030
2000
3000
0000
0000
,
1000
0001
0100
0010
,
0200
0000
0000
0300
0000
0000
0000
0000
0100
0000
0000
0000
,
0020
0000
0030
0000
0000
0000
0000
0000
1000
0000
0000
0000
,
0000
0000
0002
0000
0003
0000
0000
0000
0000
0000
0100
0000
,
0000
0000
0020
0000
0030
0000
0000
0000
0000
0000
1000
0000
,
0000
0000
0020
0030
,
0100
0000
0001
0001
,
1000
0000
0000
0000
0200
0300
2000
3000
,
0020
0030
0000
0000
0100
0000
0001
0000
,
0001
0000
0020
0030
,
0100
0000
1000
0001
,
0100
0000
0000
0000
0020
0030
2000
3000
,
0002
0003
0000
0000
0100
0000
0010
0000
,
1000
0000
0000
0000
0200
0300
2000
3000
,
0020
0030
0200
0300
0002
0003
0020
0030
,
0200
0300
1000
1000
2000
3000
0020
0030
,
0200
0300
0002
0003
0100
0100
0010
0010
,
2000
0000
0000
0000
3000
0000
0000
0002
0000
0000
0000
0003
0000
0000
0000
0000
,
0200
0000
0310
0000
,
0100
0010
1000
0000
,
1000
0010
0100
0001
,
0100
0000
0010
0000
2000
3000
0000
0000
,
0200
0000
0300
0000
0020
0030
0000
0000
,
0001
0100
0010
0000
,
0010
0100
0100
0001
,
0020
0000
0000
0030
0000
1001
0000
0000
,
0200
0300
0100
0000
,
0010
1000
0001
0000
,
0010
0001
1000
0000
,
0100
1000
0100
0000
,
0020
0030
0001
0000
,
0010
0100
1000
0000
,
0010
0100
0100
0010
,
2000
3000
0000
0100
,
0010
0000
1000
0001
,
0200
0000
0000
0300
0000
0000
0000
0000
0010
0000
0000
0000
,
0010
0000
0000
0000
0000
0000
0000
0000
0100
0000
0000
0000
,
0000
0000
0001
0000
0000
0000
0000
0000
0000
0000
1000
0000
,
0000
0000
0010
0000
0000
0000
0000
0000
0000
0000
1000
0000
,
0000
0000
0010
0000
0000
0000
0200
0000
0000
0000
0000
0000
,
0000
0000
0000
0300
;

//--------------- dance-single - Lye ----------------
#NOTES:
     dance-single:
     Lye:
     Medium:
     9:
     0,0,0,0,0:
0000
0000
0000
0000
,
0000
0000
0200
2300
,
3002
0023
0000
0000
,
0000
0000
0000
0030
,
1002
0000
0003
1000
0100
1000
0000
0010
,
0100
0000
0001
0000
0100
0000
0001
0010
,
0100
0000
1100
0000
1010
0000
0100
0010
,
1000
0001
0011
1001
,
0200
0000
0300
0010
1000
0020
0030
0100
,
0010
0000
1000
0000
0100
0000
1000
0001
,
0100
0000
0110
0000
0101
0000
0100
0010
,
1000
0001
0110
1010
,
0102
0000
0000
0103
0000
0000
0000
0000
0100
0000
0100
0000
,
0020
0000
0030
1000
0000
0000
0000
0000
0100
0000
1000
0000
,
1000
0000
0020
0000
0030
0100
0000
0000
0000
0000
0100
0000
,
0010
0000
2000
0000
3000
0100
0000
0000
0000
0000
0010
0000
,
0001
0000
0000
0000
0010
0000
0000
0000
0001
0000
0000
0000
0020
0000
0000
0000
0000
0000
0030
0000
0000
0100
0000
0000
,
1000
1000
0000
0010
0100
0000
0001
0000
,
1000
0000
0010
0100
0101
0000
1001
0000
,
0011
0000
0010
0100
1000
0000
1000
0000
,
0010
0000
0100
0000
0002
0000
0003
0010
,
0001
1000
0000
0010
0100
0000
0002
0003
,
2000
3000
0010
0000
0101
0000
1010
0000
,
1100
0000
0100
0010
0001
0000
0001
0000
,
2000
3000
0020
0030
0200
0300
0002
0003
,
0020
0030
0200
0300
0002
0003
0020
0030
,
0200
0000
0300
0000
2000
3000
0020
0030
0200
0000
0300
0000
0002
0000
0003
0000
,
0020
0030
1200
0300
0010
0100
0001
0010
,
0001
0100
0001
0100
0000
0000
0000
0010
1000
0010
1000
0020
0000
0000
0000
0000
,
0230
0000
0000
0000
0302
0000
0003
0010
,
0100
0000
0010
0000
0002
0003
0000
1000
,
0010
0010
0100
0010
,
1000
0000
0100
0000
2000
3000
0000
0000
,
0200
0000
0300
0000
0020
0030
0000
0001
,
0010
0100
1000
0010
,
0010
0100
0100
0001
,
0020
0000
0000
0030
0000
1001
0000
0000
,
0200
0000
0300
0000
0100
0000
0000
0010
,
1000
0000
1000
0000
0100
0000
0000
0010
,
0001
0000
0001
0000
0010
0100
0010
0000
,
0001
1000
0010
0100
,
0020
0000
0030
0000
1000
0000
0000
0100
,
0010
0100
1000
0010
,
0100
0001
0001
1000
,
0020
0030
0000
0100
,
0010
1000
1000
0001
,
0200
0000
0000
0300
0000
0000
0000
0000
0001
0000
0001
0000
,
0010
0000
0000
0100
0000
0000
0000
0000
0100
0000
0100
0000
,
1000
0000
0010
0000
0000
0100
0000
0000
0000
0000
0001
0000
,
0010
0000
0010
0000
0000
0100
0000
0000
0000
0000
1000
0000
,
0100
0000
0010
0000
0001
0000
0200
0000
0000
0000
0000
0000
,
0000
0000
0000
0300
;

//--------------- dance-single - Lye ----------------
#NOTES:
     dance-single:
     Lye:
     Hard:
     12:
     0,0,0,0,0:
1000
0000
0000
0001
0000
0010
0000
0010
0001
0000
0100
0000
,
0010
0100
0001
1000
0000
0000
0020
0000
0000
0230
0000
0000
,
0302
2000
0000
0000
,
0000
0000
0000
3003
,
0120
0000
0030
1000
0100
0010
0000
0100
,
1000
0001
0010
0001
0100
0000
1000
0010
,
1010
0000
0011
0000
0101
0000
0100
0010
,
1000
0100
1000
0001
0101
0000
1010
0000
,
0200
0000
0300
0010
0001
0020
0030
0100
,
0010
1000
0010
0100
0010
0000
1000
0001
,
0100
0000
0110
0000
1010
0000
0100
1000
,
0010
0100
0001
1000
0110
0000
1010
0000
,
0102
0000
1000
0103
0000
0010
0000
0001
0100
0000
0100
0000
,
0020
0000
0030
1000
0000
0100
0000
0010
0100
0000
1000
0000
,
0010
0000
0200
0000
0300
0001
0000
0001
0000
0100
0010
0000
,
1000
0000
0200
0000
0300
0010
0000
0001
0000
0100
0001
0000
,
1000
0000
0000
0000
0010
0000
0000
0000
0100
0000
0000
0000
0002
0000
0000
0000
0000
0000
0003
0000
0000
1000
0000
0000
,
0100
1000
0000
0010
0100
0001
1010
0000
,
1100
0000
0010
0100
0101
0000
1001
0000
,
0011
0000
0010
0100
1000
0100
1000
0010
,
0110
0000
0101
0000
2010
0000
3000
0010
,
1000
0100
0000
0100
0010
0100
2000
3000
,
0002
0003
0100
0001
0101
0000
1010
0000
,
1100
0000
0100
0010
0001
0100
0001
0010
,
0200
0300
2000
3000
0020
0030
0200
0300
,
0002
0000
0000
0000
0003
0000
0000
0000
0200
0000
0000
0000
0300
0000
0010
1000
0002
0000
0000
0000
0003
0000
0100
0000
0020
0000
0000
0000
0030
0000
0000
0000
,
2000
3000
0100
0010
0200
0300
0020
0030
,
0002
0000
0003
0000
0200
0000
0300
0000
0010
1000
0100
0000
0010
0001
0100
0000
,
0001
1000
0010
0200
0300
0001
0001
1000
1000
0100
0010
0002
2003
0000
0000
0000
,
3002
0000
0000
0000
0203
0000
0300
0010
,
1000
0000
0001
0100
0002
0003
0000
1000
,
0010
0000
0010
0100
0001
0100
0010
0000
,
1000
0000
0100
0010
0002
0003
0000
0000
,
0020
0000
0030
0000
0200
0300
0000
1000
,
0010
0000
0100
0001
0100
0000
0001
0000
,
0010
0100
0100
1000
,
0020
0000
0000
0030
0000
MMMM
0000
0000
,
0200
0000
0300
0000
0100
0000
0000
0010
,
1000
0000
1000
0010
0100
0000
0000
0010
,
1000
0000
0001
0100
0010
0010
0100
0100
,
0010
1000
0100
0010
0001
0000
0100
0000
,
0020
0000
0030
0000
1000
0000
0000
0001
,
0200
0300
0010
0100
0001
0000
0010
0000
,
0100
1000
1000
0010
,
2000
3000
0000
0001
,
0100
0100
0010
1000
,
0200
0000
0000
0310
0000
0001
0000
0010
0001
0000
1000
0000
,
0100
0000
0000
0010
0000
0100
0000
1000
0001
0000
0100
0000
,
0010
0000
0100
0000
0000
0001
0000
0010
0000
0100
1000
0000
,
0010
0000
0100
0000
0000
0100
0000
0010
0000
1000
0001
0000
,
0100
0000
0010
0000
1000
0000
0102
0000
0000
0000
0000
0000
,
0000
0000
0000
0000
0000
0000
0000
0000
0000
0003
1000
0000
;

//--------------- dance-single - Lye ----------------
#NOTES:
     dance-single:
     Lye:
     Challenge:
     15:
     0,0,0,0,0:
0001
0000
0000
0100
0000
0010
0000
0010
1000
0000
1000
0000
,
0100
0010
0001
1000
0000
0000
0020
0000
0000
0230
0000
0000
,
0302
0000
0000
0000
0000
0000
2000
0000
0000
0000
0000
0000
0000
0000
0000
0000
0000
0003
0000
0000
0000
0000
0001
0000
,
3001
0000
0000
0100
0100
0000
0000
0010
0010
0000
0000
0000
,
0120
0000
0000
0000
1030
0000
1000
0000
0001
0010
0100
0000
1000
0001
0100
0000
,
0010
0000
1000
0000
0010
0000
0100
0000
0100
0010
1000
0001
0010
0100
1000
0001
,
0020
0030
0001
0000
0200
0300
0010
0000
2000
3000
0000
0010
0100
0000
0010
0000
,
1000
0010
0100
0010
1000
0001
0100
0000
0001
0010
0100
0000
1000
0100
0000
0000
,
0020
0030
0001
0010
0001
0010
0001
0010
0100
0000
2000
0000
3000
0010
0100
0001
,
0010
0000
0001
0000
0010
0000
0100
0000
0010
0100
1000
0001
0010
0100
1000
0010
,
0200
0000
0300
0000
0001
0000
0000
0000
0200
0000
0310
0000
0000
0000
0000
0000
2000
0000
3000
0000
0001
0000
0000
0000
0100
0001
0100
0001
0100
0000
0000
0000
,
0002
0100
0100
0010
0013
0001
0100
0000
,
1020
0000
1030
0100
0000
0010
0000
0001
0100
0000
0100
0000
,
0120
0000
0030
1000
0000
0001
0000
0010
0001
0000
0100
0000
,
0010
0000
2010
0000
3000
0100
0000
0010
0000
0001
0100
0000
,
0010
0000
0210
0000
0300
0010
0000
0100
0000
0100
0001
0000
,
1000
0000
0000
0000
0010
0000
0000
0000
0100
0000
0000
0000
0102
0000
0000
0000
0000
0000
1003
0000
0000
1000
0000
0000
,
0100
0000
1000
0010
0000
0010
1000
0100
0010
0000
0001
0000
0010
0001
0100
0000
,
0010
0000
1000
0000
0010
0000
0100
0000
2020
3030
0000
0000
2002
3003
0000
0000
,
0022
0033
0100
0000
0010
0000
0100
0000
1000
0000
0100
0000
0010
0001
0100
0000
,
0100
0001
1000
0000
0001
0010
0000
0000
2010
0000
0001
0000
3001
0010
0100
0000
,
1000
0100
1000
0000
0100
0010
0100
0010
0001
0000
0100
0000
0010
1000
0010
0000
,
0100
0000
0001
0000
0100
0000
0001
0000
0202
0303
1000
0000
2020
3030
0010
0000
,
2200
3300
0000
0000
0100
0000
0010
0000
0001
0000
0100
0000
0010
1000
0010
0000
,
0100
0001
0000
0000
1000
0100
0000
0000
0020
0000
0030
0000
0002
0000
0003
0000
,
0200
0000
0000
0000
0300
0000
0010
0000
2000
0000
0000
0000
3000
0000
0010
1000
0002
0000
0003
0000
0000
0000
0100
0000
0020
0000
0030
0000
1000
0000
1000
0000
,
0002
0103
0010
0100
0020
0130
0002
0013
0200
1300
0010
0100
0002
0013
0100
1000
,
0020
0000
0130
0000
0010
0000
0000
0000
0201
0000
0000
0000
0300
0000
0000
0000
0010
0000
1000
0000
0100
0001
0010
0000
0010
0000
0001
0100
0010
0000
1000
0000
,
0002
0000
2003
0000
3020
0000
0230
0000
0300
0000
0001
0000
0001
0000
1000
0000
2000
0000
3200
0000
0320
0000
0032
0000
2003
0000
0000
0000
0000
0000
0001
0010
,
3002
0000
0000
1000
0203
0300
0000
1000
,
0020
0030
0100
0001
0010
0100
1000
1000
,
0020
0030
0010
0100
0001
0100
0010
0000
,
1000
0000
1000
0001
0100
0000
0010
0100
1000
0000
1000
0010
0100
0000
0001
0100
,
0020
0000
0030
0000
2000
3000
0000
0100
,
1000
0000
0100
0010
0001
1000
0001
0100
,
0010
0000
0000
0001
0100
0000
0000
0100
0010
0000
0000
0010
1000
0000
0000
0000
,
0020
0100
0100
0130
0000
MMMM
0000
0000
,
0200
0000
0301
0001
0100
0000
0010
0010
,
1000
0000
1000
0100
0010
0001
0001
0010
,
0100
0000
0010
0100
0001
0001
0100
0100
,
0010
0000
1000
0000
0100
1000
0010
0000
0100
0010
0100
0001
1000
0010
0100
0001
,
0020
0000
0030
0000
0001
0000
0100
0010
,
2000
3000
0010
0100
0001
0001
0010
0100
,
0100
0000
1000
0100
1000
0000
0010
0001
,
2000
3200
0320
0032
,
0223
0000
0000
0000
0330
0000
0000
0000
2020
0000
0000
3030
0000
0000
0000
0000
,
0200
0000
0000
0310
0000
0001
0000
0010
0001
0000
1000
0000
,
0010
0000
0000
0010
0000
0100
0000
0001
1000
0000
0100
0000
,
0010
0000
0100
0000
0000
1000
0000
0010
0000
0100
0001
0000
,
0001
0000
0010
0000
0000
0100
0000
0010
0000
0001
1000
0000
,
0010
0000
0100
0000
0001
0000
1020
0000
0000
0000
0000
0000
,
0000
0000
0000
0000
0000
0000
0000
0000
0000
0030
1000
0000
,
1000
0000
0000
0000
;
