#TITLE:UUU;
#SUBTITLE:;
#ARTIST:KUMO 99;
#TITLETRANSLIT:;
#SUBTITLETRANSLIT:;
#ARTISTTRANSLIT:;
#GENRE:;
#CREDIT:;
#MUSIC:UUU.ogg;
#BANNER:uu-bn.png;
#BACKGROUND:uuu-bg.png;
#CDTITLE:;
#SAMPLESTART:50.439;
#SAMPLELENGTH:20.000;
#SELECTABLE:YES;
#OFFSET:1.735;
#BPMS:0.000=138.000
,86.000=69.000
,102.000=138.000
,198.000=69.000
,202.000=138.000
,266.000=69.000
;
#STOPS:52.000=0.870;
#BGCHANGES:;
#FGCHANGES:;

//--------------- dance-single - Lye ----------------
#NOTES:
     dance-single:
     Lye:
     Easy:
     5:
     0,0,0,0,0:
0000
0000
0000
0000
,
0000
0000
0000
0000
,
0000
0000
0000
0000
,
0000
0000
0000
0000
,
0000
0000
0000
0000
,
0000
0000
0000
0000
,
0001
0000
0000
0000
,
1000
0000
0000
0100
,
0010
0000
0000
0000
,
0001
0000
0000
0100
,
0001
0000
0000
0000
,
1000
0000
0000
0010
,
0020
0000
0000
0000
,
0030
0000
1000
0000
0020
0030
1000
0000
,
0100
0010
0001
0000
,
1000
0000
1000
0000
0020
0030
0100
0000
,
0001
0010
0100
0000
,
1000
0000
0010
0000
0200
0300
0001
0000
,
0010
0010
0100
0000
,
1000
0000
0010
0000
0200
0300
0010
0000
,
1000
0001
0010
0000
,
0100
0000
0000
0000
0000
0000
0000
0000
0010
0000
0000
0000
0000
0000
0000
0000
0220
0330
0000
0000
0000
0000
0000
0000
0000
0000
0000
0000
0000
0000
0000
0000
,
0202
0303
0000
0000
0220
0330
0000
0000
0000
0000
0000
0000
0000
0000
0000
0000
2002
3003
0000
0000
0000
0000
0000
0000
0000
0000
0000
0000
0000
0000
0000
0000
,
0220
0330
0000
0000
0022
0033
0000
0000
0000
0000
0000
0000
0000
0000
0000
0000
2020
3030
0000
0000
0000
0000
0000
0000
0000
0000
0000
0000
0000
0000
0000
0000
,
0220
0330
0000
0000
2020
3030
0000
0000
0000
0000
0000
0000
0020
0030
0000
0000
0200
0300
0000
0000
0000
0000
0000
0000
0000
0000
0000
0000
0000
0000
0000
0000
,
0202
0303
0000
0000
2200
3300
0000
0000
2000
3000
0000
0000
0200
0300
0000
0000
0020
0000
0000
0000
0030
0000
0000
0000
0001
0000
0000
0000
0000
0000
0000
0000
,
0001
0010
0100
0000
,
1000
0000
0010
0000
0200
0300
0001
0000
,
0001
0100
0001
0000
,
0100
0000
0001
0000
0020
0030
0100
0000
,
0010
0001
1000
0000
,
0010
0000
0010
0000
0200
0300
0001
0000
,
0010
0100
0100
0000
,
1000
0010
0110
0000
,
0110
0000
0110
0000
,
0110
0000
0101
0000
,
0101
0000
0101
0000
,
0101
0000
0011
0000
,
0011
0000
0011
0000
,
1100
0000
0110
0000
,
1001
0000
1100
1001
,
0001
0000
1000
0000
0020
0000
0000
0030
,
2000
0000
0000
3000
0200
0000
0000
0000
,
0000
0000
1000
0300
0020
0000
0000
0030
,
0200
0000
0000
0300
0002
0000
0000
0000
,
0000
0000
0100
0003
0020
0000
0000
0030
,
2000
0000
0000
3000
0200
0000
0000
0000
,
0000
0000
0000
0000
0010
0000
0300
0000
0020
0000
0000
0000
0000
0030
0000
0000
,
0002
0000
0000
0003
0200
0000
0000
0000
,
0000
0000
0000
0000
0000
0000
0000
0000
0300
0000
0000
0000
0000
0000
0000
0000
0020
0030
0000
0000
0020
0030
0000
0000
0200
0300
0000
0000
0000
0000
0000
0000
,
0002
0003
0000
0000
0002
0003
0000
0000
0002
0003
0000
0000
0002
0003
0000
0000
0100
0000
0000
0000
0000
0000
0000
0000
0001
0000
0000
0000
0000
0000
0000
0000
,
0010
0010
0100
0000
,
1000
0000
0010
0000
0200
0300
0001
0000
,
0010
0100
1000
0000
,
0010
0000
0100
0000
0002
0003
0100
0000
,
0010
0100
0001
0000
,
0010
0000
0010
0000
0002
0003
1000
0000
,
1000
0010
0100
0000
,
0100
0000
0001
0000
0002
0003
0100
0000
,
0100
0000
0020
0030
1000
0000
1000
0000
,
0100
0000
0020
0030
0002
0003
0100
0000
,
0010
0000
0020
0030
1000
0000
0000
0000
,
0001
0000
0200
0300
0002
0003
0100
0000
,
0010
0000
2000
3000
0100
0000
0000
0000
,
1000
0000
0002
0003
0200
0300
0010
0000
,
1000
0000
0200
0300
0010
0000
0000
0000
,
0010
0000
0000
0000
0000
0000
0000
0000
0200
0000
0000
0000
0300
0000
0000
0000
2000
3000
0000
0000
0000
0000
0000
0000
0002
0003
0000
0000
0000
0000
0000
0000
,
0200
0300
0000
0000
0000
0000
0000
0000
0020
0030
0000
0000
0000
0000
0000
0000
2000
0000
0000
0000
0000
0000
0000
0000
0000
0000
0000
0000
0000
0000
0000
0000
,
0000
0000
3000
0000
;

//--------------- dance-single - Lye ----------------
#NOTES:
     dance-single:
     Lye:
     Medium:
     9:
     0,0,0,0,0:
0000
0000
0000
0000
,
0000
0000
0000
0000
,
0000
0000
0000
0000
,
0000
0000
0000
0000
,
0000
0000
0000
0000
,
0000
0000
0000
0000
,
0001
0000
0000
0100
0000
0000
0000
0010
,
0000
0000
0000
1000
0000
0000
0100
0000
,
0010
0000
0000
0001
0000
0000
0000
0100
,
0000
0000
0000
0001
0000
0000
0010
0000
,
0100
0000
0000
0010
0000
0000
0000
0100
,
0000
0000
0000
1000
0000
0000
0010
0000
,
0120
0000
0000
1000
0000
0000
0000
0100
,
0030
0000
1000
0000
0020
0030
1000
0010
,
1000
0000
0010
0100
0001
0000
0100
0010
,
0000
1000
0010
0000
0020
0030
1000
0001
,
0010
0000
0100
0100
0010
0000
0100
0000
,
1000
0100
0010
0000
0200
0300
1000
0100
,
0010
0000
0010
0100
1000
0000
0010
0100
,
0000
0100
0010
0000
0200
0300
0001
0001
,
0010
0000
0001
0100
0010
0000
0010
0000
,
1000
0000
0000
0000
0010
0000
0000
0000
0100
0000
0000
0000
0000
0000
0000
0000
2020
3030
0000
0000
0000
0000
0000
0000
0010
0000
0000
0000
0100
0000
0000
0000
,
0202
0303
0000
0000
2200
3300
0000
0000
0000
0000
0000
0000
0001
0000
0000
0000
0022
0033
0000
0000
0000
0000
0000
0000
0010
0000
0000
0000
0000
0000
0000
0000
,
2020
3030
0000
0000
0220
0330
0000
0000
0000
0000
0000
0000
0100
0000
0000
0000
0022
0033
0000
0000
0000
0000
0000
0000
0010
0000
0000
0000
0000
0000
0000
0000
,
0220
0330
0000
0000
2200
3300
0000
0000
0000
0000
0000
0000
0200
0300
0020
0030
0002
0003
0000
0000
0000
0000
0000
0000
0001
0000
0000
0000
0010
0000
0000
0000
,
2200
3300
0000
0000
0022
0033
0000
0000
0002
0003
0002
0003
0200
0300
0000
0000
1010
0000
0000
0000
0000
0000
0000
0000
0100
0000
0000
0000
0100
0000
0000
0000
,
0001
0000
0010
0100
1000
0000
0001
0100
,
0000
0010
0100
0000
0002
0003
0100
0010
,
0000
0010
0100
0000
1000
0000
0100
0010
,
0001
0000
0001
0001
0020
0030
0100
0000
,
0010
0001
1000
0000
0010
0100
0001
1000
,
0000
1000
0010
0000
2000
3000
0010
0000
,
0100
0001
0010
0000
0010
0000
0100
1000
,
0000
1000
0010
0000
0110
0000
0001
0000
,
0110
0001
0110
0001
,
0110
0001
1100
0010
,
1100
0010
1100
0010
,
1100
0010
0101
0010
,
0101
0010
0101
0010
,
0101
0010
0110
1000
,
1100
0001
1100
0011
,
0001
0000
0001
0000
1010
0000
0000
0000
0020
0000
0030
0000
1000
0000
0000
0010
,
0000
0100
0001
0000
0010
0000
0100
0100
,
0000
0000
1000
0000
0100
0000
0000
0000
0020
0000
0030
0000
0001
0000
0000
1000
,
0000
0010
0100
0000
0010
0100
0001
0000
,
1000
0000
1000
0000
0100
0000
0000
0000
0020
0000
0030
0000
0001
0000
0000
0100
,
0000
0010
1000
0000
1000
0010
0000
0100
,
0010
0000
0000
0000
1000
0000
0000
0000
0100
0000
0000
0000
0010
0000
0000
0001
,
0000
0010
0100
0000
0100
0010
0000
0001
,
1000
0000
0000
0000
0010
0000
0000
0000
1000
0000
0000
0000
0000
0000
0000
0000
2000
0000
0000
3000
0020
0000
0030
2000
0000
0000
0000
0000
3000
0000
0000
0000
,
0002
0000
0003
0020
0000
0030
0002
0000
0003
2000
0000
3000
0200
0000
0300
0000
0021
0000
0000
0000
0000
0000
0030
0000
0001
0000
0000
0000
0000
0000
0000
0000
,
0010
0010
0100
0000
1000
0010
0000
1000
,
0100
0000
0010
0000
0002
0003
0100
0000
,
0010
1000
1000
0000
0100
0010
0000
0010
,
0001
0001
0100
0000
0002
0003
0100
0000
,
0010
0100
0010
0000
1000
0010
0000
0100
,
0001
0000
0010
0010
0200
0300
1000
0000
,
0100
0010
0010
0000
0100
1000
0000
0010
,
0100
0000
0001
0010
0002
0003
1000
0000
,
0100
0000
0022
0033
1000
0100
0000
0001
,
0100
0000
0220
0330
2000
3000
0100
0000
,
0010
0000
2200
3300
0001
0010
0000
0010
,
0001
0000
0220
0330
0002
0003
0100
0000
,
0010
0000
2020
3030
0100
0010
0000
1000
,
0100
0000
0022
0033
0200
0300
1000
0000
,
0010
0000
0202
0303
0001
0100
0000
1000
,
0010
0000
0000
0000
0000
0000
0000
0000
0220
0000
0000
0000
0330
0000
0000
0000
0002
0003
0000
0000
0020
0030
0000
0000
0002
0003
0000
0000
0000
0000
0000
0000
,
2000
3000
0000
0000
0000
0000
0000
0000
0200
0300
0000
0000
0020
0030
0000
0000
0021
0000
0000
0000
0000
0000
0000
0000
0000
0000
0000
0000
0000
0000
0000
0000
,
0000
0000
0030
0000
;

//--------------- dance-single - Lye ----------------
#NOTES:
     dance-single:
     Lye:
     Hard:
     13:
     0,0,0,0,0:
0000
0000
0000
0000
,
0000
0000
0000
0000
,
0000
0000
0000
0000
,
0000
0000
0000
0000
,
0000
0000
0000
0000
,
0000
0000
0000
0000
,
1010
0000
0000
1000
0000
0000
0000
0001
,
0000
0000
0000
0010
0000
0000
0010
0000
,
0110
0000
0000
1000
0000
0000
0000
0010
,
0000
0000
0000
0010
0000
0000
0100
0000
,
0101
0000
0000
0001
0000
0000
0000
0010
,
0000
0000
0000
0100
0000
0000
1000
0000
,
2100
0000
0000
0001
0000
0000
0000
0010
,
3000
0000
0000
0000
1000
0000
1000
0000
0002
0000
0003
0000
0001
0000
0010
0100
,
0000
0000
1000
0000
0000
0010
0100
0000
0001
0000
0000
0000
0001
0000
0010
0100
,
0000
0100
0010
0000
0001
0000
0010
0000
0200
0000
0300
0000
1000
0000
0001
0100
,
0000
0000
0010
0000
0000
1000
0100
0000
0010
0000
0000
0000
0100
0000
0000
1000
,
0001
0000
0100
0000
0001
1000
0100
0000
0020
0000
0030
0000
0001
0000
0010
0100
,
0000
0000
1000
0000
0000
0010
1000
0000
0100
0000
0000
0000
0010
0000
0001
0100
,
0000
0100
0010
0000
1000
0100
1000
0000
0020
0000
0030
0000
1000
0000
0010
0100
,
0000
0000
0001
0000
0000
0010
0100
0000
1000
0000
0000
0000
1000
0000
0000
0010
,
0100
0000
0000
0000
0001
0000
0000
0000
0100
0000
0010
0000
1000
0000
0000
0000
2200
3300
0000
0000
0000
0000
0100
0000
0010
0000
0001
0000
0100
0000
0000
0000
,
2020
3030
0000
0000
2200
3300
0000
0000
0000
0000
0001
0000
0010
0000
0000
0000
0202
0303
0000
0000
0000
0000
0100
0000
0010
0000
0100
0000
0001
0000
0000
0000
,
2020
3030
0000
0000
0022
0033
0000
0000
0000
0000
0000
0000
0100
0000
0000
0000
2200
3300
0000
0000
0000
0000
0100
0000
0010
0000
0001
0000
0100
0000
0000
0000
,
2200
3300
0000
0000
2020
3030
0000
0000
0000
0000
0000
0000
0200
0300
0020
0030
0220
0330
0000
0000
0000
0000
1000
0000
0100
0000
0010
0000
0001
0000
0000
0000
,
2200
3300
0000
0000
0202
0303
0000
0000
0002
0003
0002
0003
0200
0300
0000
0000
1010
0000
0000
0000
0000
0000
0000
0000
0100
0000
0000
0000
0100
0000
0001
0000
,
0000
0000
1000
0000
0000
0010
0000
0000
0100
0000
0000
0000
0001
0000
0100
0010
,
0000
1000
0010
0000
0100
0000
0010
0000
2000
0000
3000
0000
0100
0000
0010
0001
,
0000
0001
0010
0000
0100
0000
1000
0000
0001
0000
0000
1000
0000
0000
0010
0000
,
1000
0010
1000
0000
0001
0100
0001
0000
0020
0000
0030
0000
0100
0000
0000
1000
,
0000
0000
1000
0000
0000
0010
0000
0000
0100
0000
0000
0001
0000
0000
0100
0010
,
0000
0100
0001
0000
1000
0001
0100
0000
0020
0000
0030
0000
0010
0000
0100
0001
,
0000
0001
0010
0000
0000
0100
0000
0000
1000
0000
0000
0001
0000
0000
0010
0000
,
0001
0010
0100
0000
0010
0100
1000
0000
1100
0000
0000
0000
1010
0000
0000
0000
,
0101
0000
0011
0000
1100
0000
0011
0001
,
0101
0000
1010
0010
0110
0000
0101
0000
,
1010
0000
1100
0000
0011
0000
0101
0001
,
1001
0000
1010
0000
0101
0100
0011
0000
,
0101
0010
1010
0000
1100
0000
0011
0001
,
1010
1000
1100
0000
0101
0000
1010
0000
,
1100
0000
0000
0000
1010
0000
0000
0000
1100
0000
0010
0000
0011
0000
0000
0100
,
0001
0000
0001
0000
1010
0000
1000
0000
0020
0000
0030
0000
1000
0000
0000
0001
,
0000
0100
0001
0000
0010
0000
0000
0000
0100
0000
0000
1000
0100
0000
0010
0000
,
0000
0001
0010
0000
0001
0000
0000
0000
0200
0000
0300
0000
0010
0000
0010
1000
,
0000
1000
0010
0000
0100
0001
0000
0000
0010
0000
0001
0000
0100
0000
0010
1000
,
0000
0000
1000
0000
0100
0010
0001
0010
0002
0000
0003
0000
0100
0000
0001
0100
,
0000
0000
0010
0000
1000
0100
0000
0000
1000
0000
0000
0001
0000
0000
0100
0000
,
0000
0010
0000
0000
0100
0001
0100
0000
0010
1000
0000
0000
0100
0000
0000
0100
,
0000
0000
0010
0000
0001
0010
0000
0000
0100
0000
0010
0000
0001
0000
0000
1000
,
0000
0000
0000
0000
0010
0000
0000
0000
1000
0000
0010
0000
1000
0000
0100
0000
2000
0000
0000
3000
0020
0230
0302
2003
3000
0000
0200
0000
0300
0020
0000
0030
,
0200
0000
0300
0020
0000
0030
0002
0000
0003
2000
0000
3000
0020
0000
0030
0000
0102
0000
0000
0000
0000
0000
0003
0000
1000
0000
0000
0000
0010
0000
0100
0000
,
0000
0100
0010
0000
1000
0000
0100
0000
0010
0000
0000
0000
0100
0000
1000
0100
,
0000
0010
0001
0000
0100
0010
1000
0000
0200
0000
0300
0000
0010
0000
0001
0100
,
0000
0000
0010
0000
0000
0100
0001
0000
0010
0000
0000
0000
0100
0000
0000
0100
,
0010
0000
0001
1000
0100
0000
0100
0010
0002
0000
0003
0000
0100
0000
0001
0010
,
0000
0000
0100
0000
0000
1000
0000
0000
0010
0000
0000
0100
0000
0000
0001
0010
,
0000
0010
0001
0000
0100
0001
0100
0000
0020
0000
0030
0000
1000
0000
0010
0100
,
0000
0100
0010
0000
0000
1000
0000
0000
0100
0000
0010
0000
0001
0000
0100
0010
,
0000
1000
0010
0000
0100
0001
0010
0000
0002
0000
0003
0000
1000
0000
0010
1000
,
0000
0100
0010
0000
0202
0000
0303
0000
1000
0000
0100
0000
0010
0000
0001
0100
,
0000
0100
0010
0000
2200
0000
3300
0000
0020
0000
0030
0000
0001
0000
0010
0001
,
0000
0100
0010
0000
2020
0000
3030
0000
0100
0000
0010
0000
0001
0000
0100
0010
,
0000
0010
1000
0000
0220
0000
0330
0000
0002
0000
0003
0000
0100
0000
0001
1000
,
0000
1000
0010
0000
0202
0000
0303
0000
0100
0000
0010
0000
1000
0000
1000
0100
,
0000
0100
0010
0000
0022
0000
0033
0000
0200
0000
0300
0000
0010
0000
1000
0100
,
0000
0100
1000
0000
0220
0000
0330
0000
0001
0000
0100
0000
0010
0000
1000
0010
,
0000
0000
0100
0000
0001
0000
0000
0000
0022
0000
0000
0000
0033
0000
0000
0000
0200
0300
0000
0000
0020
0030
0000
2000
3000
0000
2000
3000
0000
0200
0300
0000
,
2000
3000
0000
0200
0300
0000
0020
0030
0000
0002
0003
0000
0020
0030
0002
0003
0022
0003
0000
0000
0002
0033
0000
0002
0003
0000
0002
0003
0000
0200
0300
0000
,
0020
0030
0000
0020
0030
0000
2000
3000
0000
0020
0030
0000
2000
3000
0000
0020
0030
0000
0000
0000
0000
0000
0000
0000
0000
0000
0000
0000
0000
0000
0000
0000
;

//--------------- dance-single - Lye ----------------
#NOTES:
     dance-single:
     Lye:
     Challenge:
     16:
     0,0,0,0,0:
0000
0000
0000
0000
,
1000
0000
1000
0000
0010
0010
0010
0000
,
MMMM
0100
0000
0100
,
MMMM
0001
0000
0010
,
MMMM
0200
0300
1000
,
MMMM
0000
0000
0000
0020
0000
0000
0130
0000
0000
0000
0000
0001
0000
0000
0000
,
0110
0000
1000
0011
0001
0000
0100
0101
,
0000
0001
1000
1010
0100
0000
0010
0000
,
0011
0001
0100
1010
1000
0000
0010
1100
,
0000
0000
0100
0000
1000
0000
0010
0100
0000
0000
0001
0000
0101
0000
0000
0000
,
1010
0100
0010
0001
0010
0000
0001
0010
,
0000
0001
0010
0100
1000
0100
0010
0100
,
2000
0000
0000
0001
0000
0000
0010
0010
,
3010
0000
0000
0000
1000
0010
1000
1000
0002
0000
0003
0000
0001
0100
0001
0010
,
0000
0000
0100
0000
0000
1000
0100
0000
0010
0000
0000
0000
0001
0000
1000
0010
,
0000
1000
0100
0010
0001
0100
0010
1000
0200
0000
0300
0000
0001
0010
0001
0100
,
0000
0000
0010
0000
0000
1000
0100
0000
0010
0000
0000
0000
0100
0000
0000
1000
,
0001
0100
0001
0010
0001
0010
0001
0010
0200
0000
0300
0000
0010
1000
0010
0100
,
0000
0000
0001
0000
0000
0010
0001
0000
0100
0000
0000
0000
0010
0000
0100
0001
,
0000
0100
0010
1000
0001
0010
0100
1000
0002
0000
0003
0000
1000
0100
0010
0100
,
0000
0000
1000
0000
0000
0010
0100
0000
0010
0000
0000
0000
1000
0000
0000
0001
,
0100
0000
0010
0000
1000
0000
0001
0000
0010
0000
0100
0000
1000
0000
0001
0000
2002
3003
0000
0000
0000
0000
0100
0000
0010
0000
0001
0000
1000
0000
0010
0000
,
2020
3030
0100
0000
0202
0303
0000
0000
0000
0000
0001
0000
0010
0000
0000
0000
2200
3300
0000
0000
0000
0000
0100
0000
0010
0000
0100
0000
1000
0000
0010
0000
,
2020
3030
0000
0000
0022
0033
0000
0000
0000
0000
0000
0000
1000
0000
0000
0000
0220
0330
0000
0000
0000
0000
0100
0000
0010
0000
1000
0000
0100
0000
1000
0000
,
2200
3300
1000
0000
2020
3030
0000
0000
0000
0000
1000
0000
0200
0300
0020
0030
0022
0033
0000
0000
0000
0000
0100
0000
0010
0000
0100
0000
0010
0000
1000
0000
,
2020
3030
0000
0000
0202
0303
0000
0000
0002
0003
0002
0003
0200
0300
0000
0000
1010
0000
0000
0000
0000
0000
0100
0000
0001
0000
0010
0000
0001
0000
0100
0000
,
0000
0000
0010
0000
0000
1000
0000
0100
1000
0000
0000
0010
1000
0000
0100
1000
,
0000
0010
0001
0100
0010
1000
0001
0100
0020
0000
0030
0001
0100
0000
0010
1000
,
0000
0000
0001
0000
0001
1000
0000
0000
1010
0000
0000
1000
0100
0000
0010
0001
,
1000
0100
0010
0001
1000
0100
0010
0001
2000
0000
3000
0010
1000
0000
0000
0001
,
0000
0000
1000
0000
1000
0010
0000
0000
0101
0000
0000
0001
0010
0000
0100
1000
,
0000
0001
0100
0010
1000
0001
0100
0010
2000
3001
0000
0010
0100
0000
1000
0001
,
0000
0000
0010
0000
0100
1000
0000
0000
1010
0000
0000
0001
0100
0000
0010
0001
,
1000
0000
0100
0000
0010
0000
0100
0000
1000
0000
0001
0000
0010
0000
0100
0000
0001
0000
0200
0300
0000
0000
0000
0000
1010
0000
0000
0000
0000
0000
1000
0000
,
1100
0000
0001
0000
0011
0000
0010
0000
0101
0000
0000
0001
0011
0000
0100
0000
,
1100
0100
0000
0000
1010
0000
0010
0000
0110
0100
0000
0000
0101
0000
0000
0010
,
0011
0000
0001
0000
1001
1000
0000
0000
1100
0000
0000
0010
1010
0000
0100
0000
,
1001
1000
0000
0000
0011
0000
0000
0100
1100
0000
0100
0000
0011
0000
0001
0000
,
0101
0000
0010
0000
1010
1000
0000
0000
1100
0000
0000
0001
0011
0000
1000
0000
,
1010
0000
0100
0000
1100
1000
0000
0000
0011
0000
1000
0000
0101
0000
0001
0000
,
1010
0000
0001
0000
0011
0010
0000
0000
1100
0000
0100
0000
1010
0000
0000
0100
,
0101
0000
0001
0000
0011
0001
1000
0100
0020
0000
0031
0000
1000
0000
0000
0001
,
0000
0100
0001
0000
1000
0100
0010
0000
0001
0000
0000
0100
1000
0000
0010
0000
,
0000
1000
0010
0000
0100
0000
0001
0000
2000
0000
3100
0000
0100
0000
0010
0001
,
0000
0001
0010
0000
0100
1000
0000
0000
0010
0000
1000
0000
0001
0000
0100
0010
,
0000
0000
1000
0000
0100
0010
0100
1000
0020
0100
0030
0000
0100
0000
0001
0100
,
0000
0000
0010
0000
1000
0100
0000
0000
1000
0000
0000
0010
0000
0000
0100
0000
,
0000
0001
0000
0000
0010
0100
0010
0000
0100
1000
0000
0000
0010
0000
0000
0100
,
0000
0000
0001
0000
0001
0010
0000
0000
0100
0000
1000
0000
0100
0000
0000
0010
,
0001
0000
0000
0000
0001
0000
0000
0000
0100
0000
0010
0000
0100
0000
0001
0000
2000
0000
0000
3000
0020
0230
0302
2003
0000
3000
0020
0000
0030
2000
0000
3000
,
0200
0000
0300
0020
0000
0030
0200
0000
0300
2000
0000
3000
0020
0000
0030
0000
1002
0000
0000
0000
0000
0000
0003
0000
1000
0000
0100
0000
0010
0000
0100
0000
,
0000
0000
0010
0000
0000
0001
0100
0000
0010
0000
0000
0000
1000
0000
1000
0100
,
0000
0010
0001
1000
0100
1000
0001
0100
0020
0000
0030
0000
0100
0001
0010
0100
,
0000
0000
1000
0000
0000
0010
1000
0000
0100
0000
0000
0000
0010
0000
0000
0001
,
1000
0010
1000
0001
0100
0010
1000
0100
0020
0000
0030
0000
0100
1000
0100
0010
,
0000
0000
0100
0000
0000
1000
0100
0000
0010
0000
0000
0001
0010
0000
0010
0001
,
0000
0100
0010
1000
0010
0100
0010
0100
0002
0000
0003
0000
0010
0100
1000
0010
,
0000
0000
0100
0000
0000
0100
0001
0000
0010
0000
0001
0000
0100
0000
0010
1000
,
0000
1000
0010
0000
0100
0001
1000
0010
0200
0000
0300
0000
0001
0100
0010
1000
,
0000
0100
0010
0000
0202
0000
0303
0000
0010
0000
0100
0000
0010
0000
1000
0100
,
0000
0100
1000
0000
0220
0000
0330
0000
0002
0000
0003
0000
1000
0100
1000
0010
,
0000
0100
0001
0000
0020
0000
0130
0000
1000
0000
0100
0000
0010
0000
0100
1000
,
0100
0010
0001
0100
0001
0010
0100
1000
0020
0000
0030
0000
1000
0100
0010
0100
,
0000
1000
0001
0000
2010
0000
3001
0000
0100
0000
0010
0000
0001
0000
1000
0100
,
0000
1000
0010
0001
0100
0010
1000
0100
2000
0000
3000
0000
0010
0100
0001
0010
,
0000
0100
1000
0000
0120
0000
0130
0000
0001
0000
1000
0000
0100
0000
0010
0001
,
1000
0000
0100
0000
1000
0000
0010
0000
1000
0000
0100
0000
0010
0000
0001
0000
0200
0300
0000
0100
0020
0030
0000
2000
3000
0000
2000
3000
0000
2000
3000
0000
,
0200
0300
0100
2000
3100
0010
0002
1003
0000
0001
0100
0002
0013
0000
0200
0300
2100
0000
0000
0000
0002
3003
0000
0002
0003
0000
0002
0003
0000
0200
0300
0000
,
0002
0003
0000
0002
0003
0000
0200
0300
0000
0020
0030
0000
2000
3000
0000
0020
0030
0000
0000
0000
0000
0000
0000
0000
0000
0000
0000
0000
0000
0000
0000
0000
;
