#TITLE:Show Me What;
#SUBTITLE:;
#ARTIST:A. G. Cook, Cecile Believe;
#TITLETRANSLIT:;
#SUBTITLETRANSLIT:;
#ARTISTTRANSLIT:;
#GENRE:;
#CREDIT:;
#MUSIC:showmewhat.ogg;
#BANNER:show-me-what-bn.png;
#BACKGROUND:show-me-what-bg.png;
#CDTITLE:;
#SAMPLESTART:72.195;
#SAMPLELENGTH:24.000;
#SELECTABLE:YES;
#OFFSET:1.318;
#BPMS:0.000=160.000
,64.000=80.000
,66.000=160.000
,132.000=80.000
,162.000=160.000
,162.250=80.000
,162.500=160.000
,227.000=320.000
,229.000=160.000
,259.000=80.000
;
#STOPS:162.000=0.094
,162.250=0.200
,227.000=0.188
,228.000=0.188
;
#DISPLAYBPM:80.000:160.000;
#BGCHANGES:2.318=showmewhat-mv.avi=1.000=1=0=0=StretchNoLoop==CrossFade==,
99999.000=-nosongbg-=1.000=0=0=0=StretchNoLoop====
;
#FGCHANGES:;

//--------------- dance-single - Lye ----------------
#NOTES:
     dance-single:
     Lye:
     Easy:
     5:
     0,0,0,0,0:
0000
0000
0000
0000
,
0001
0000
0001
0000
,
1000
0000
0001
0000
,
0010
0000
0010
0000
,
0020
0000
1000
0000
1000
0030
0000
0000
,
0100
0000
0100
0000
,
0010
0000
0001
0000
,
0100
0000
1000
0000
,
0010
0000
2000
0001
,
3001
0000
0001
0000
,
1000
0000
0001
0000
,
0010
0000
0010
0000
,
2000
0001
3001
0000
,
0001
0000
0100
0000
,
0010
0000
1000
0000
,
0001
1000
0000
0001
,
0010
0000
1000
1000
,
0001
0001
0010
0010
,
0001
0001
0010
1000
,
0010
1000
1000
0010
,
0002
2003
3001
0010
,
0001
1000
0100
0001
,
0010
0000
0001
0000
0002
0003
2000
3000
,
0002
0003
2000
3000
0200
0000
0310
0000
,
0200
0001
0301
0010
,
0001
0100
0001
1000
,
0010
0000
1000
0000
0200
0300
0020
0030
,
0200
0300
0001
0000
0100
0000
0010
0000
,
2000
3001
0010
0010
,
0100
0010
0010
0100
,
0001
0001
0100
0001
,
0001
0000
0020
0030
0100
0000
0010
0000
,
1000
0010
0000
0000
,
1000
0010
0001
0000
,
0001
0010
1000
0010
,
0001
0000
0100
0100
0100
0000
0010
0000
,
0010
0010
0100
0000
,
0001
0000
0100
0000
0020
0030
1000
0000
,
0001
0000
0100
0000
2000
3001
0000
0000
,
0001
0000
0100
0000
2000
3000
0100
0000
,
0010
0000
0001
0000
0200
0300
1000
0000
,
1000
0001
0001
0010
,
0010
0100
0100
0001
,
1000
0001
1000
0200
,
0010
1300
0000
0001
,
0001
1000
1000
0010
,
0010
0000
1000
0000
1000
0000
0200
0300
,
0002
0003
0200
0300
0002
0003
1000
0000
,
0000
1001
0110
0010
,
1000
0001
0001
1000
,
0001
0001
1000
0010
,
0100
0001
1000
0200
,
1000
1300
0000
0001
,
0001
0010
1000
1000
,
0010
0100
1000
0100
,
0001
0100
0001
1000
,
0001
1000
0001
0000
,
0000
0100
0000
1000
,
0010
0100
0010
0001
,
0100
0001
1000
0020
,
0100
0030
2000
3000
0200
0300
0020
0000
,
0130
0100
0001
0100
,
0100
1000
1000
0001
,
1000
1000
0010
1000
,
0001
1000
0001
0000
,
0000
0000
1000
0001
0000
0000
0000
0001
,
0001
0000
1000
0001
1000
0001
0000
0000
,
0000
0000
1000
0001
0000
1000
0000
0001
,
0001
0000
1000
0001
0100
0010
0000
0000
;

//--------------- dance-single - Lye ----------------
#NOTES:
     dance-single:
     Lye:
     Medium:
     9:
     0,0,0,0,0:
0000
0000
0000
0000
,
0100
0000
0100
0000
0010
0001
0000
0000
,
0000
0000
0000
0000
,
0010
0000
0010
0000
0001
1000
0000
0000
,
0000
0000
0000
0000
,
1000
0000
1000
0000
0010
0100
0000
0000
,
0000
0000
0000
0000
,
0100
0000
0100
0000
1000
0001
0000
0000
,
0000
0000
0000
0000
,
0001
0000
0001
0000
0010
0100
0000
0000
,
0000
0000
0000
0000
,
0100
0000
0100
0000
0010
0001
0000
0000
,
0000
0000
0000
0000
,
0001
0000
0001
0000
0100
1000
0000
0000
,
0000
0000
0000
0000
,
0000
0000
0000
0000
,
0000
0000
1000
1000
,
0001
0010
0001
0001
,
1000
0100
0001
1000
,
0001
0000
0010
0000
1000
0100
0010
0001
,
1000
1000
0001
0010
,
0001
1000
0100
0001
,
0010
0000
0100
0000
0002
0003
0020
0030
,
0200
0300
2000
3000
0100
0010
0100
0000
,
0100
0010
0001
0100
0010
0000
0010
0000
,
0001
0100
0001
0010
,
1000
0000
0010
0000
0200
0300
0020
0030
,
2000
3000
0001
0000
0100
0001
0010
0001
,
1000
1000
0010
0010
,
1000
0010
0010
0001
,
0001
0010
1000
1000
,
0010
0000
0002
0003
0100
0000
0010
0000
,
1000
0000
0010
0100
0000
0000
0000
0000
,
1000
0100
0010
0000
0001
1000
0000
0000
,
0001
0100
0010
0000
1000
0001
0010
0000
,
1000
0001
0100
0100
0100
0000
0010
0001
,
0010
0001
0010
1000
0100
0001
0000
0000
,
0001
0010
0100
0001
2000
3000
1000
0010
,
0002
0003
0100
0010
1000
0020
0030
0000
,
0001
0010
0100
0001
2000
3000
0100
0001
,
0010
0000
0000
0000
1000
0000
0001
0000
0100
0001
0000
0000
1000
0000
0000
0000
,
1000
0100
1000
0100
,
0010
1000
0010
0001
,
0001
0000
0010
0000
0010
0000
0100
0010
,
0001
1000
0100
0000
0100
0000
0001
0000
,
0001
0001
1000
0010
,
1000
0000
0001
0000
0001
0000
0200
0300
,
2000
3000
0200
0300
0020
0030
0001
1000
,
0001
0000
0001
1000
0010
0100
0010
0000
,
0010
0001
0100
0001
,
0001
0001
0001
0010
,
0100
0000
0001
0000
1000
0000
0100
0001
,
0010
0001
1000
0000
0001
0000
0010
0000
,
0010
0010
1000
1000
,
1000
0010
0010
0010
,
0001
0000
0001
0000
0010
0000
0001
0010
,
0001
0010
0001
0010
0001
1000
00M0
0000
,
00M0
0100
0001
1000
,
0020
0030
0200
0300
0020
0030
0001
0000
,
0100
0000
0010
0000
1000
0000
0010
0100
,
0001
0100
2000
3000
0200
0300
0002
0000
,
0103
0100
1000
0100
,
0010
0100
0100
0001
,
0100
0000
0100
0000
1000
0000
0100
0001
,
0100
0000
0100
0001
0100
0001
0000
0000
,
0000
0000
1000
0001
0000
0010
0000
0001
,
0001
0000
1000
0001
1000
0010
0000
0000
,
0000
0000
1000
0001
0000
1000
0000
0001
,
0001
0000
0000
0000
0100
0000
0001
0000
0100
0000
0010
1000
0000
0000
0000
0000
;

//--------------- dance-single - Lye ----------------
#NOTES:
     dance-single:
     Lye:
     Hard:
     11:
     0,0,0,0,0:
0000
0000
0000
0000
,
0001
0000
1000
0000
0010
0100
0000
0000
,
0101
0000
0000
0000
0000
1010
0000
0000
,
0001
0000
1000
0000
0001
0010
0000
0000
,
0110
0000
0000
0000
0000
1010
0000
0000
,
1000
0000
1000
0000
0001
0100
0000
0000
,
1001
0000
0000
0000
0000
1100
0000
0000
,
0001
0000
0100
0000
0010
1000
0000
0000
,
0011
0000
0000
0000
0000
1010
0000
0000
,
0001
0000
0001
0000
1000
0100
0000
0000
,
1001
0000
0000
0000
0000
1100
0000
0000
,
0100
0000
1000
0000
0010
0100
0000
0000
,
0011
0000
0000
0000
0000
0110
0000
0000
,
1000
0000
0100
0000
1000
0001
0000
0000
,
1010
0000
0000
0000
0000
0101
0000
0000
,
0020
0000
0000
0000
0000
1030
0000
0000
,
0200
0302
0203
0320
1030
0000
1000
0000
,
0001
0010
0001
0000
0001
0000
0001
0000
,
1000
0100
0001
1000
,
0001
0010
1000
0000
1000
0100
0010
0001
,
1000
1000
0001
0010
,
0100
0001
1000
0000
0100
0000
0001
0000
,
0010
0000
0100
0000
0002
0003
0020
0030
,
0200
0310
2000
3000
0100
0010
0100
0000
,
0100
0010
0001
0100
0010
0000
0010
0000
,
0001
1000
0100
0000
0001
0000
0010
0000
,
1000
0000
0010
0000
0200
0300
0020
0030
,
2000
3001
0001
0000
0100
0001
0010
0001
,
1000
1000
0010
0010
,
1000
0100
0010
0000
0010
0000
0001
0000
,
0100
0010
1000
0100
,
0010
0000
0002
1003
0100
0000
0010
0000
,
1000
0001
0010
0100
0000
0000
0000
0000
,
0100
0001
1000
0001
0020
0000
0030
1000
0001
0000
1000
0000
0110
0000
0000
0000
,
0010
1000
0100
1000
0001
0000
0000
0010
1000
0000
0001
0000
1010
0000
0000
0000
,
1000
0100
0001
0010
0100
0000
1010
0000
0101
0000
0000
0000
0010
0000
1000
0000
,
0010
0100
0001
0000
0010
0000
1000
0010
0100
0001
1000
0000
0001
0000
0000
0000
,
0001
1000
0010
0100
1000
0000
0020
0000
2030
0000
3000
0100
1000
0000
0020
0000
,
0032
0000
0003
0010
0100
0000
1000
0000
1010
0000
0201
0000
0300
0000
0000
0000
,
0100
1000
0010
0100
0001
0000
1010
0000
2001
0000
3000
0010
0100
0000
0001
0000
,
0010
0000
0000
0010
1000
0000
0001
0000
0100
0001
0000
0000
1000
0000
0000
0000
,
1000
0000
0100
0010
1000
0000
0001
0000
,
0001
0000
1000
0100
0010
0000
0100
0000
,
0100
0000
0010
0001
1000
0000
0100
0010
,
0001
1000
0100
0000
0100
0000
0001
0000
,
0001
0000
1000
0010
0100
0000
0010
0000
,
0010
0000
0000
0000
0001
0000
0010
0000
1000
0000
0000
0100
0001
0000
0000
0001
,
0100
0000
0000
0100
1000
0000
0000
1000
0001
0000
0000
0000
0101
0000
0000
0000
,
0000
0000
0001
1000
0010
0100
1010
0000
,
0110
0000
0001
0000
0100
0000
0001
0100
,
0010
1000
0010
0010
,
0100
0000
0001
1000
0010
0000
0100
0001
,
0010
0001
1000
0000
0001
0000
0010
0000
,
0010
0000
0010
0100
1000
0000
1000
0000
,
1000
0000
0010
0000
0010
0000
0010
0100
,
0001
0000
0001
0000
1010
0000
0100
0010
,
0100
0010
0100
0010
0001
1000
1MM1
0000
,
M11M
0000
0100
0000
0001
0000
1000
0100
,
0010
0000
0100
0000
0010
0000
0001
0001
,
0400
0000
0340
0000
4030
0000
3010
0100
,
0001
0100
0020
0030
2000
3000
0002
0000
,
0103
0000
0010
0000
1000
0100
0010
0000
,
0001
1000
0100
0010
,
1000
0000
0100
0000
0010
0000
0100
0001
,
0100
0000
0100
0001
0100
0001
0000
0000
,
0000
0000
0000
0000
1000
1000
0001
0000
0100
0000
0010
0010
0000
0000
0101
0000
,
0011
0000
0000
0000
1000
0010
0100
0000
1000
0010
0100
0001
0000
0000
0000
0000
,
0000
0000
0000
0000
1000
0001
0001
0000
0000
0000
1000
0001
0000
0000
1010
0000
,
0110
0000
0000
0000
1000
0100
0001
0000
0100
0001
0010
1000
0000
0000
0000
0000
;

//--------------- dance-single - Lye ----------------
#NOTES:
     dance-single:
     Lye:
     Challenge:
     13:
     0,0,0,0,0:
0000
0000
0000
0000
,
0001
0000
1000
0000
0010
0100
0000
0000
,
0101
0000
0000
0000
0000
1010
0000
0000
,
0001
0000
1000
0000
0001
0010
0000
0000
,
0110
0000
0000
0000
0000
1010
0000
0000
,
1000
0000
0000
0100
1000
0000
0010
0000
0001
0000
0100
0000
0000
0000
0000
0000
,
1001
0000
0000
0000
0000
1100
0000
0000
,
0001
0000
0000
1000
0100
0000
1000
0000
0010
0000
1000
0000
0000
0000
0000
0000
,
0011
0000
0000
0000
0000
1010
0000
0000
,
0001
0000
0000
0100
0001
0000
0010
0000
1000
0000
0100
0000
0000
0000
0000
0000
,
1001
0000
0000
0000
0000
1100
0000
0000
,
0100
0000
0000
0010
1000
0000
0100
0000
0010
0000
0100
0000
0000
0000
0000
0000
,
0011
0000
0000
0000
0000
1100
0000
0000
,
1000
0000
0000
0010
0100
0000
0001
0000
1000
0000
0001
0000
0000
0000
0000
0000
,
1010
0000
0000
0000
0000
0101
0000
0000
,
0010
0000
0000
1000
0100
0000
0100
0000
0001
0000
0010
0000
1000
0000
0000
0000
,
0100
0010
0001
0000
0100
0010
0001
1000
0010
0000
0000
0100
0010
0000
0000
0000
,
0001
0010
0001
0000
1000
0000
0001
0000
,
1000
0000
0100
0000
0100
0000
1000
0000
0001
0000
0000
0100
1000
0000
0010
0000
,
0100
0001
1000
0000
1000
0100
0010
0001
,
1100
0000
0000
0000
1001
0000
0000
0000
0001
0000
0000
1000
0010
0000
0001
0000
,
0100
0001
1000
0000
1100
0000
0011
0000
,
0110
0000
0000
0000
0101
0000
0000
0000
0001
0000
0000
0001
0010
0000
0001
0000
,
0100
0010
1000
0000
0100
0010
0100
0000
,
0100
0000
0010
0000
0001
0000
0100
0000
0010
0000
0000
1000
0010
0000
0100
0000
,
0001
1000
0100
0000
0001
0000
0010
0000
,
1000
0000
0000
0000
0010
0000
0000
1000
0001
0000
1000
0000
0010
0000
0001
0000
,
1100
0000
0101
0000
0100
0001
0010
0001
,
1000
0000
0000
0100
1000
0000
0001
0000
0010
0000
0000
1000
0010
0000
0001
0000
,
1000
0100
0010
0000
0010
0000
0001
0000
,
0100
0000
1000
0000
0010
0000
0000
0000
1000
0000
0000
0010
0100
0000
1000
0000
,
0010
0000
0102
1003
0100
0000
0010
0000
,
1000
0001
0010
0100
0000
0000
0000
0000
,
0100
0001
1000
0001
0021
0000
0030
1000
0001
0010
1000
0000
0110
0000
0000
0000
,
0010
1000
0100
1000
2010
0000
3000
0010
1000
0100
0001
0000
1001
0000
0000
0000
,
1000
0000
0100
0000
0001
0000
0010
0000
1100
0000
0000
0000
1010
0000
0000
0000
0011
0000
0100
0000
0000
0000
0000
0000
0010
0000
0000
0100
1000
0000
0001
0000
,
0010
0000
0000
0100
0000
0000
0001
0000
0000
0000
0000
0000
0010
0000
0000
0100
0000
0000
1000
0000
0000
0010
0000
0000
0100
0000
0000
0001
0000
0000
1000
0000
0000
0000
0000
0000
0001
0000
0000
0000
0100
0000
0000
0000
0010
0000
0000
0000
,
1000
0000
0000
0001
0000
0000
0010
0000
0000
0100
0000
0000
1000
0000
0000
0000
0000
0000
0010
0000
0000
0000
0000
0000
1000
0000
0000
0001
0000
0000
0000
0000
0000
0001
0000
0000
1000
0000
0000
0000
0100
0000
0000
0000
0010
0000
0000
0000
,
0001
0000
0000
1000
0000
0000
0000
0000
0000
1000
0000
0000
0001
0000
0000
0000
0000
0000
1000
0000
0000
0000
0000
0000
1000
0000
0000
0001
0000
0000
0201
0000
0000
0000
0000
0000
0310
0000
0000
0000
0001
0000
0000
0000
1000
0000
0000
0000
,
0100
0000
1000
0000
0010
0000
0100
0000
0001
0000
0000
0000
1010
0000
0000
0000
2000
0000
0010
0000
3000
0000
0010
0100
0010
0000
0000
0000
0001
0000
0000
0000
,
0010
0000
0000
0010
1000
0000
0001
0000
0100
0001
0000
0000
1000
0000
0000
0001
,
1000
0010
0100
0010
1000
0000
0001
0000
,
0001
0000
0000
0000
1000
0000
0100
0000
0010
0000
0000
0000
0100
0000
0000
1000
,
0100
0001
0010
0001
1000
0000
0100
0010
,
0001
0000
1000
0000
0100
0000
0000
0000
0100
0000
0000
0000
0001
0000
0000
0010
,
0001
0010
0001
1000
0100
0000
0010
0000
,
0010
0000
0000
0000
1000
0000
0010
0000
1000
0000
0001
0100
0001
0000
0000
0001
,
0100
0000
0000
0100
1000
0000
0000
1000
0001
0000
0000
0000
0101
0000
0000
0000
,
0000
0000
0000
0000
0001
0000
1000
0000
0010
0000
0100
0000
1010
0000
0000
0001
,
0100
0000
0001
0000
0100
0000
0001
0100
,
0010
0000
0000
0000
1000
0000
0100
0000
0010
0000
0000
0001
0010
0000
1000
0000
,
0100
0010
0001
1000
0010
0000
0100
0001
,
0010
0000
0001
0000
1000
0000
0000
0100
0001
0000
0010
0000
1000
0000
0000
0000
,
0100
0000
0001
0010
0100
0000
1000
0000
,
1000
0000
0000
0000
0100
0000
0000
0001
0010
0000
0100
0000
0010
0000
1000
0000
,
0001
0000
0010
0000
0101
0000
1000
0010
,
1000
0010
1000
0010
0001
1000
MM11
0000
,
1M1M
0000
0100
1000
0001
0001
1000
0100
,
0010
0000
0100
0000
0010
0000
0001
0001
,
0100
0100
0040
0000
4030
0000
3010
0100
,
0001
0000
0100
0000
0020
0000
0030
0000
2100
0000
3000
0000
0012
0000
0000
0100
,
1003
0100
0010
0000
0100
1000
1010
0000
,
0011
0000
0100
1000
1010
0000
0011
0000
,
1000
0100
0010
0000
0011
0000
0100
0001
,
1000
0000
0100
0001
1000
0010
0000
0000
,
0000
0000
0000
0000
0000
0000
0000
0000
1000
0000
1000
0000
0001
0000
0000
0200
0300
0000
0000
0000
0010
0000
0010
0000
1000
0000
0100
0000
0101
0000
0000
0000
,
0011
0000
0000
0000
0000
0000
0000
0000
1000
0000
0010
0000
0100
0000
0000
0001
1000
0000
0010
0000
0100
0000
0001
0000
0001
0000
1000
0000
0000
0000
0001
0000
,
0000
0000
0100
0000
0000
0000
0000
0000
1000
0000
0001
0000
0001
0000
0200
0300
0000
0000
0000
0000
1000
0000
0001
0000
0100
0000
0000
0001
1000
0000
0100
0000
,
1000
0000
0000
0000
0000
0000
0000
0000
1000
0000
0100
0000
0001
0000
0000
2000
3100
0000
0001
0000
0010
0000
0200
0300
0000
0000
0000
0000
0000
0000
0000
0000
;
