#TITLE:Rainy Summerdays;
#SUBTITLE:;
#ARTIST:Radix;
#TITLETRANSLIT:;
#SUBTITLETRANSLIT:;
#ARTISTTRANSLIT:;
#GENRE:;
#CREDIT:;
#MUSIC:rainy-summerdays.ogg;
#BANNER:rainy-summerdays-bn.png;
#BACKGROUND:rainy-summerdays-bg.png;
#CDTITLE:;
#SAMPLESTART:92.783;
#SAMPLELENGTH:22.800;
#SELECTABLE:YES;
#OFFSET:0.960;
#BPMS:0.000=125.000
,126.000=115.000
,126.500=114.000
,127.000=110.000
,127.500=120.000
,128.000=103.000
,129.000=78.000
,129.750=26.000
,130.000=125.000
,286.000=115.000
,286.500=114.000
,287.000=110.000
,287.500=120.000
,288.000=103.000
,289.000=78.000
,289.750=26.000
,290.000=125.000
;
#STOPS:;
#BGCHANGES:;
#FGCHANGES:;

//--------------- dance-single - Lye ----------------
#NOTES:
     dance-single:
     Lye:
     Easy:
     4:
     0,0,0,0,0:
0000
0000
1000
0000
,
0001
0000
0010
0000
,
0100
0000
1000
0000
,
0100
0000
1000
0000
,
0100
0000
0001
0000
,
0010
0000
0001
0000
,
1000
0000
0100
0000
,
0001
0000
0100
0000
,
0001
0000
1000
0001
,
1000
0000
0010
0000
,
0100
0000
0001
0001
,
1000
0000
0001
0001
,
1000
0000
0100
0000
,
0010
0000
0001
0000
,
0100
0000
1000
1000
,
0001
0000
1000
1000
,
0001
0000
0020
0000
,
0030
0000
2000
3000
,
0200
0300
1000
0001
,
0010
0000
0001
0010
,
0001
0000
0020
0000
,
0030
0000
0002
0003
,
0200
0300
1000
0100
,
0010
0001
2000
0000
,
3020
0030
0100
0000
,
0010
0000
1000
0000
,
1000
0000
0001
0000
,
0010
0000
0001
0000
,
0010
0000
0100
0000
,
0010
0000
1000
0000
,
1000
0000
0001
0000
,
0010
0000
0001
0000
,
0010
0000
1000
0000
,
0010
0000
0100
0000
,
0001
0000
1000
0000
,
0100
0000
1000
0000
,
0100
0000
0010
0000
,
0001
0000
1000
0000
,
1000
0000
0100
0000
,
0010
0000
0100
0000
,
0010
0000
2000
3000
,
0002
0003
2000
3000
,
0200
0300
1000
0010
,
0010
0000
0001
0010
,
0010
0000
0020
0030
,
0200
0300
2000
3000
,
0002
0003
0100
0010
,
1000
0000
0010
0100
,
0001
0000
2000
3000
,
0002
0003
0100
0000
,
0010
0000
1000
0100
,
0100
0000
0001
0100
,
0100
0000
0010
0000
,
1000
0000
0100
0000
,
0001
0000
1000
0010
,
0010
0000
0001
0010
,
0010
0000
2000
0000
,
3000
0000
0020
0030
,
0200
0300
0001
0000
,
1000
0000
0100
0010
,
0100
0000
2000
0000
,
3000
0000
0002
0003
,
0020
0030
1000
0010
,
0100
0000
0001
0010
,
0100
0000
0010
0000
,
0100
0000
1000
0000
,
1000
0000
0010
0000
,
0001
0000
0010
0000
,
0001
0000
0100
0000
,
0010
0000
1000
0000
,
1000
0000
0010
0000
,
0100
0000
0010
1000
,
0100
0010
1001
0000
;

//--------------- dance-single - Lye ----------------
#NOTES:
     dance-single:
     Lye:
     Medium:
     7:
     0,0,0,0,0:
0000
0000
0000
0000
1000
0000
0001
0010
,
0000
0000
0000
0000
0010
0001
0000
0100
,
0000
0001
1000
0010
0000
0000
0001
0000
,
0010
0100
1000
0001
,
0010
0000
0100
0000
1000
0000
0010
0100
,
0000
0000
0000
0000
0001
0010
0000
0100
,
0000
0010
0100
1000
0000
0000
1000
0000
,
0001
0100
0010
1000
,
0001
0000
0010
0000
1200
0000
0310
0002
,
0000
0000
0003
0000
0010
0100
0000
1000
,
0000
0001
0100
0020
0000
0030
1000
0000
,
0100
1000
0010
0001
,
0010
0000
1000
0000
0200
0000
0301
0020
,
0000
0000
0030
0000
0001
0010
0000
0001
,
0000
1000
0100
0020
0000
0030
1000
0000
,
0001
0000
0100
0000
0010
1000
0010
0000
,
0001
0010
2000
0000
,
3000
0020
0030
0100
0002
0000
0003
0010
,
0200
1300
1000
0001
,
0001
0000
0100
0002
0000
0003
0010
0002
,
0000
0003
1000
0000
0020
0000
0000
0000
,
0030
0200
0300
0001
2000
0000
3000
0010
,
0200
0000
0301
0100
1000
0000
0100
0000
,
0001
0000
0010
0200
0000
0300
0010
2000
,
0000
0000
3000
0000
0001
0000
0000
0001
,
1000
0000
0000
1000
0001
0000
0000
0010
,
1000
0000
0000
0100
0001
0000
0000
0001
,
1000
0000
0000
0010
1000
0000
0000
0100
,
0001
0000
0000
1000
0100
0000
0100
0000
,
1000
0001
1000
0000
0001
1000
0100
0000
,
1000
0001
0010
0000
0100
1000
0010
0000
,
0010
1000
0001
0000
1000
0100
1000
0000
,
0010
1000
0001
1000
0010
0001
0000
0010
,
0001
0100
0000
0100
0010
1000
0000
1000
,
0001
1000
0000
0010
1000
0001
0000
0001
,
0100
0010
0000
1000
0001
0100
0000
0100
,
0001
0010
0000
0001
0100
1000
0000
1000
,
0100
0001
0000
0001
0010
1000
0000
1000
,
0010
0001
0000
0010
0100
0010
0000
1000
,
0100
1000
0000
0001
0100
0001
0000
0100
,
0010
0000
1000
0000
0000
0000
0000
0000
0200
0000
0000
0000
0300
0000
2000
3000
,
0002
0000
0000
0000
0023
0030
0200
0000
0000
0000
0300
0000
2000
3000
0002
0000
,
0000
0000
0003
0000
0200
0000
0000
0000
0320
0030
2000
0000
0000
0000
3002
0000
,
0000
0000
0203
0300
0020
0030
0200
0000
0000
0000
0000
0000
0000
0000
0302
0000
,
0000
0000
0003
0000
0000
0000
0000
0000
0020
0000
0000
0000
0030
0000
0200
0300
,
0002
0000
0000
0000
0023
0030
0200
0000
0000
0000
0300
0000
2000
3000
0200
0000
,
0000
0000
0300
0000
2000
0000
3000
0000
0020
0030
0200
0000
0000
0000
0320
0000
,
0000
0000
2030
3000
0002
0003
0020
0000
0000
0000
0000
0000
0230
0300
2000
0000
,
0000
0000
3000
0000
0200
0000
0310
0200
,
0000
0300
0000
0001
1000
0010
0000
0100
,
0000
0001
1000
0200
0000
0300
1000
0000
,
0010
1000
0001
0100
,
0010
0000
1000
0000
0200
0000
0310
0002
,
0000
0000
0003
1000
0100
1000
0000
0001
,
0000
0010
0001
0200
0000
0300
0010
0000
,
0010
1000
0001
0010
,
0010
0100
2000
0000
,
3000
0020
0030
0100
0020
0000
0030
1000
,
0200
0310
0001
1000
,
0010
0000
0100
0002
0000
0003
0010
0200
,
0000
1300
2000
0000
,
3000
0020
0030
1000
0002
0000
0003
0100
,
0020
0000
1030
0000
1000
0001
0010
0000
,
0100
0010
0001
2000
0000
3000
1000
0002
,
0000
0000
0003
0000
0010
0000
0000
0100
,
0010
0000
0000
0001
1000
0000
0000
1000
,
0010
0000
0000
0001
0100
0000
0000
1000
,
0010
0000
0000
0001
0100
0000
0000
1000
,
0010
0000
0000
0001
0100
0000
0100
0000
,
0010
1000
0010
0000
1000
0001
1000
0000
,
1000
0100
0010
0000
0001
1000
0001
0000
,
0001
0100
0001
0000
0010
1000
0001
0000
,
0100
0000
0001
0000
0010
0000
0002
0003
2100
0000
0000
3000
0000
0000
0000
0000
;

//--------------- dance-single - Lye ----------------
#NOTES:
     dance-single:
     Lye:
     Hard:
     10:
     0,0,0,0,0:
0000
0000
0000
0000
1000
0000
0001
0010
,
0000
0000
0000
0000
0010
0001
0000
0100
,
0000
0001
1000
0010
0000
0000
0001
0100
,
0010
0100
0001
1000
0010
0100
0001
0010
,
1000
0100
0010
1000
0001
0000
1000
0100
,
0000
0000
0000
0000
0001
0010
0000
0100
,
0000
0010
0100
1000
0000
0000
1000
0100
,
1000
0001
0100
0010
0100
0001
1000
0100
,
1000
0001
1000
0010
1200
0000
0310
0002
,
0000
1000
0003
0010
0010
0100
0000
1000
,
0000
0001
0100
0020
0000
0030
1000
0001
,
0100
0001
0010
1000
0010
0001
1000
0010
,
0100
0001
1000
0001
0200
0000
0310
2000
,
0000
0010
3000
0001
1000
0010
0000
0001
,
0000
1000
0100
0020
0000
0030
0001
0100
,
0001
0010
0100
1000
0100
0010
0001
0100
,
0001
0010
0001
0100
0020
0000
1000
0000
,
1030
0002
0003
0001
0200
0000
0300
0010
,
0200
0000
0301
0010
0001
0010
0100
1000
,
0100
0010
0001
0200
0000
0300
0010
0200
,
0000
0000
0301
0000
1000
0100
0000
0000
0020
0000
0000
0000
0000
0000
1000
0000
,
0030
0002
0003
0010
0200
0000
0300
1000
,
0200
0000
0301
0100
1000
0100
0001
0010
,
1000
0010
0001
0200
0000
0300
0010
2000
,
0000
0000
0100
0000
3100
0000
0000
0000
0001
0000
0000
0010
0000
0000
0001
0000
,
1000
0000
0000
0100
0000
0000
1000
0000
0001
0000
0000
0100
0000
0000
0010
0000
,
1000
0000
0000
0010
0000
0000
0100
0000
0001
0000
0000
0100
0000
0000
0001
0000
,
1000
0000
0000
0010
0000
0000
0010
0000
1000
0000
0000
0001
0000
0000
0100
0000
,
0001
0000
0000
0010
0000
0000
1000
0000
0100
0000
0010
0000
0100
0000
0000
0000
,
0001
0100
0001
0000
0001
1000
0100
0000
,
1000
0001
0010
0001
1000
0100
0010
0000
,
0001
1000
0010
0000
1000
0100
1000
0000
,
0010
1000
0001
1000
0010
0001
0000
0010
,
0001
0100
0000
0100
0010
1000
0000
1000
,
0001
1000
0000
0010
1000
0001
0000
0001
,
0100
0010
0000
1000
0001
0100
0000
0100
,
0001
0010
0000
0001
0100
1000
0000
1000
,
0100
0001
0000
0001
0010
1000
0000
1000
,
0010
0001
0000
0010
0100
0010
0000
1000
,
0100
1000
0000
0001
0100
0001
0000
0100
,
0010
0000
1000
0000
0001
0000
1000
0000
0200
0300
0000
0020
0000
0000
0032
0003
,
2000
0000
0000
0000
3020
0030
0200
0000
0000
0000
0300
0000
0020
0030
2000
0000
,
0000
0000
3000
0000
0200
0000
0000
0000
0320
0030
0002
0000
0000
0000
2003
0000
,
0000
0000
3200
0300
0020
0030
0200
0000
0000
0000
0000
0000
0000
0000
2300
0000
,
0000
0000
3000
0000
0000
0000
0000
0000
2000
3000
0000
0020
0000
0000
0230
0300
,
0002
0000
0000
0000
0023
0030
0200
0000
0000
0000
0300
0000
2000
3000
0200
0000
,
0000
0000
0300
0000
2000
0000
3000
0000
0020
0030
0200
0000
0000
0000
0320
0000
,
0000
0000
2030
3000
0002
0003
0020
0000
0000
0000
0000
0000
0230
0300
2000
0000
,
0000
0000
3000
0000
0200
0000
0310
0002
,
0000
0003
0000
0001
1000
0010
0000
0100
,
0000
0001
1000
0200
0000
0300
0001
0100
,
0001
1000
0100
0010
0001
0100
0001
1000
,
0100
0010
0001
0010
0200
0000
0310
0002
,
0000
0000
0003
1000
0100
1000
0000
0001
,
0000
0010
0001
0200
0000
0300
0010
0100
,
0010
1000
0001
0100
0001
0010
0100
1000
,
0010
0100
0001
0100
0020
0000
1000
1000
,
0030
2000
3000
0100
0020
0000
0030
0001
,
0200
0000
0310
0100
0001
0010
1000
0010
,
0001
0100
0010
2000
0000
3000
0010
0200
,
0000
0000
0000
0000
0301
0010
0000
0000
2000
0000
0000
0000
0000
0000
0000
0000
,
3000
0020
0030
1000
0002
0000
0003
0100
,
0020
0000
1030
0000
1000
0001
0010
1000
,
0010
0100
0001
2000
0000
3000
1000
0002
,
0000
0000
0000
0000
0003
0000
0000
0000
0010
0000
0000
1000
0000
0000
0100
0000
,
0010
0000
0000
0001
0000
0000
0100
0000
0010
0000
0000
0100
0000
0000
0010
0000
,
1000
0000
0000
0100
0000
0000
0010
0000
0001
0000
0000
1000
0000
0000
1000
0000
,
0010
0000
0000
1000
0000
0000
0001
0000
0010
0000
0000
0001
0000
0000
1000
0000
,
0001
0000
0000
1000
0000
0000
0001
0000
0100
0000
0010
0000
1000
0000
0100
0000
,
0010
1000
0010
0100
0001
0010
0100
1000
,
0010
0100
0010
1000
0001
1000
0100
0010
,
0001
0100
0001
1000
0010
1000
0001
0010
,
0100
0000
1000
0000
0010
0000
0200
0300
1000
0001
2000
0000
3000
0000
0000
0000
;

//--------------- dance-single - Lye ----------------
#NOTES:
     dance-single:
     Lye:
     Challenge:
     13:
     0,0,0,0,0:
0000
0000
0000
0000
1000
0000
0001
0010
,
0000
0000
0000
0000
0000
0000
1000
0100
0010
0000
0001
0000
0000
0000
0100
0000
,
0000
0001
1000
0010
0000
0000
0001
0100
,
0010
0100
0001
1000
0010
0100
0001
0010
,
0001
0100
0010
1000
0001
0000
1000
0100
,
0000
0000
0000
0000
0000
0000
0001
0010
0100
0000
0010
0000
0000
0000
0100
0000
,
0000
0010
0100
1000
0000
0000
1000
0100
,
1000
0001
0100
0010
0100
0001
1000
0100
,
1000
0001
1000
0010
1200
0000
0310
0002
,
0000
0000
1000
0000
0003
0000
0010
1000
0010
0000
0100
0000
0000
0000
1000
0000
,
0000
0001
0100
0020
0000
1030
1000
0001
,
0100
0001
0010
1000
0010
0001
1000
0010
,
0100
0001
1000
0001
0200
0000
0310
2000
,
0000
0000
0010
0000
3000
0000
1000
0010
0100
0000
0001
0000
0000
0000
0001
0000
,
0000
1000
0100
0020
0000
0030
0001
0100
,
0001
0010
0100
1000
0100
0010
0001
0100
,
0001
0010
0001
0100
0020
0000
1000
0000
,
1030
0000
0002
0000
0003
1000
0000
0000
0200
0000
0000
0000
0300
0000
0001
0100
,
0002
0000
1003
0001
0100
0010
0100
1000
,
0100
0010
0001
0200
0000
0300
0010
0200
,
0000
0000
0301
0000
1000
0100
0000
0000
2000
0000
0000
0000
0000
0000
0001
0000
,
3000
0000
0002
0000
0003
0000
0010
0000
0200
0000
0000
0000
0300
0000
1000
0010
,
0200
0000
0301
0100
1000
0100
0001
0010
,
1000
0010
0001
0200
0000
0300
0010
2000
,
0000
0000
0100
0000
3100
0000
0000
0000
0001
0000
1000
0010
0000
0010
1000
0000
,
1000
0000
0001
0100
0000
0100
0001
0000
0001
0000
0010
0100
0000
0100
0010
0000
,
1000
0000
0100
0010
0000
0010
0100
0000
0001
0000
1000
0100
0000
0010
0001
0000
,
1000
0000
0100
0010
0000
0100
0010
0000
1000
0000
1000
0001
0000
0001
0100
0000
,
0001
0000
0001
0010
0000
0100
1000
0000
0100
1000
0010
1000
0100
0010
0001
0000
,
0100
0001
0010
0001
0100
0010
1000
0000
0001
0010
0100
0010
1000
0100
1000
0000
,
0010
0100
0001
0100
0010
1000
0001
0010
0100
1000
0001
1000
0100
0010
0001
0000
,
0100
0001
1000
0001
0010
0100
1000
0000
1000
0100
0010
0001
0100
0010
1000
0000
,
0010
0000
0100
0000
0001
0000
1000
0000
0100
0000
0010
0000
1000
0000
0002
0003
0010
0000
1000
0000
0001
0000
0000
0000
0000
0000
0000
0000
0010
0000
0000
0000
,
0001
1000
0100
0000
0000
0000
0100
0000
0010
1000
0010
0000
0000
0000
1000
0000
,
0001
0100
0010
0000
0000
0000
0010
0000
1000
0100
0010
0000
0000
0000
0001
0000
,
0100
0010
1000
0000
0000
0000
1000
0000
0001
0010
0001
0000
0000
0000
0100
0000
,
0001
0100
0010
1000
0001
0010
0001
0000
0100
0001
1000
0000
0000
0000
1000
0000
,
0010
0100
0001
0000
0000
0000
0001
0000
0010
0100
1000
0000
0000
0000
1000
0000
,
0010
0100
0001
0000
0000
0000
0010
0000
0001
1000
0001
0000
0000
0000
1000
0000
,
0001
0100
0010
0000
0000
0000
0001
0000
1000
0100
0010
0000
0000
0000
0100
0000
,
0010
0001
1000
0100
0001
0010
1000
0001
0200
0300
0000
0020
0000
0030
0002
0003
,
2000
0000
0000
0000
3020
0030
0200
0000
0000
0000
0300
0000
0020
0030
2000
0000
,
0000
0000
3000
0000
0200
0000
0000
0000
0302
0023
0032
0000
0000
0000
2003
0000
,
0000
0000
3200
0300
0020
0030
0200
0000
0000
0000
0000
0000
0000
0000
2300
0000
,
0000
0000
3000
0000
0000
0000
0000
0000
0002
0003
0000
0020
0000
0030
0200
0300
,
2000
0000
0000
0000
3020
0030
0200
0000
0000
0000
0300
0000
2000
3000
0200
0000
,
0000
0000
0300
0000
0002
0000
0003
0000
0020
0130
0020
0000
0000
0000
2030
0000
,
3000
0000
0002
0003
0200
0300
0020
0000
0000
0000
0000
0000
0230
0300
0002
0000
,
0000
0000
0000
0000
1003
0100
1000
0100
2000
0000
0000
0000
3010
0000
0002
0000
,
0000
0000
0003
0000
0000
0000
0001
0100
0010
0000
0010
0000
0000
0000
0100
0000
,
0000
0001
1000
0200
0000
0300
0001
0100
,
0001
1000
0100
0010
0001
0100
0001
1000
,
0100
0010
0001
0010
0200
0000
0310
0002
,
0000
0000
0000
0000
0003
0000
1000
0010
0100
0000
0001
0000
0000
0000
0010
0000
,
0000
0001
1000
0200
0000
0300
0010
0100
,
0010
0001
1000
0010
0100
0001
0100
0010
,
1000
0100
0010
0100
0002
0000
1000
1000
,
0003
0000
2000
0000
3000
0200
0000
0300
0020
0000
0000
0000
0030
0000
0001
1000
,
0200
0000
0310
0100
1000
0100
0010
0001
,
0100
0010
1000
0200
0000
0300
0010
0002
,
0000
0000
0100
0000
0103
0010
0000
0000
2000
0000
0000
0000
0000
0000
0000
0000
,
3000
0000
0002
0003
0000
2000
0000
3000
0002
0000
0000
0000
0003
0000
0100
0001
,
0020
0000
0031
0100
0010
1000
0001
0100
,
0010
0100
0001
2000
0000
3000
1000
0002
,
0000
0000
0000
0000
0103
0000
0010
1000
0100
0000
1000
0001
0000
0001
0100
0000
,
0010
0000
1000
0001
0000
0001
0100
0000
0001
0000
0010
0100
0000
0100
0010
0000
,
1000
0000
0100
0010
0000
0010
0100
0000
0001
0000
1000
0001
0000
0010
0100
0000
,
0010
0000
0001
1000
0000
1000
0100
0000
0001
0000
1000
0001
0000
0010
0100
0000
,
0010
0000
0001
1000
0000
1000
0100
0000
0010
0001
0100
0001
1000
0001
0100
0000
,
0010
1000
0100
1000
0001
1000
0100
0000
0001
0010
0100
0010
0001
0100
0010
0000
,
1000
0010
0100
0001
1000
0100
0010
0100
0001
0010
1000
0001
0100
1000
0010
0000
,
0001
1000
0100
1000
0001
0010
0100
0000
0010
0001
1000
0100
1000
0001
0010
0000
,
0001
0000
0010
0000
0100
0000
1000
0000
0010
0000
1000
0000
0001
0000
0200
0300
0010
0000
0010
0000
0020
0000
0000
0000
0030
0000
0000
0000
0000
0000
0000
0000
;

//--------------- dance-single - Lye ----------------
#NOTES:
     dance-single:
     Lye:
     Edit:
     16:
     0,0,0,0,0:
0000
0000
0000
0000
1000
0000
0001
0010
,
0000
0000
0000
0000
0000
0000
1000
0100
0010
0000
0001
0000
0000
0000
0100
0000
,
0000
0001
1000
0010
0000
0000
0001
0100
,
0010
0100
0001
1000
0010
0100
0001
0010
,
0001
0100
0010
1000
0001
0000
1000
0100
,
0000
0000
0000
0000
0000
0000
0001
0010
0100
0000
0010
0000
0000
0000
0100
0000
,
0000
0010
0100
1000
0000
0000
1000
0100
,
1000
0001
0100
0010
0100
0001
1000
0100
,
1000
0000
0000
0000
0001
0000
0000
0000
1000
0000
0100
0000
0010
0000
0001
0000
0100
0000
0000
0000
0002
0003
1000
0000
0100
0000
0000
0000
0020
0030
0000
0000
,
0002
0003
0000
0000
1000
0000
0010
0000
0100
0000
0000
0000
0010
0000
1000
0000
0010
0000
0000
0000
0200
0300
0001
0000
0010
0000
0000
0000
0002
0003
0000
0000
,
2000
3000
0000
0000
0001
0000
0020
0030
0100
0000
0000
0000
2000
3000
0000
0000
0010
0000
1000
0000
0200
0300
1000
0000
0100
0000
1000
0000
0002
0003
0000
0000
,
0200
0300
0000
0000
0001
0000
1000
0000
0010
0000
0000
0000
1000
0000
0000
0000
0010
0000
0100
0000
0002
0003
0010
0000
0100
0000
0000
0000
0020
0030
0000
0000
,
0200
0300
0000
0000
1000
0000
0002
0003
1000
0000
0000
0000
0002
0003
0000
0000
0100
0000
0010
0000
2000
3000
0001
0000
0010
0000
0000
0000
0002
0003
0000
0000
,
0200
0300
0000
0000
0010
0000
1000
0000
0010
0000
0100
0000
0001
0000
0010
0000
0100
0000
0000
0000
2000
3000
0010
0000
0100
0000
0001
0000
0020
0030
0000
0000
,
0200
0300
1000
0000
0010
0000
2000
3000
0100
0000
0010
0000
0200
0300
0000
0000
0001
0000
0010
0000
0200
0300
0020
0030
0001
0000
1000
0000
0200
0300
0000
0000
,
0020
0000
0031
0000
0010
0000
0001
0000
0100
0000
0010
0000
1000
0000
0001
0000
0100
0000
0000
0000
0020
0030
0002
0003
0100
0000
1000
0000
0200
0300
0000
0000
,
0002
0003
0100
0000
0020
0030
0100
0000
0001
0000
0010
0000
0200
0300
0000
0000
0010
0000
0000
0000
0020
0030
0001
0000
1000
0000
0100
0000
0020
0030
0000
0000
,
2000
3000
0001
0000
0100
0000
0010
0000
0100
0000
0010
0000
1000
0000
0001
0000
0100
0000
0000
0000
0002
0003
0010
0000
0001
0000
1000
0000
0002
0003
0100
0000
,
0002
0003
1000
0000
0010
0000
0200
0300
0001
0000
1000
0000
0020
0030
0000
0000
0100
0000
0000
0000
0020
0030
1000
0000
0100
0000
0010
0000
0002
0003
0000
0000
,
0200
0300
0000
0000
0010
0000
1000
0000
0001
0000
0010
0000
0100
0000
0000
0000
0010
0000
1000
0000
0020
0030
0100
0000
0010
0000
1000
0000
0002
0003
0100
0000
,
0020
0030
1000
0000
0001
0000
0200
0300
0010
0000
1000
0000
0020
0030
0100
0000
0001
0000
0000
0000
0002
0003
0010
0000
0100
0000
0010
0000
0002
0000
0013
0000
,
0200
0000
0310
0000
0100
0000
1000
0000
0001
0000
0100
0000
0010
0000
0000
0000
0100
0000
0001
0000
0020
0030
0001
0000
1000
0000
0100
0000
2000
3000
0010
0000
,
0200
0300
0001
0000
0100
0000
0020
0030
1000
0000
0000
0000
0200
0300
0000
0000
1000
0000
0001
0000
0200
0300
0000
0000
0001
0000
0000
0000
0020
0030
0000
0000
,
0002
0003
0100
0000
0010
0000
0000
0000
1000
0000
0010
0000
0100
0000
0001
0000
0100
0000
0010
0000
2000
3000
0100
0000
0010
0000
0100
0000
2000
3000
0001
0000
,
0020
0030
0001
0000
0010
0000
0100
0000
1000
0000
0001
0000
0100
0000
0010
0000
1000
0000
0100
0000
0020
0030
0001
0000
0000
0000
0010
0000
0002
0003
0000
0000
,
2000
3000
0010
0000
0100
0000
0001
0000
0000
0000
0001
0000
0100
0000
0000
0000
0001
0000
1000
0000
0020
0030
0100
0000
0000
0000
0100
0000
0020
0030
0000
0000
,
2000
3000
0001
0000
0010
0000
0200
0300
0000
0000
0100
0000
0020
0030
0000
0000
0010
0000
0001
0000
2000
3000
0100
0000
0000
0000
0010
0000
0002
0003
0000
0000
,
2000
3000
0001
0000
0100
0000
0010
0000
0000
0000
0100
0000
0010
0000
0000
0000
1000
0000
0100
0000
0020
0030
0001
0000
0000
0000
0100
0000
0002
0003
0000
0000
,
0002
0003
0100
0000
0001
0000
0200
0300
0000
0000
0010
0000
2000
3000
0000
0000
0100
0000
1000
0000
0020
0030
1000
0000
0100
0000
0010
0000
0002
0003
0000
0000
,
0200
0300
0001
0000
0010
0000
0001
0000
0100
0000
0010
0000
1000
0000
0000
0000
0001
0000
0010
0000
0200
0300
0010
0000
0001
0000
1000
0000
0200
0300
0000
0000
,
0020
0030
0100
0000
0001
0000
0200
0300
0010
0000
1000
0000
0002
0003
0010
0000
0001
0000
1000
0000
0200
0300
1000
0000
0100
0000
0010
0000
0002
0003
0000
0000
,
0200
0300
0001
0000
1000
0000
0001
0000
0010
0000
0100
0000
1000
0000
0000
0000
1000
0000
0100
0000
0020
0030
0001
0000
0100
0000
0010
0000
2000
3000
0000
0000
,
0020
0030
0100
0000
0001
0000
1000
0000
0100
0000
0010
0000
0001
0000
0200
0300
0010
0000
1000
0000
0001
0000
0100
0000
0010
0000
1000
0000
0010
0000
0000
0000
,
0100
1000
0100
0010
1000
0001
0100
0000
0010
1000
0010
0100
0001
0010
0100
0000
,
1000
0100
0010
0001
1000
0001
0010
0100
1000
0100
0010
0100
0010
0001
1000
0000
,
0100
0010
0001
0010
0100
1000
0001
0000
0001
0010
0100
0010
0001
1000
0010
0000
,
0100
0001
0010
0100
1000
0010
0100
0010
0100
0001
1000
0100
0010
0100
1000
0000
,
0010
0100
0001
0010
0100
0010
0001
0000
0010
0100
1000
0100
0010
0100
1000
0000
,
0001
0010
0100
0010
0001
0100
0010
0100
0010
1000
0001
0010
0100
1000
0001
0000
,
0100
0010
0100
0001
1000
0100
0010
0000
0001
0100
0010
1000
0010
0100
0001
0000
,
0010
0001
1000
0100
0010
0001
1000
0001
0020
0030
0000
0200
0300
0000
2000
3000
,
0002
0000
0000
0000
0023
0030
0200
0000
0000
0000
0300
0000
0020
0030
2000
0000
,
0000
0000
3000
0000
0200
0000
0000
0000
2300
3020
0230
0000
0000
0000
0302
0000
,
0000
0000
2003
3000
0020
0030
0200
0000
0000
0000
0000
0000
0000
0000
0302
0000
,
0000
0000
0000
0000
0003
0000
0000
0000
0002
0003
0000
0020
0030
0000
0200
0300
,
2000
0000
0000
0000
3020
0030
0200
0000
0000
0000
0300
0000
2000
3000
0200
0000
,
0000
0000
0300
0000
0002
0000
0003
0000
0020
0230
0320
0000
0000
0000
2030
0000
,
3000
0000
0002
0003
0200
0300
0020
0000
0000
0000
0000
0000
0230
0300
0002
0000
,
0000
0000
0003
0000
1000
0000
0100
0000
1000
0000
0100
0000
1000
0000
0100
0000
1000
0000
0000
0000
0200
0300
0010
0000
0001
0000
0000
0000
2000
3000
0000
0000
,
0200
0300
0010
0000
0100
0000
0010
0000
0001
0000
0010
0000
0100
0000
1000
0000
0010
0000
0000
0000
0020
0030
0100
0000
0001
0000
0000
0000
0200
0300
0000
0000
,
0020
0030
0001
0000
1000
0000
0200
0300
1000
0000
0010
0000
0200
0300
0000
0000
1000
0000
0010
0000
0200
0300
0001
0000
1000
0000
0000
0000
0200
0300
0000
0000
,
0002
0003
0010
0000
0100
0000
0010
0000
0100
0000
1000
0000
0010
0000
0100
0000
0001
0000
0000
0000
0200
0300
0010
0000
1000
0000
0000
0000
0002
0003
0000
0000
,
0200
0300
0010
0000
1000
0000
0002
0003
0100
0000
0010
0000
2000
3000
0001
0000
0100
0000
0000
0000
0020
0030
1000
0000
0001
0000
0010
0000
0200
0300
0000
0000
,
0200
0300
0000
0000
0010
0000
0001
0000
0100
0000
0010
0000
1000
0000
0010
0000
0100
0000
0000
0000
0020
0030
0100
0000
0001
0000
0100
0000
0020
0030
0000
0000
,
0200
0300
0010
0000
1000
0000
0020
0030
0100
0000
0001
0000
2000
3000
0000
0000
0010
0000
0000
0000
0200
0300
0001
0000
0010
0000
0100
0000
2000
3000
0000
0000
,
0020
0030
0100
0000
0001
0000
1000
0000
0010
0000
0100
0000
0010
0000
0000
0000
0100
0000
0000
0000
0002
0003
1000
0000
0100
0000
1000
0000
0020
0030
0000
0000
,
2000
3000
0001
0000
0100
0000
0020
0030
1000
0000
0001
0000
0200
0300
0010
0000
1000
0000
0010
0000
0200
0300
0001
0000
1000
0000
0010
0000
2000
3000
0000
0000
,
0200
0300
0000
0000
1000
0000
0010
0000
0100
0000
0001
0000
0010
0000
0001
0000
0010
0000
0000
0000
0200
0300
1000
0000
0010
0000
0100
0000
0002
0003
0010
0000
,
0002
0003
0000
0000
1000
0000
0200
0300
0010
0000
0100
0000
0020
0030
0001
0000
1000
0000
0010
0000
0200
0300
0000
0000
0010
0000
0000
0000
2000
3000
0010
0000
,
0200
0300
0001
0000
0010
0000
0000
0000
0001
0000
0000
0000
0100
0000
0010
0000
0100
0000
0001
0000
2000
3000
0100
0000
0010
0000
0000
0000
0002
0003
0000
0000
,
2000
3000
0000
0000
0100
0000
0020
0030
0100
0000
0010
0000
0002
0003
0000
0000
1000
0000
0000
0000
0020
0030
0100
0000
0010
0000
1000
0000
0002
0003
0000
0000
,
0200
0300
0000
0000
0010
0000
0100
0000
0001
0000
1000
0000
0100
0000
0010
0000
0001
0000
0000
0000
0200
0300
0010
0000
0001
0000
0010
0000
0200
0300
1000
0000
,
0020
0030
0000
0000
0100
0000
0020
0030
1000
0000
0000
0000
0002
0003
0000
0000
0010
0000
0001
0000
2000
3000
0100
0000
0010
0000
0000
0000
0200
0300
0000
0000
,
0020
0030
0001
0000
0100
0000
0010
0000
1000
0000
0000
0000
0100
0000
1000
0000
0010
0000
0100
0000
0002
0003
0010
0000
0100
0000
1000
0000
0020
0030
0100
0000
,
0002
0003
1000
0000
0010
0000
0100
0000
0010
0000
1000
0000
0001
0000
0100
0000
0001
0000
0100
0000
0002
0003
1000
0000
0000
0000
0001
0000
0200
0300
0000
0000
,
0020
0030
0100
0000
0001
0000
0100
0000
0000
0000
0010
0000
1000
0000
0000
0000
0001
0000
1000
0000
0020
0030
0100
0000
0000
0000
0100
0000
0020
0030
0000
0000
,
2000
3000
0001
0000
0100
0000
0020
0030
0000
0000
0010
0000
0200
0300
0000
0000
0001
0000
0010
0000
0200
0300
1000
0000
0000
0000
0010
0000
0200
0300
0000
0000
,
0020
0030
0100
0000
0001
0000
1000
0000
0000
0000
1000
0000
0100
0000
0000
0000
1000
0000
0001
0000
2000
3000
0100
0000
0000
0000
0010
0000
0200
0300
0000
0000
,
0020
0030
0001
0000
1000
0000
0020
0030
0000
0000
0010
0000
0200
0300
0000
0000
0010
0000
1000
0000
0200
0300
1000
0000
0001
0000
0010
0000
0200
0300
0000
0000
,
0020
0030
1000
0000
0100
0000
1000
0000
0001
0000
1000
0000
0100
0000
0000
0000
0001
0000
0010
0000
0200
0300
0010
0000
0001
0000
0100
0000
0020
0030
0000
0000
,
2000
3000
0010
0000
0100
0000
0002
0003
1000
0000
0100
0000
0020
0030
0100
0000
0010
0000
0001
0000
0200
0300
0001
0000
0100
0000
0010
0000
2000
3000
0000
0000
,
0002
0003
1000
0000
0100
0000
1000
0000
0001
0000
0010
0000
0100
0000
0000
0000
0010
0000
0001
0000
2000
3000
0100
0000
1000
0000
0001
0000
0020
0030
0000
0000
,
0002
0003
0010
0000
0100
0000
1000
0000
0010
0000
1000
0000
0001
0000
0200
0300
0020
0030
0200
0300
0002
0003
0000
0000
0000
0000
0000
0000
0000
0000
0000
0000
;
