#TITLE:Quien Paga;
#SUBTITLE:;
#ARTIST:Pieri;
#TITLETRANSLIT:;
#SUBTITLETRANSLIT:;
#ARTISTTRANSLIT:;
#GENRE:;
#CREDIT:;
#MUSIC:Quien Paga.ogg;
#BANNER:quien-paga-bn.png;
#BACKGROUND:quien-paga-bg.png;
#CDTITLE:;
#SAMPLESTART:5.567;
#SAMPLELENGTH:16.034;
#SELECTABLE:YES;
#OFFSET:1.330;
#BPMS:0.000=87.000
,8.000=174.000
,44.000=348.000
,45.000=174.000
,172.000=348.000
,173.000=174.000
,300.000=348.000
,301.000=174.000
,333.000=217.500
,334.000=348.000
;
#STOPS:44.000=0.086
,44.500=0.086
,172.000=0.086
,172.500=0.086
,300.000=0.172
;
#DISPLAYBPM:174.000;
#BGCHANGES:2.330=quien paga.avi=1.000=1=0=0=StretchNoLoop==CrossFade==,
99999.000=-nosongbg-=1.000=0=0=0=StretchNoLoop====
;
#FGCHANGES:;

//--------------- dance-single - Lye ----------------
#NOTES:
     dance-single:
     Lye:
     Easy:
     5:
     0,0,0,0,0:
0000
0000
0020
0000
,
0000
0000
0000
0000
,
0000
0000
0000
0000
0000
0000
0000
0030
,
1000
0100
0010
0000
,
0001
0100
0010
0000
,
0100
0010
1000
0010
,
0000
0100
0001
0000
,
1000
0100
1000
0100
,
0000
1000
0010
0000
,
0100
0001
0001
0010
,
0100
1000
0010
0000
,
0000
0010
0100
0000
,
0001
0100
0010
0000
,
1000
0100
0010
0100
,
0000
1000
0010
0000
,
0100
0001
0100
0010
,
0000
0100
0001
0000
,
0010
0100
0100
0000
,
1000
0000
0010
0000
0020
0000
0000
0030
,
0000
1000
0010
0000
,
0100
0000
0020
0030
2000
3000
0000
0000
,
0010
0000
0100
0000
,
0100
0000
0020
0030
2000
3000
0000
0000
,
1000
0000
0100
0000
,
0010
0000
0020
0030
0002
0003
0000
0000
,
0100
0000
0001
0000
,
0010
0000
0200
0300
2000
3000
0000
0000
,
0100
0000
0000
0000
0020
0030
0000
0000
,
0100
0000
0020
0030
0020
0030
0000
0000
,
0001
0000
1000
0000
,
0010
0000
0200
0300
0002
0003
0000
0000
,
0010
0000
0100
0000
,
1000
0000
1000
0000
,
0010
0000
0100
0000
,
0002
0000
0003
0000
0020
0030
0000
0000
,
0100
1000
0010
0000
,
0100
0010
1000
0000
,
0010
0010
1000
0001
,
0000
0100
0001
0000
,
0001
0010
0100
1000
,
0000
0100
0010
0000
,
0001
0100
0001
0000
,
0010
0100
0020
0030
,
0000
0100
1000
0000
,
0010
0000
2000
3000
0010
0000
0000
0000
,
0100
0001
0010
0010
,
0000
0001
0100
0000
,
0100
0010
1000
1000
,
0000
0100
1000
0000
,
0010
0100
0010
0000
,
1000
0001
0100
0000
,
0000
0100
0001
0010
,
0100
0100
1000
0020
,
0000
0030
0100
0000
0001
0000
0100
0000
,
0010
0000
1000
0000
0200
0000
0000
0300
,
0000
0010
0001
0010
,
0001
1000
0100
0010
,
0001
0100
0100
0001
,
0001
0010
0200
0000
,
0300
1000
0010
0100
,
0010
0010
0100
0002
,
0003
0010
0010
0100
,
1000
0000
0100
0000
0020
0000
0000
0030
,
0000
0100
1000
0010
,
0100
0100
0001
0100
,
0010
0100
0001
1000
,
0002
0013
0200
0300
,
0000
0100
0010
0000
,
0000
0001
0100
0000
,
0010
0010
0100
0001
,
0000
0010
0001
0000
,
0100
0010
1000
1000
,
0000
0100
0010
0000
,
0001
0100
0010
1000
,
0010
1000
0200
0000
,
0300
0000
0010
0000
,
0010
0001
0001
0000
,
0010
0010
0100
1000
,
0000
0010
0100
0000
,
0001
0010
0100
1000
,
0000
0010
0100
0000
,
0001
0001
0010
0000
,
0100
1000
0200
0000
,
0000
0000
0000
0000
,
0000
0000
0000
0300
;

//--------------- dance-single - Lye ----------------
#NOTES:
     dance-single:
     Lye:
     Medium:
     10:
     0,0,0,0,0:
0000
0000
0020
0000
,
0000
0000
0000
0000
,
0032
0003
0002
0003
0002
0000
0000
0003
,
1100
0000
0100
0000
0010
0002
0003
0001
,
1000
0000
0001
0000
0100
0020
0030
0000
,
0100
0010
1000
0000
0010
0100
0001
0000
,
0001
0000
0100
0000
0010
1000
0100
0000
,
1000
0010
0100
0000
0010
0100
0001
0000
,
0001
0000
0100
0000
0010
2000
3000
0000
,
0100
0010
0001
0000
0001
0100
0010
0000
,
1000
0100
1000
0000
0010
0002
0003
0000
,
0100
0100
0010
0000
1000
0020
0030
0100
,
0001
0000
0100
0000
0010
0200
0300
0000
,
0001
0100
0010
0000
0010
1000
0100
0000
,
0010
0000
0001
0000
0100
0010
1000
0000
,
0100
0000
1000
0000
0010
0100
0001
0000
,
0100
0000
0010
0000
1000
0200
0300
0100
,
1000
0000
0010
0100
0001
0000
0100
0010
,
1000
0000
0010
1000
0010
0200
0000
0300
,
0001
0000
1000
0100
0010
0000
0100
0000
,
1000
0001
0020
0030
0200
0300
1000
0100
,
0010
0000
0100
0010
0001
0000
0100
0000
,
0010
1000
0010
0000
0200
0300
0001
0000
,
1000
0010
1000
0000
0100
1000
0100
0000
,
0010
0001
0010
0000
0200
0300
2000
3000
,
0010
0100
0001
0000
0010
0100
1000
0000
,
0010
0100
0001
0000
1000
0001
0020
0030
,
0200
0300
0010
0001
0020
0030
0002
0003
,
0100
0010
2000
3000
2000
3000
0010
0100
,
0001
0000
0010
0100
1000
0000
0010
0100
,
0010
0000
0100
0010
2000
3000
0002
0003
,
0010
0000
0010
0100
1000
0000
0010
1000
,
0010
0000
0100
0010
0100
0000
0001
0100
,
0010
0000
0010
1000
0001
0000
1000
0010
,
0100
0000
0100
0010
1000
0000
0100
0010
,
0002
0003
0100
0000
0010
0200
0300
0001
,
0100
0000
0020
0030
1000
0200
0300
0000
,
0010
0001
1000
0000
0010
1000
0100
0000
,
0010
0000
0100
0000
1000
0001
0100
0000
,
0010
0100
0010
0000
0100
0010
1000
0000
,
0001
0000
0100
0000
0010
0200
0300
0010
,
1000
0000
0100
0010
0100
0000
1000
0100
,
0010
0000
0100
0001
0010
0002
0000
0003
,
0010
0010
0100
0000
1000
0020
0030
0100
,
0010
0000
2000
3000
0010
0200
0000
0300
,
0001
0010
0001
0000
0010
0001
0010
0000
,
0100
0000
1000
0000
0100
0010
0001
0000
,
0100
0010
0100
0000
0001
0100
0010
0000
,
1000
0000
0100
0000
0100
0020
0030
0001
,
1000
0000
0010
0100
0001
0000
0010
0100
,
0100
0000
1000
1000
0100
0020
0000
0030
,
0001
0000
0100
0100
0020
0030
0100
0001
,
2000
3000
2000
3000
0100
0010
0002
0000
,
1000
0003
0010
0100
0010
0000
2000
3000
,
0010
0100
0001
0000
0020
0000
0000
0030
,
0100
0000
1000
0010
0200
0300
0010
0100
,
0002
0003
0020
0030
0100
1000
0200
0000
,
1300
0010
0100
0000
0100
0000
0001
0000
,
0001
0001
0010
0000
0200
0000
0300
0000
,
1000
0000
0001
1000
0020
0030
0100
0001
,
2000
3000
0020
0030
0100
0001
0200
0000
,
0300
0000
0010
1000
0010
0000
0200
0300
,
0001
1000
0100
0000
0020
0000
0030
0000
,
0100
0000
1000
0010
0200
0300
0001
0100
,
0002
0003
0020
0030
0001
1000
0200
0300
,
1000
0010
0100
0000
0001
0000
0100
0010
,
1000
0000
0010
1000
0200
0000
0300
0000
,
0010
0000
0100
0000
1000
0020
0030
0000
,
0000
0000
0100
0000
0100
0002
0003
0000
,
0010
0100
0010
0000
0100
0010
0001
0000
,
0010
0000
0100
0000
1000
0010
0100
0000
,
0100
0010
1000
0000
0100
0010
0001
0000
,
0010
0000
0100
0000
0010
0100
0000
0100
,
1000
0000
0010
0100
0001
0000
0010
0100
,
0010
0000
1000
0001
0100
0200
0000
0000
,
0300
0000
0000
0000
0010
1000
0000
0100
,
0010
0000
0001
0000
0001
0200
0300
0000
,
0010
0100
0010
0000
1000
0001
0100
0000
,
0010
0100
0002
0003
0010
0000
0100
0000
,
1000
0100
0010
0000
0100
1000
0010
0000
,
0100
0000
0002
0003
0010
0200
0300
0010
,
0001
0000
0001
0100
0010
0000
1000
1000
,
0010
0100
0001
0001
0010
0200
0000
0000
,
0000
0000
0000
0000
,
0000
0000
0000
0300
;

//--------------- dance-single - Lye ----------------
#NOTES:
     dance-single:
     Lye:
     Hard:
     12:
     0,0,0,0,0:
0000
0000
0002
0000
,
0000
0000
0000
0000
,
0023
0030
0020
0030
0020
0000
0000
0030
,
1100
0000
0100
0000
0010
0002
0003
0100
,
0010
0000
1000
0000
0100
0020
0030
0000
,
0100
0010
0001
0001
0010
0100
1000
0002
,
0003
0000
0200
0300
0010
1000
0100
0000
,
1000
0010
0100
0001
0010
0100
1000
2000
,
3000
0000
1000
0000
0100
0020
0030
0001
,
0100
0010
1000
0100
0010
0001
0100
0010
,
1000
0100
1000
0010
0100
0002
0003
0000
,
0101
0101
0100
0000
0010
2000
3000
1000
,
0010
0000
0010
0000
1000
0200
0300
0000
,
0010
0001
0100
0001
0010
0100
1000
0020
,
0030
0000
0100
0000
0001
0010
0100
1000
,
0100
0010
0100
1000
0001
0100
0010
0200
,
0300
0000
0001
0000
0100
0020
0030
1000
,
0100
0010
0001
0100
0001
0010
0100
0010
,
0001
0100
0010
1000
0010
0200
0000
0300
,
0001
0000
1000
0100
0010
0100
1000
0000
,
0010
0100
0002
0003
0200
0300
0010
0100
,
0010
0100
0001
0000
0001
0010
0100
0000
,
1000
0001
0100
0001
0020
0030
0200
1300
,
0010
1000
0100
0000
0010
0001
0010
0000
,
0001
0010
0100
1000
0020
0030
2000
3000
,
0100
0010
0001
0100
0010
0000
0100
0001
,
0010
0000
0100
1000
0010
0001
0200
0300
,
0002
0003
0010
0100
0020
0030
0002
0003
,
0100
0010
2000
3000
2000
3000
0010
0100
,
0010
1000
0100
0000
1000
0010
0100
0000
,
0001
0010
0100
0010
0002
0003
0200
0300
,
0000
0000
0010
1000
0100
1000
0100
0010
,
0001
0010
0001
0010
0100
1000
0010
0100
,
0001
0000
0100
0010
1000
0010
1000
0100
,
0010
0100
0010
0100
1000
1000
0010
0100
,
0002
0003
0100
0000
0010
0020
0030
0100
,
0010
0000
2000
3000
0010
0200
0300
0000
,
0010
1000
0100
0010
0001
1000
0100
2000
,
3000
0010
0100
0000
0100
0010
1000
0100
,
0010
0100
0010
0001
0100
0010
1000
0002
,
0003
0000
0010
0000
0100
2000
3000
0010
,
0100
0100
0010
1000
0001
0100
0010
0100
,
0010
1000
0100
0010
0001
0200
0000
0300
,
0011
0011
0001
0000
0100
0200
0300
0010
,
1000
0000
0002
0003
0010
0200
0000
0300
,
1000
0010
1000
0001
0100
0010
1000
2000
,
3000
0000
0100
0000
0010
0001
0001
0100
,
0001
0010
0100
0010
0001
0100
0010
2000
,
3000
0000
0100
0000
0100
0020
0030
0001
,
0010
0100
0010
0001
0100
0010
1000
0010
,
0100
0010
1000
0100
0100
0020
0000
0030
,
0001
0000
0100
0100
0020
0030
0100
0001
,
2000
3000
2000
3000
0100
0010
0002
0000
,
1000
0003
0100
0010
0100
1000
0020
0030
,
0100
0001
1000
0001
0020
0000
0001
0030
,
0100
0000
1000
0010
0200
0300
0001
0100
,
0020
0030
2000
3000
0100
0010
0002
0000
,
0013
0100
0010
0001
1000
0100
0010
0001
,
0100
0100
0001
0010
0200
0000
0300
0000
,
1000
0000
0010
1000
0020
0030
0100
0001
,
0020
0030
0200
0300
1000
0100
0020
0000
,
0030
0000
0001
1000
0010
0100
0002
0003
,
1000
0001
0100
0001
0020
0000
0030
0000
,
0100
0000
1000
0010
0200
0300
0001
0100
,
0002
0003
0020
0030
0001
1000
0200
0300
,
0010
0001
0010
0100
0010
0100
1000
0010
,
1000
0001
0100
0010
0200
0000
0300
0000
,
0000
0010
1000
0000
1000
0002
0003
0000
,
0000
0000
0100
0000
0010
2000
3000
0000
,
0010
0100
0010
1000
0001
0010
0001
0100
,
0010
1000
0200
0300
1000
0010
0100
0001
,
1000
0100
1000
0010
0100
0001
0100
0100
,
0000
0000
0200
0300
0010
2000
3000
0100
,
1000
1000
0010
0100
0001
0001
0010
0100
,
2000
3000
2000
3000
2000
3000
0001
0000
0100
0000
0002
0000
0000
0000
0000
0000
,
0003
0000
MMMM
0000
1000
0200
0300
0100
,
0010
0000
0001
0000
0001
0200
0300
0000
,
0010
0100
0010
1000
0100
0010
0001
0000
,
0010
0100
2000
3000
0010
0100
0001
0000
,
1000
0100
0010
0001
0100
0001
0010
0002
,
0003
0000
2000
3000
0001
0200
0300
0010
,
1000
1000
0100
0010
0100
1000
0001
0100
,
0010
0100
0001
0001
0010
0200
0000
0000
,
0000
0000
0000
0000
,
0000
0000
0000
0300
;

//--------------- dance-single - Lye ----------------
#NOTES:
     dance-single:
     Lye:
     Challenge:
     13:
     0,0,0,0,0:
0000
0000
2000
0000
,
0000
0000
0000
0000
,
3001
0000
0200
0320
0130
0001
0002
0000
,
0113
0000
0100
0010
1000
0000
1000
0000
0001
0000
0002
0000
0103
0000
0010
0000
,
1000
0000
0001
0000
0100
0020
0030
0000
,
1000
0100
0010
0001
1000
0100
0010
0001
,
0000
0000
0000
0010
0001
0000
0100
0000
0010
0000
1000
0000
0100
0010
0100
0000
,
1000
0010
0100
0001
0010
0100
1000
1000
,
0000
0000
0000
0010
1000
0000
0000
0000
0100
0000
0020
0000
0030
0000
0001
0000
,
0100
0010
1000
0100
0010
0001
0100
0010
,
1000
0100
1000
0010
0100
0002
0003
0000
,
1010
0000
1010
0000
0010
0100
0001
0000
1000
0000
0020
0000
0030
0000
0100
0000
,
0001
0010
0001
0000
1000
0200
0300
0000
,
1000
0010
0100
0001
0010
0100
1000
0020
,
0030
0000
0000
0000
0100
0000
0000
0000
0001
0000
0010
0000
0001
0010
0100
0000
,
1000
0010
0100
0001
1000
0100
0010
0200
,
0300
0000
1000
0000
0001
0020
0030
0100
,
1000
0010
1000
0100
1000
0010
0100
0010
,
1000
0100
0010
0001
1000
0200
0000
0300
,
1000
0000
1000
0100
0010
0100
1000
0010
,
0100
0001
0020
0030
0200
0300
1000
0100
,
0010
0100
0010
0100
1000
0100
1000
0010
,
0100
0000
0001
0000
0100
0000
0001
0000
0020
0000
0030
0000
0100
0000
1000
0100
,
1000
0010
1000
0100
1000
0010
0010
0100
,
0001
0000
0010
0000
0100
0000
1000
0000
0020
0000
0030
0000
2000
0000
3000
0001
,
0100
0010
1000
0100
0010
0001
0100
0001
,
0010
0100
1000
0100
1000
0001
0200
0300
,
0002
0003
0010
0100
0020
0030
0002
0003
,
0100
0000
0010
0000
2000
0000
3000
0000
2000
0000
3000
0001
0010
0000
0100
0000
,
1000
0000
0010
0000
1000
0000
0100
0000
1000
0000
0100
1000
0010
0000
0100
0000
,
0001
0010
0100
0010
0002
0003
0200
0300
,
0010
0000
1000
0100
1000
0010
1000
0010
,
1000
0010
0100
0010
0100
0010
0100
0001
,
0010
0000
0100
1000
0001
0010
0001
1000
,
0100
0010
0001
0000
0100
0000
0010
0000
1000
0000
1000
0000
0010
0000
0100
0000
,
0002
0000
1003
0000
0100
1000
0100
0000
0010
0000
0020
0000
0030
0000
0000
0001
,
0100
0010
1000
0000
0010
0200
0300
0000
,
0010
1000
0100
0010
0001
1000
0100
1000
,
0000
0000
0000
0001
0100
0000
0000
0000
0010
0000
1000
0000
0100
1000
0100
0000
,
0010
0100
0010
0001
0100
0010
1000
1000
,
0000
0000
0000
0010
1000
0000
0000
0000
0001
0000
0200
0000
0300
0000
0010
0000
,
1000
1000
0100
0010
0001
0001
0100
0100
,
0010
1000
0001
0100
0010
2000
0000
3000
,
1100
1100
0100
0010
0001
0002
0003
0100
,
0010
1000
0002
0003
0010
0200
0000
0300
,
1000
0010
1000
0001
0100
0010
1000
1000
,
0000
0000
0000
0000
0100
0000
0000
0000
0010
0000
0001
0000
0001
0100
0010
0000
,
1000
0100
1000
0010
0100
0001
0010
0001
,
0000
0000
0100
0000
0100
0020
0030
1000
,
0010
0100
0001
0010
0100
1000
0010
0100
,
0100
0010
1000
1000
0100
0020
0000
0030
,
0001
0000
0100
0100
0020
0030
0100
0001
,
2000
3000
2000
3000
0100
0010
0002
0000
,
1000
0003
0100
0010
0100
1000
0020
0030
,
0100
0001
1000
0001
0020
0000
0001
0030
,
0100
0100
0010
1000
0200
0300
1000
0001
,
2000
3000
0020
0030
0100
0001
0200
0000
,
0310
1000
0010
1000
0100
0010
0001
0100
,
0001
0010
0001
0000
1000
0000
0010
0000
0200
0000
0302
0000
0100
0000
0003
0000
,
0010
0000
1000
1000
0020
0030
0100
0001
,
2000
3000
0020
0030
0100
0001
0200
0000
,
0300
0000
0010
1000
0010
0100
0002
0003
,
1000
0001
0100
0001
0020
0000
0030
0000
,
0100
0000
1000
0010
0200
0300
0001
0100
,
0002
0003
0020
0030
0001
1000
0200
0300
,
1000
0010
0100
0010
1000
0001
0100
0010
,
1000
0001
0100
0000
0010
0000
1000
0000
0200
0000
1000
0000
0300
0000
0000
0000
,
0010
0000
1000
0001
0100
0000
0000
0000
0001
0000
0020
0000
0030
0000
0000
0000
,
0000
0000
0100
0000
0100
2000
3000
0000
,
0010
0100
0010
1000
0001
0010
0001
0100
,
0010
0000
1000
0000
0100
0000
0000
0000
1000
0000
0010
0100
0001
0000
0001
0000
,
1000
0100
1000
0010
0100
0001
0100
0100
,
0000
0000
0000
0010
0100
0000
0001
0000
0010
0000
0100
0000
0000
0000
0100
0000
,
1000
1000
0010
0100
0001
0001
0010
0100
,
0020
0030
0020
0030
0020
0030
0001
0000
0200
0300
0200
0000
0000
0000
0000
0000
,
0300
0000
MMMM
0000
0010
1000
1000
0100
,
0010
0000
0000
0000
0001
0000
0000
1000
0001
0000
0200
0000
0300
0000
0000
0000
,
0010
0100
0010
1000
1000
0010
0100
0001
,
0010
0000
0100
0000
2000
0000
3000
0000
0010
0000
0100
0000
0001
0100
0010
0000
,
1000
0100
0010
0001
0100
0001
0010
0002
,
0003
0000
2000
3000
0001
0200
0300
0010
,
1000
1000
0001
0100
0010
0100
0001
1000
,
0010
0100
0001
0001
0010
0200
0000
0000
,
0000
0000
0000
0000
,
0000
0000
0000
0300
;
