#TITLE:Ordinary Pleasure;
#SUBTITLE:;
#ARTIST:Toro Y Moi;
#TITLETRANSLIT:;
#SUBTITLETRANSLIT:;
#ARTISTTRANSLIT:;
#GENRE:;
#CREDIT:;
#MUSIC:ordinary-pleasure.ogg;
#BANNER:ordinary-pleasure-bn-02.png;
#BACKGROUND:ordinary-pleasure-bg.png;
#CDTITLE:;
#SAMPLESTART:50.557;
#SAMPLELENGTH:26.880;
#SELECTABLE:YES;
#OFFSET:1.377;
#BPMS:0.000=114.954;
#STOPS:;
#BGCHANGES:2.377=ordinary-pleasure-mv.avi=1.000=1=0=0=StretchNoLoop==CrossFade==,
99999.000=-nosongbg-=1.000=0=0=0=StretchNoLoop====
;
#FGCHANGES:;

//--------------- dance-single - Lye ----------------
#NOTES:
     dance-single:
     Lye:
     Easy:
     3:
     0,0,0,0,0:
0000
0000
0000
0000
,
0000
0000
0000
0000
,
0000
0000
0000
0000
,
0000
0000
0000
0000
,
0000
0000
0000
0000
,
0000
0000
0000
0000
,
0000
0000
0000
0000
,
0000
0000
0000
0000
,
0000
0000
0000
0000
,
1000
0000
0001
0000
,
0100
0000
0010
0000
,
1000
0000
0001
0000
,
0100
0000
0010
1000
,
0001
0000
1000
0000
,
0100
0000
1000
0000
,
0010
0000
0100
0000
,
0001
0000
1000
1000
,
0010
0000
1000
0000
,
0001
0000
0100
0000
,
0010
0000
0010
0000
,
1000
0000
1000
0001
,
0100
0000
0010
0000
,
0100
0000
0001
0000
,
1000
0000
0100
0000
,
0010
0000
0001
0100
,
0010
1000
1000
0000
,
0010
0100
0001
0000
,
0010
0100
0100
0000
,
0001
1000
0100
0000
,
0001
0010
0100
0000
,
1000
0010
0100
0000
,
0010
1000
0010
0000
,
0100
0001
0100
0000
,
0010
0000
1000
0000
,
0100
0000
0010
0000
,
0001
0000
0100
0000
,
0010
0000
1000
0000
,
1000
0000
0100
0000
,
0010
0000
0001
0000
,
0001
0000
0010
0000
,
0100
0000
1000
0000
,
0001
0001
1000
0000
,
1000
1000
0001
0000
,
0010
1000
0010
0000
,
0100
0001
0100
0000
,
1000
0100
0010
0000
,
0001
0010
0100
0000
,
0010
0100
0010
0000
,
0100
0010
0100
0000
,
1000
0000
0010
0200
,
0302
0000
0003
2000
,
3200
0000
0010
0000
,
0301
0000
0001
1000
,
0020
0000
0030
0200
,
0320
0000
1030
0200
,
0320
0000
0000
0000
,
0031
0000
1000
1000
,
0020
0000
0030
0000
,
1000
0000
0001
0000
,
0100
0000
0010
0000
,
1000
0000
0001
0001
,
0100
0000
0010
0000
,
1000
0000
0100
0000
,
0010
0000
0100
0000
,
1000
0000
0001
0002
,
0003
0000
0000
0000
;

//--------------- dance-single - Lye ----------------
#NOTES:
     dance-single:
     Lye:
     Medium:
     7:
     0,0,0,0,0:
0000
0000
0000
0000
,
0000
0000
0000
0000
,
0000
0000
0000
0000
,
0000
0000
0000
0000
,
0000
0000
0000
0000
,
0000
0000
0000
0000
,
0000
0000
0000
0000
,
0000
0000
0000
0000
,
0000
0000
0000
0000
,
1000
0100
0010
0001
,
1000
0000
0100
0000
0001
0010
0001
0000
,
1000
0100
1000
0001
,
1000
0000
0100
0000
0001
0010
0100
0000
,
0001
0100
0010
1000
,
0001
0000
0100
0000
0010
1000
0010
0000
,
0001
0100
0100
0010
,
0001
0000
0100
0000
0100
1000
0010
0000
,
0001
0001
1000
1000
,
0100
0000
0010
0000
0100
0010
0001
0000
,
1000
0100
0010
0001
,
1000
0000
0100
0000
0001
0010
0100
0000
,
0001
0100
1000
0010
,
0001
0000
0100
0000
0010
0001
1000
0000
,
0100
0100
0010
0001
,
0100
0000
0100
0000
0010
0001
0100
0000
,
1000
0001
1000
0000
0110
0000
1001
0000
,
0100
0001
0100
0000
0101
0000
1100
0000
,
0010
1000
0001
0000
0011
0000
0101
0000
,
0010
1000
0001
0000
0011
0000
1010
0000
,
0010
0100
0010
0000
1100
0000
1001
0000
,
1000
0100
1000
0000
1100
0000
0011
0000
,
1000
0100
0001
0000
1100
0000
0101
0000
,
1000
0001
0100
0000
0110
0000
1001
0000
,
1000
0000
0100
0000
0010
0100
0010
0000
,
0001
1000
0000
1000
0000
0100
0010
0002
,
0000
1003
0100
0010
,
0001
0010
0000
1000
0000
1000
0001
0200
,
0000
0000
0310
0000
0001
0000
0001
1000
,
0100
0010
0000
0001
0000
0100
0000
0020
,
0000
0130
1000
0001
,
1000
0100
0000
0010
0000
0100
0000
0200
,
0010
0300
0001
0000
1001
0000
1100
0000
,
0001
1000
0100
0000
1001
0000
0101
0000
,
1000
0001
0100
0000
0101
0000
1100
0000
,
1000
0100
0001
0000
0011
0000
1010
0000
,
0010
1000
0001
0000
0011
0000
0110
0000
,
0010
0001
1000
0000
1010
0000
0110
0000
,
1000
0100
0010
0000
0011
0000
0101
0000
,
0001
0100
0001
0000
1010
0000
1100
0000
,
0001
0010
0100
2000
,
3002
0000
0103
0020
,
0230
0000
0001
0000
,
0010
0000
0300
0000
0010
0001
0100
0001
,
2000
0000
3000
0020
,
0032
0000
0003
2000
,
3200
0000
0301
0000
,
0010
0000
0000
0000
1000
0010
0100
0010
,
0002
0000
1003
0000
,
0010
0000
0001
0000
0100
0010
0100
0000
,
1000
0010
0001
0010
,
1000
0000
0010
0000
0001
0010
0001
0000
,
0100
0000
0001
0000
1000
0100
0010
0000
,
0100
0000
1000
0000
0100
0010
0001
0000
,
0010
0000
0100
0000
0001
0010
1000
0000
,
0100
0000
0010
0000
1000
0001
0200
0000
,
0300
0000
0000
0000
;

//--------------- dance-single - Lye ----------------
#NOTES:
     dance-single:
     Lye:
     Hard:
     11:
     0,0,0,0,0:
0000
0000
0000
0000
,
0000
0000
0000
0000
,
0000
0000
0000
0000
,
0000
0000
0000
0000
,
0000
0000
0000
0000
,
0000
0000
0000
0000
,
0000
0000
0000
0000
,
0000
0000
0000
0000
,
0000
0000
0000
0000
,
1000
0000
0100
0000
1000
0100
0010
0000
,
1000
0000
0010
0000
0001
0010
1000
0000
,
1000
0000
0100
0000
1000
1000
0001
0000
,
1000
0000
0100
0000
1000
0001
0100
0010
,
0001
0000
1000
0000
0100
0010
0100
0000
0010
0000
0001
0000
1000
0000
0000
0000
,
0001
0000
0010
0000
0100
1000
0100
0000
0010
0000
1000
0000
0010
0000
0000
0000
,
0001
0000
0010
0000
0100
0001
0100
0000
1000
0000
0100
0000
0010
0000
0000
0000
,
0001
0000
0010
0000
0100
1000
0100
0000
0001
0000
1000
0000
0100
0000
0010
0000
,
0001
0100
0001
0000
1000
0200
2300
3002
,
0013
0000
0010
0000
1000
0010
0002
2003
,
3100
0000
0100
0000
0010
0020
0032
2003
,
3100
0000
0000
0000
0100
1000
0001
0000
0100
0000
0010
0000
1000
0000
0100
0000
,
0001
0000
0100
0000
1000
0200
0320
0032
,
1003
0000
0100
0000
0010
0200
0302
2003
,
3100
0000
0100
0000
0010
0002
0203
0302
,
0103
0000
0000
0000
0100
0000
0000
0000
0010
0000
1100
0000
0101
0000
0000
1000
,
0000
0010
1000
0000
1000
0000
0010
0000
0110
0000
0000
0000
1001
0000
0000
0100
,
0000
1000
0001
0000
0100
0000
0010
0000
0101
0000
0000
0000
1100
0000
0000
0010
,
0000
0100
0001
0000
1000
0000
0100
0000
0011
0000
0000
0000
0101
0000
0000
0100
,
0000
0010
1000
0000
0001
0000
1000
0000
0011
0000
0000
0000
1010
0000
0000
0010
,
0000
1000
0100
0000
0010
0000
0001
0000
1100
0000
0000
0000
1001
0000
0000
1000
,
0000
0100
1000
0000
0001
0000
1000
0000
1100
0000
0000
0000
0011
0000
0000
0010
,
0000
0001
0100
0000
0001
0000
0100
0000
1100
0000
0000
0000
0101
0000
0000
1000
,
0000
0001
0010
0000
0001
0000
1000
0000
0110
0000
0000
0000
1001
0000
0000
0001
,
1000
0000
0010
0000
0100
0001
1000
0000
0010
0000
0100
0000
0020
0000
0030
0000
,
0002
2003
3000
0200
0000
0310
0001
0020
,
0000
0000
0000
0000
1030
0100
1000
0000
0100
0000
0010
0000
0001
0000
0000
0000
,
0001
0020
0030
0002
0003
2000
3002
0203
,
0000
0000
0000
0000
0301
0010
0001
0000
0001
0000
0010
0000
0001
0000
1000
0000
,
0100
0020
0030
0002
0003
0200
0300
0020
,
0000
0000
0000
0000
0130
1000
0100
0000
0010
0000
1000
0000
0001
0000
0000
0000
,
1000
0002
0003
0020
0030
0200
0300
0200
,
0010
0000
0301
0000
0001
0000
0000
0000
1001
0000
0000
0000
1100
0000
0000
0001
,
0000
0010
0100
0000
1000
0000
0010
0000
1001
0000
0000
0000
0101
0000
0000
1000
,
0000
0100
0010
0000
0001
0000
0100
0000
0101
0000
0000
0000
1100
0000
0000
1000
,
0000
0010
0100
0000
0001
0000
1000
0000
0011
0000
0000
0000
1010
0000
0000
0010
,
0000
1000
0100
0000
1000
0000
0001
0000
0011
0000
0000
0000
0110
0000
0000
0010
,
0000
1000
0001
0000
0001
0000
0100
0000
1010
0000
0000
0000
0110
0000
0000
1000
,
0000
0010
0100
0000
0010
0000
0001
0000
0011
0000
0000
0000
0101
0000
0000
0001
,
0000
1000
0100
0000
0010
0000
0100
0000
1010
0000
0000
0000
1100
0000
0000
0000
,
0001
0000
0010
0000
0100
0001
2000
0000
,
3002
0000
0100
0000
0103
0010
0002
0000
,
2003
0100
0001
0010
,
0100
0000
3001
0000
0010
0001
0100
0001
,
2000
0100
3001
0020
,
0032
1000
0103
2000
,
3200
0000
0310
0000
,
0001
0000
0000
0000
1000
0010
0100
0010
,
0002
0100
1003
0010
,
0010
0000
0100
0000
0001
0010
0001
0000
0100
0000
0010
0000
0100
0000
0000
0000
,
1000
0000
0100
0000
0010
0001
0010
0000
0001
0000
0001
0000
0010
0000
0000
0000
,
1000
0000
0100
0000
0010
0001
0010
0000
0100
0000
0010
0000
1000
0000
0000
0000
,
0100
0000
0010
0000
0001
1000
0001
0000
1000
0000
0100
0000
0010
0000
0000
0000
,
0100
0000
0010
0000
1000
0100
1000
0000
0100
0000
0010
0000
0001
0000
0000
0000
,
0010
0000
0001
0000
0100
1000
0100
0000
0001
0000
0010
0000
1000
0000
0000
0000
,
0100
0000
1000
0000
0010
0100
0010
0000
1000
0000
0001
0000
0200
0000
0000
0000
,
0300
0000
0000
0000
;

//--------------- dance-single - Lye ----------------
#NOTES:
     dance-single:
     Lye:
     Challenge:
     14:
     0,0,0,0,0:
0000
0000
0000
0000
,
0000
0000
0000
0000
,
0000
0000
0000
0000
,
0001
0000
0100
0100
0000
0010
0000
0001
1000
0000
0001
0001
0000
0000
0000
0000
,
0100
0000
0000
0000
1000
0000
0000
0000
0000
0000
0000
0000
0000
0000
1000
0100
1000
0000
0000
0000
0011
0000
0000
0000
1000
0000
0100
0000
0010
0000
0001
0000
,
0001
0000
0001
0000
0100
0000
0100
0000
0000
0000
0010
0000
0000
0000
0010
1000
0100
0000
0001
0000
0001
0000
0010
0000
0000
0000
0001
1000
0100
0000
0010
0000
,
0100
0000
0000
0000
0110
0000
0000
0000
0000
0000
0001
0000
0000
0000
0100
1000
0100
0000
0000
0000
0110
0000
0000
0000
0000
0000
0010
0000
0001
0000
1000
0000
,
0010
1000
0100
0100
0000
0010
0000
1000
0100
0000
0010
0001
0010
0001
1000
0001
,
0100
0000
1010
0000
0000
0010
0100
0001
1000
0000
0101
0000
0000
0010
0001
0100
,
1000
0000
0010
0000
0100
1000
0001
0000
0010
0000
1100
0000
0011
0000
0000
0000
,
1000
0000
0100
0000
1000
0100
0010
0000
0001
0000
0110
0000
0101
0000
0000
0000
,
1000
0000
1000
0000
0100
1000
0001
0000
0100
0000
1100
0000
1001
0000
0000
0000
,
1000
0000
0100
0000
1000
0100
1000
0000
0001
0000
0011
0000
1100
0000
0010
0000
,
0001
0000
0001
0000
0100
1000
0100
0000
0010
0000
0110
0000
1010
0000
0000
0000
,
0001
0000
0001
0000
0100
1000
0100
0000
0001
0000
1010
0000
0011
0000
0000
0000
,
0001
0000
1000
0000
0100
0010
0001
0000
0100
0000
0101
0000
1001
0000
0000
0000
,
0001
0000
1000
0000
0100
0010
0001
0000
0100
0000
1001
0000
1100
0000
1000
0000
,
0001
0000
0100
0000
0010
0100
1000
0000
1000
0000
2000
0000
3020
0000
0032
0000
,
0103
0000
1000
0000
0010
0100
0010
0000
0100
0000
1000
0000
0002
0000
0203
0000
,
1300
0000
0010
0000
0100
0010
0100
0000
0001
0000
0200
0000
2300
0000
3002
0000
,
1003
0000
0010
0000
0100
1000
0100
0000
0001
0000
0010
0000
0100
0000
1000
0000
,
0001
0000
0010
0000
0100
1000
0100
0000
1000
0000
0020
0000
0230
0000
0320
0000
,
0031
0000
0010
0000
0100
1000
0100
0000
0010
0000
2000
0000
3200
0000
0302
0000
,
0013
0000
1000
0000
0100
0001
0100
0000
0010
0000
2000
0000
3002
0000
2003
0000
,
3100
0000
0010
0000
0001
0010
0001
0000
0010
0000
1100
0000
0101
0000
0000
1000
,
0000
0100
0001
0000
1000
0000
0001
0000
0110
0000
0000
0000
1001
0000
0000
0010
,
0000
1000
0001
0000
0100
0000
1000
0000
0101
0000
0000
0000
1100
0000
0000
0010
,
0000
0100
0001
0000
0001
0000
1000
0000
0011
0000
0000
0000
0101
0000
0000
0010
,
0000
0100
0001
0000
0001
0000
1000
0000
0011
0000
0000
0000
1010
0000
0000
0010
,
0000
0001
0010
0000
0010
0000
0001
0000
1100
0000
0000
0000
1001
0000
0000
0010
,
0000
1000
0010
0000
1000
0000
0100
0000
1100
0000
0000
0000
0011
0000
0000
0010
,
0000
1000
0001
0000
0010
0000
0100
0000
1100
0000
0000
0000
0101
0000
0000
0010
,
0000
1000
0001
0000
0010
0000
0100
0000
0110
0000
0001
0000
1001
0001
1000
0000
,
1000
0000
0100
0000
0010
1000
0010
0000
0010
0000
0200
0000
0320
0000
0030
0000
,
0002
2003
3010
2000
3010
0100
0010
0002
,
0010
0000
0100
0000
1003
0100
1000
0000
0100
0000
0010
0000
0001
0000
0000
1000
,
0002
0000
0023
0000
0000
0030
2000
0000
0000
3000
0020
0000
0032
0000
0203
0000
,
0000
0000
0010
0000
0310
0100
0001
0000
1000
0000
0100
0000
0001
0000
2000
0000
,
3200
0320
0030
0002
0003
0200
0300
0020
,
0000
0000
1000
0000
0130
0001
0100
0000
1000
0000
1000
0000
0010
0000
0002
0000
,
2003
0000
3200
0000
0300
0000
0020
0000
0030
0000
0200
0000
0300
0000
0200
0010
,
0300
0001
0010
0000
0001
0000
1000
0000
1001
0000
0000
0000
1100
0000
0000
0001
,
0000
1000
0100
0000
1000
0000
0001
0000
1001
0000
0000
0000
0101
0000
0000
1000
,
0000
0001
0010
0000
0100
0000
0010
0000
0101
0000
0000
0000
1100
0000
0000
1000
,
0000
0001
0010
0000
0100
0000
0010
0000
0011
0000
0000
0000
1010
0000
0000
0010
,
0000
0001
1000
0000
0001
0000
0100
0000
0011
0000
0000
0000
0110
0000
0000
0010
,
0000
0001
1000
0000
0001
0000
0100
0000
1010
0000
0000
0000
0110
0000
0000
1000
,
0000
0001
0100
0000
1000
0000
0001
0000
0011
0000
0000
0000
0101
0000
0000
1000
,
0000
0001
0100
0000
1000
0000
0001
0000
1010
0000
1000
0000
1100
1000
0001
0000
,
0001
0000
1000
0000
0010
0100
0010
0000
0100
0000
0001
0000
2000
0000
0000
0000
,
3002
0000
0010
0000
0103
1000
0100
0000
0100
0000
0010
0000
0002
0000
0000
0000
,
0203
0000
0010
0000
0301
0010
0001
0000
0100
0000
0001
0000
0010
0000
0000
0000
,
0100
0000
1000
0000
0001
0010
0001
0000
0020
0030
0002
0003
0200
0300
0002
0003
,
2000
0000
0010
0000
3001
0100
0020
0000
,
0032
0000
1000
0000
0103
0001
2000
0000
,
3200
0000
0010
0000
0301
0010
0100
0000
,
0100
0000
1000
0000
0010
0100
0010
0000
2000
3000
0020
0030
0200
0300
0020
0030
,
2000
0000
0000
0000
0100
0000
0000
0000
3001
0000
0100
0000
0010
0000
0000
1000
,
0010
0000
0010
0000
0001
0100
0001
0000
0100
0000
0001
0000
0100
0000
0000
0010
,
1000
0000
1000
0000
0100
0010
0100
0000
0001
0000
0001
0000
0010
0000
0000
0001
,
1000
0000
1000
0000
0100
0010
0100
0000
0001
0000
0010
0000
0001
0000
0000
0010
,
0100
0000
1000
0000
0001
0010
0001
0000
1000
0000
0100
0000
0010
0000
0000
0010
,
0100
0000
0000
0000
1000
0000
0000
0000
0001
0000
0010
0000
0001
0000
0010
0100
0010
0000
0000
0000
1000
0000
0000
0000
0001
0000
0000
0000
0000
0000
0001
0000
,
0010
0000
0001
0000
0100
0010
0100
0000
1000
0000
1000
0000
0001
0000
0000
0001
,
0010
0000
0001
0000
0100
0010
0100
0001
1000
0000
1000
0000
0200
0000
0000
0000
,
0300
0000
0000
0000
;
