#TITLE:Montero;
#SUBTITLE:(Call Me By Your Name);
#ARTIST:Lil Nas X;
#TITLETRANSLIT:;
#SUBTITLETRANSLIT:;
#ARTISTTRANSLIT:;
#GENRE:;
#CREDIT:;
#MUSIC:montero.ogg;
#BANNER:montero-bn.png;
#BACKGROUND:montero-bg.png;
#CDTITLE:;
#SAMPLESTART:38.038;
#SAMPLELENGTH:24.469;
#SELECTABLE:YES;
#OFFSET:0.509;
#BPMS:0.000=89.500
,18.000=179.000
,50.000=89.500
,66.000=179.000
,130.000=89.500
,146.000=179.000
,204.000=89.500
,207.000=179.000
;
#STOPS:;
#DISPLAYBPM:90.000:179.000;
#BGCHANGES:0.509=montero.avi=1.000=1=0=0=StretchNoLoop==CrossFade==,
99999.000=-nosongbg-=1.000=0=0=0=StretchNoLoop====
;
#FGCHANGES:;

//--------------- dance-single - Lye ----------------
#NOTES:
     dance-single:
     Lye:
     Easy:
     5:
     0,0,0,0,0:
0000
0000
1000
0000
,
0010
0000
0001
0000
,
0010
0000
0100
0000
,
1000
0010
0100
0001
,
0010
0000
0100
0000
,
0000
0100
1000
0000
,
0000
1000
0001
0000
,
0000
0001
0100
0000
,
0000
0100
0001
0000
,
0000
0010
0100
0000
,
0000
1000
0010
0100
,
0001
0010
0100
1000
,
0002
0003
2000
3000
,
0020
0030
0020
0030
,
2000
3000
0200
0300
,
0020
0030
0020
0030
,
0001
0000
0110
0000
,
0000
1000
1001
0000
,
0000
0100
0110
0000
,
0000
0010
0110
0000
,
0000
0000
0101
0000
,
0000
0000
1100
0000
,
0000
0000
0011
0000
,
0000
0000
1010
0000
,
0000
0100
0120
0000
,
0000
1030
2001
0000
,
0000
3100
1200
0000
,
0000
0310
0021
0000
,
0000
0031
0201
0000
,
0000
0301
2001
0000
,
0000
3010
0120
0000
,
0000
1030
2001
0000
,
0000
3000
0200
0300
,
0020
0030
0020
0030
,
0200
0300
2000
3000
,
0002
0003
0210
0000
,
0000
0000
0310
0000
,
0000
0020
1030
0000
,
0000
0000
0001
0000
0010
0000
0000
0010
,
0000
0100
1000
0000
,
0000
0000
0010
0000
0010
0000
0000
0100
,
0000
0100
0001
0000
,
0000
0010
0100
0000
,
0000
0000
1000
0000
0001
0000
0000
0010
,
0000
0000
0001
0000
0100
0000
0000
0010
,
0000
0000
1000
0000
0100
0000
0000
0010
,
0000
0000
0001
0000
0100
0000
0000
0010
,
0000
0000
1000
0000
0010
0000
0000
0100
,
0000
0000
0001
0000
0010
0000
0000
0100
,
0000
0000
0100
0000
1000
0000
0000
1000
,
0000
1000
0010
0020
,
0000
2030
0000
0000
3000
0000
0000
0000
,
0002
0000
0003
0100
,
0010
0100
0000
0001
,
0100
0010
1000
0100
,
0100
0010
0002
0203
,
0310
1000
0000
1000
,
1000
0010
0000
0100
,
0001
0010
0100
1000
,
0010
1010
0000
0110
,
0000
0100
0000
0000
0010
0000
1000
0000
,
0000
0001
0000
0000
0010
0000
0001
0000
,
0000
1000
0000
0000
0010
0000
1000
0000
,
0000
0001
0000
0000
0100
0000
0001
0000
,
0000
0010
0000
0000
0100
0000
1000
0000
,
0000
0010
0000
0000
0100
0000
0001
0000
,
0000
0010
0000
0000
0100
0000
2000
0000
,
0000
0000
3000
0011
,
0000
0001
0000
0000
0100
0000
0000
0010
,
0000
1000
0000
0001
,
0000
0100
0100
0010
,
0000
1000
0010
0100
,
0000
0001
0000
0000
0010
0000
0000
0100
,
0000
1000
0000
0010
,
0000
1000
1000
0001
,
0000
0100
0000
1001
,
0000
0000
1000
0010
,
0000
0000
0100
0001
,
0000
0000
0010
0100
,
0000
0000
1000
0010
,
0000
0000
1000
0001
,
0000
0000
0100
0010
,
1000
0100
0000
0000
,
1000
0000
0010
0110
,
0000
1010
0000
0000
0110
0000
0000
0000
,
0000
0000
0100
1001
,
0000
0101
0000
0000
1001
0000
0020
0000
,
0000
0030
0000
0000
0100
0000
0110
0000
,
0000
0000
1010
0000
0000
0000
0000
0000
0110
0000
0000
0000
0200
0300
0000
0000
,
0000
0000
0001
0001
,
0000
0100
0000
0000
0010
0000
2000
0000
,
0000
0000
0000
3000
0000
0000
0000
0000
;

//--------------- dance-single - Lye ----------------
#NOTES:
     dance-single:
     Lye:
     Medium:
     9:
     0,0,0,0,0:
0000
0000
1000
0010
,
0010
0000
0100
0001
,
0010
0000
0001
1000
,
0010
0000
1000
0100
0010
0000
0001
0000
,
1000
0000
0000
0000
0010
0000
0000
0100
,
0000
0000
0100
0000
0001
0000
0000
0010
,
0000
0000
0010
0000
0100
0000
0000
1000
,
0000
0000
1000
0000
0010
0000
0000
0100
,
0000
0000
0100
0000
0001
0000
0000
0010
,
0000
0000
0001
0000
1000
0000
0000
0010
,
0000
0010
0010
0100
,
0001
0000
0010
0000
0100
0000
1000
0001
,
0200
0000
0300
0000
0000
0010
2000
3000
,
0001
0000
0001
0000
0010
0000
0000
0000
0100
1000
0100
0000
0010
0000
0001
0000
,
0100
0001
0100
0000
0010
0000
0000
0000
0000
0000
1000
0000
0001
0000
0000
0000
,
0100
0010
1000
0000
0001
0000
0000
0000
0100
0000
0100
0000
0001
0000
0010
0000
,
0100
1000
0100
0000
0020
0000
0030
0000
0101
0000
0000
0000
0000
0000
0100
0000
,
0000
0000
0100
0000
0011
0000
0000
0100
,
0000
0000
0100
0000
1100
0000
0000
0010
,
0000
0000
0010
0000
0101
0000
0000
0010
,
0000
0000
0010
0000
1001
0000
0000
0100
,
0000
0000
0100
0000
1010
0000
0000
0100
,
0000
0000
0100
0000
0110
0000
0000
0001
,
0000
0000
0001
0000
1100
0000
0000
1000
,
0000
0000
0100
0000
0012
0000
0000
1000
,
0000
0000
0103
0000
2010
0000
0000
0001
,
0000
0000
3100
0000
0120
0000
0000
0001
,
0000
0000
0031
0000
1020
0000
0000
1000
,
0000
0000
0130
0000
0201
0000
0000
0010
,
0000
0000
0301
0000
1200
0000
0000
0010
,
0000
0000
1300
0000
0021
0000
0000
0100
,
0000
0031
2020
0000
,
0000
3030
0002
0003
,
0020
0030
0120
0030
,
0002
0000
0000
0000
0003
0000
0000
0000
2010
0000
0000
0001
3000
0000
0010
0000
,
0102
0003
2100
0000
,
0000
0000
0000
0000
3002
0000
0003
0200
,
0300
0000
0020
0000
1030
0000
0000
0001
,
0000
0000
0001
0000
1100
0000
0000
0001
,
0000
0000
0010
0000
1010
0000
0000
0100
,
0000
0000
0001
0000
0012
0000
0000
1000
,
0000
0000
0100
0000
0013
0000
0000
0100
,
0000
0000
0100
0000
1010
0000
0000
0011
,
0000
0000
1000
0000
1100
0000
0000
0001
,
0000
0000
0001
0000
0110
0000
0000
1000
,
0000
0000
1000
0000
0010
0000
0000
1000
,
0000
0000
0001
0000
1001
0000
0000
0010
,
0000
0000
0100
0000
1000
0000
0000
0001
,
0000
0000
0001
0000
1010
0000
0000
0100
,
0000
0000
0100
0000
0010
0000
0000
1000
,
0000
0000
0010
1000
0001
0000
0020
0030
,
0000
0000
0002
0000
2000
0003
0000
0000
3000
0000
0020
0000
0000
0000
0030
0000
0000
0000
0000
0000
0000
0000
0000
0000
0000
0000
0000
0000
0000
0000
0000
0000
,
0010
0000
0020
0000
0030
0000
1000
0100
,
1000
0000
0001
0000
0000
0000
0010
0100
,
0010
0000
1000
0000
0001
0000
0100
0001
,
0100
0010
2000
3002
,
0013
0000
0200
0000
0300
0000
1000
0010
,
0100
0000
0001
0000
0000
0000
0001
0100
,
0010
0000
1000
0000
0001
0000
0100
1000
,
0100
0010
0100
0000
0000
0000
0102
0000
,
0000
1000
0000
0000
0013
0000
2100
0000
,
0000
0001
0000
0000
3010
0000
0012
0000
,
0000
1000
0000
0000
0103
0000
2010
0000
,
0000
0001
0000
0000
3100
0000
0120
0000
,
0000
1000
0000
0000
1030
0000
0210
0000
,
0000
0001
0000
0000
0301
0000
2010
0000
,
0000
0001
0000
0000
3100
0000
0012
0000
,
0000
1000
0000
0000
0103
0000
2100
0000
,
3000
0002
0000
0003
0200
0000
0300
0020
,
0000
0030
2000
0000
3000
0000
1100
0000
,
0000
0000
0010
0100
0010
0000
0001
0000
,
0000
0100
0010
0102
,
0003
2000
0000
3000
0020
0000
0030
0200
,
0000
0300
0002
0000
0003
0000
1010
0000
,
0000
0000
0100
0010
0100
0000
0001
0000
,
0000
1000
0100
1000
,
0000
0010
0000
0000
1000
0000
0001
0000
,
0000
0010
0000
0000
0001
0000
1000
0000
,
0000
0010
0000
0000
1000
0000
0100
0000
,
0010
0001
0000
0100
,
0000
0100
0000
0000
0010
0000
1000
0000
,
0000
0100
0000
0000
0010
0000
0001
0000
,
0001
0100
0010
1000
,
0001
0100
0000
0100
0001
0000
0101
0000
,
0000
0000
1010
0000
0000
0000
0000
0000
1100
0000
0000
0000
2000
3000
0000
0000
,
0000
0001
0000
0000
0100
0000
1001
0000
,
0000
0101
0000
0000
0011
0000
2000
0000
,
0000
0001
0000
0000
3100
0000
0011
0000
,
0000
0000
0101
0000
0000
0000
0000
0000
1010
0000
0000
0000
0002
0003
0000
0000
,
0000
1000
0000
0000
0010
0000
0010
0000
,
0000
1100
0000
0000
0101
0000
0020
0000
,
0000
0000
0000
0030
0000
0000
0000
0000
;

//--------------- dance-single - Lye ----------------
#NOTES:
     dance-single:
     Lye:
     Hard:
     12:
     0,0,0,0,0:
0000
0000
0000
0000
0000
0000
0000
0000
0100
0000
0000
0000
1000
0000
0001
0010
,
0001
0000
0000
0000
0000
0000
0000
0000
0100
0000
0000
0000
0010
0000
0100
0001
,
0100
0000
0000
0000
0000
0000
0000
0000
0010
0000
0000
0000
1000
0000
0100
1000
,
0010
0000
0000
0000
1000
0000
0100
0000
0010
0100
0010
0100
1000
0000
0010
0100
,
0001
0000
0020
0030
0020
0030
0020
0030
0001
0000
0000
0000
0100
0000
0010
0000
,
0000
0100
0010
0000
1000
0000
0100
0010
,
0000
0100
0010
0000
0001
0000
0100
0010
,
0000
1000
0010
0000
0010
0000
0100
0001
,
0000
0001
0010
0000
0010
0000
0100
1000
,
0000
1000
0010
0000
1000
0000
0010
0100
,
0000
0100
0001
0000
0010
0000
0100
1000
,
0000
0001
0010
0000
0100
0000
0010
0100
,
0000
1000
0010
0000
0000
0100
0020
0030
,
0100
0010
1000
0100
0010
0000
0000
0000
0001
0010
0100
0010
0100
0000
1000
0000
,
0010
0100
0001
0100
0010
0000
0000
0000
1000
0000
0001
0000
0100
0000
0000
0000
,
0010
1000
0100
0010
0001
0000
0000
0000
0010
0100
0010
0001
1000
0000
0010
0000
,
0100
0010
1000
0001
0100
0000
0000
0000
0011
0000
0000
0000
0100
0000
0001
0000
,
0000
0001
0010
0000
0011
0000
0001
1000
,
0000
1000
0100
0000
1100
0000
1000
0001
,
0000
0001
0100
0000
0101
0000
0010
1000
,
0000
0001
0100
0000
0101
0000
0100
0010
,
0000
0010
1000
0000
1100
0000
0010
0001
,
0000
0001
0100
0000
1010
0000
0100
0001
,
0000
0001
0100
0000
0010
0100
0001
0100
,
0010
0000
0100
0000
1010
0000
0000
1100
,
0000
0000
0100
0000
0011
0000
0000
0101
,
0000
0000
0100
0000
0110
0000
0000
1010
,
0000
0000
0101
0000
0011
0000
0000
1010
,
0000
0000
1000
0000
1100
0000
0000
0101
,
0000
0000
0001
0000
0011
0000
0000
1100
,
0000
0000
0010
0000
0101
0000
0000
0110
,
0000
0000
1010
0000
0101
0000
0001
1000
,
0000
1000
0010
0000
0120
0000
0030
0000
,
2010
3000
2100
3000
,
0102
0000
0000
0000
0003
0000
0000
0000
0012
0000
0000
2000
3003
0000
0200
0300
,
0120
0030
1002
0000
,
0000
0100
0100
0100
0203
0300
0000
0020
,
0030
0000
2000
0000
3001
0000
0000
0100
,
0000
0100
0010
0000
1010
0000
0000
0010
,
0000
0010
0100
0000
0011
0000
0000
1000
,
0000
0000
1000
0000
0010
0000
0000
0000
2100
0000
0000
0000
0000
0000
0002
0003
,
0000
0000
0000
0000
0200
0300
0000
0000
3020
0030
0000
0000
0000
0000
0100
0000
,
0000
0001
0010
0000
1010
0000
0000
1100
,
0000
0000
0101
0000
0011
0000
0000
0100
,
0000
0100
1000
0000
1010
0000
0000
0110
,
0000
0000
0101
0000
0010
0000
0000
0001
,
0000
1000
0010
0000
0101
0000
0000
0011
,
0000
0000
1010
0000
0100
0000
0000
0100
,
0000
1000
0100
0000
1010
0000
0000
0100
,
0000
0001
0010
0000
0100
1000
0100
0010
,
0001
0010
0001
1000
0020
0030
2000
3000
,
0000
0200
0320
0000
0030
0002
0000
0000
0000
0000
0000
0003
0000
0000
0000
0000
,
0100
0000
0001
0000
0010
0000
0100
0010
,
0100
0010
0001
0000
0100
0000
0010
1000
,
0100
0010
0001
0000
0010
0000
0100
1000
,
0100
1000
0010
0000
0100
0001
0100
0000
,
0010
0000
2000
0000
3100
0000
0010
0001
,
0010
0100
1000
0000
1000
0000
0010
0100
,
0001
0100
0010
0000
1000
0000
0001
0010
,
0100
1000
0020
0000
0030
0000
0101
0000
,
1000
0100
0000
0010
0001
0000
0011
0000
,
0100
0001
0000
0100
0010
0000
1010
0000
,
0100
1000
0000
0010
0100
0000
0110
0000
,
1000
0001
0000
0001
0010
0000
0011
0000
,
0100
1000
0000
0100
0010
0000
0101
0000
,
1000
0010
0000
0100
0001
0000
1010
0000
,
0001
0010
0000
0100
1000
0000
0120
0000
,
0000
1000
0000
0000
0130
0000
2100
0000
,
3000
0200
0000
0300
0020
0000
0030
0002
,
0000
0003
0200
0000
0300
0000
0101
0000
,
0000
0000
0000
0000
0010
0000
0100
0000
0000
0000
0001
0000
0100
0000
0000
0010
,
0000
1000
0010
0000
0100
0000
0012
0000
,
0003
2000
0000
3000
0020
0000
0030
0200
,
0000
0300
0002
0000
0003
0000
1100
0000
,
0000
0000
0000
0000
0100
0000
0010
0000
0001
0000
0000
0000
0001
0000
0000
0100
,
0000
0010
1000
0000
0100
0000
1100
0000
,
0010
0001
0000
0000
0110
0000
0011
0000
,
0000
0010
0000
0000
0101
0000
1010
0000
,
0000
0000
0010
0000
0000
0000
0000
0000
1100
0000
0000
0000
0200
0300
0000
0000
,
0020
0030
0000
0000
0002
0003
0000
0000
0000
0000
0000
0000
0100
0000
0000
0000
,
0010
1000
0000
0000
1010
0000
0101
0000
,
0000
0010
0000
0000
0110
0000
1000
0000
,
0001
0010
0100
1000
0010
0000
1000
0000
,
0001
0100
0000
0100
0001
0000
1010
0000
,
0000
0000
1100
0000
0000
0000
0000
0000
1010
0000
0000
0000
2000
3000
0000
0000
,
0000
0001
0000
0000
0100
0000
1001
0000
,
0000
0101
0000
0000
0011
0000
2000
0000
,
0000
0001
0000
0000
3100
0000
0011
0000
,
0000
0000
0101
0000
0000
0000
0000
0000
1010
0000
0000
0000
0002
0003
0000
0000
,
0000
1000
0000
0000
0010
0000
0010
0000
,
0000
1100
0000
0000
0101
0000
0020
0000
,
0000
0000
0000
0030
0000
0000
0000
0000
;

//--------------- dance-single - Lye ----------------
#NOTES:
     dance-single:
     Lye:
     Challenge:
     14:
     0,0,0,0,0:
0000
0000
0000
0000
0000
0000
0000
0000
0001
0100
0000
0010
1000
0000
0100
0010
,
0100
0000
0000
0000
0000
0000
0000
1000
0100
0010
0001
0100
0001
0000
1000
0010
,
1000
0000
0000
0000
0000
0000
0000
0100
0010
0001
1000
0001
0010
0000
0100
1000
,
0010
0000
0000
0100
1000
1000
0100
0010
0001
0100
0001
0010
0001
0000
0100
0010
,
1000
0000
0002
0003
0002
0003
0002
0003
0010
0000
0000
0000
0100
0000
1000
0000
,
0000
1000
0100
0000
0010
0000
0001
0010
,
0000
0010
0100
0000
1000
0010
0100
0001
,
0000
0001
1000
0000
0010
0000
0100
0001
,
0000
0001
0100
0000
0010
1000
0100
0010
,
0000
0001
0010
0000
1000
0000
0010
0100
,
0000
0100
0001
0000
0010
0000
0100
1000
,
0010
1000
0010
0000
0100
0000
0001
0010
,
0100
1000
0010
0000
0000
0100
0020
0030
,
0001
0010
0001
0010
0100
0000
0000
0000
0100
0010
0100
1000
0010
0000
0100
0000
,
0001
0100
0001
0100
0010
0000
0000
0000
0000
0001
0100
0000
0010
0000
0000
0000
,
1000
0100
0010
0001
0100
0000
0000
0000
0010
1000
0010
0100
0001
0000
0010
0000
,
0100
0010
0100
0010
1000
0000
0000
0000
0101
0000
0000
0000
0100
0000
0001
0000
,
0000
0001
1000
0000
1010
0000
0010
1000
,
0000
1000
0100
0000
1100
0000
0100
0010
,
0000
0010
0001
0000
0011
0000
0010
0100
,
0000
1000
0100
0000
1010
0000
1000
0100
,
0000
0010
0001
0000
0101
0000
0010
1000
,
0000
1000
0100
0000
1010
0000
0100
0001
,
0000
0001
0010
0000
0100
1000
0100
0010
,
0001
1000
0010
0000
0101
0000
0000
0011
,
0000
0000
0100
0000
1010
0000
0000
1100
,
0000
0000
0100
0000
0110
0000
0000
0011
,
0000
0000
1100
0000
1010
0000
0000
1100
,
0000
0000
0010
0000
0101
0000
0000
0011
,
0000
0000
0100
0000
1100
0000
0000
1010
,
0000
0000
0010
0000
0110
0000
0000
0101
,
0000
0000
0011
0000
1100
0000
0001
1000
,
0000
1000
0001
0000
0021
0000
0030
0000
,
1200
0000
0000
0000
0300
0000
0000
0000
2010
0000
0000
0010
3000
0000
0000
0000
,
0102
0000
0000
0000
0003
0000
0000
0000
2010
0000
0000
0002
3003
0000
0200
0300
,
0021
0000
0000
0000
0030
0000
0000
0000
1002
0000
0000
1000
0000
0000
0000
0000
,
0000
0010
0010
0010
0023
0030
0000
0200
,
0300
0000
2000
0000
3001
0000
0100
0001
,
0000
0100
0010
0000
1010
0000
0100
0010
,
0000
0010
0100
0000
0101
0000
0001
1000
,
0000
0000
1000
0000
0010
0000
0000
0000
2100
0000
0000
0000
0000
0000
0002
0003
,
0000
0000
0000
0000
0200
0300
0000
0000
3020
0030
0000
0000
0010
0000
0100
0000
,
0000
0001
0010
0000
1100
0000
0000
0011
,
0000
0000
1010
0000
0101
0000
0001
0100
,
0000
0100
0010
0000
0110
0000
0000
1010
,
0000
0000
1100
0000
0010
0000
0010
0001
,
0000
1000
0010
0000
0101
0000
0000
1100
,
0000
0000
0011
0000
0010
0001
0010
0100
,
1000
0010
0100
0001
0010
0000
0001
0100
,
0000
0010
1000
0000
0010
1000
0100
0010
,
0001
0010
0001
1000
0020
0030
0200
0300
,
0000
0000
0002
0000
2000
0003
0000
0000
3000
0000
0020
0000
0000
0000
0000
0000
0000
0000
0000
0000
0000
0000
0030
0000
0000
0000
0000
0000
0000
0000
0000
0000
,
0100
0001
0000
0000
0010
0000
0100
1000
,
0100
0010
0001
0000
0100
0000
0010
0100
,
0010
0100
0001
0000
0010
0000
0100
1000
,
0100
0000
0010
0000
0001
0000
0000
0000
0010
0001
0010
0001
0010
0000
0000
0000
,
0100
1000
0002
0000
0103
0000
0100
0010
,
1000
0100
0010
0000
0100
0000
0010
0001
,
0100
0010
1000
0000
1000
0000
0100
0010
,
0100
0010
0002
0000
0003
0000
0101
0000
,
1000
0100
0000
0010
0001
0000
0011
0000
,
0100
0001
0000
0100
0010
0000
1010
0000
,
0100
1000
0000
0010
0100
0000
0110
0000
,
1000
0001
0000
0001
0010
0000
0011
0000
,
0100
1000
0000
0100
0010
0000
1010
0000
,
1000
0010
0000
0100
0001
0000
0101
0000
,
0001
0010
0000
0100
1000
0000
0120
0000
,
0000
1000
0000
0000
0130
0000
2100
0000
,
3010
0200
0000
0300
0002
0000
0103
0200
,
0000
0300
0020
0000
1030
0000
0101
0000
,
0000
0000
0000
0000
0010
0000
0100
0000
0000
0000
0001
0000
0100
0000
0000
0010
,
0000
1000
0010
0000
0100
0000
0012
0000
,
0103
0020
0000
0030
2000
0000
3001
0200
,
0000
0300
0020
0000
0130
0000
1010
0000
,
0000
0000
0000
0000
0100
0000
0010
0000
0001
0000
0000
0000
0001
0000
0000
0100
,
0000
0010
1000
0000
0100
0000
1100
0000
,
0010
0001
0000
0000
0110
0000
0011
0000
,
0000
0010
0000
0000
0101
0000
1010
0000
,
0000
0000
0010
0000
0000
0000
0000
0000
1100
0000
0000
0000
0200
0300
0000
0000
,
0020
0030
0000
0000
0002
0003
0000
0000
0000
0000
0000
0000
0100
0000
0000
0000
,
0010
1000
0000
0000
1010
0000
0101
0000
,
0000
0010
0000
0000
0110
0000
1000
0000
,
0001
0010
0100
1000
0010
0000
1000
0000
,
0001
0100
0000
0100
0001
0000
1010
0000
,
0000
0000
1100
0000
0000
0000
0000
0000
1010
0000
0000
0000
2000
3000
0000
0000
,
0000
0001
0000
0000
0100
0000
1001
0000
,
0000
0101
0000
0000
0011
0000
2000
0000
,
0000
0001
0000
0000
3100
0000
0011
0000
,
0000
0000
0101
0000
0000
0000
0000
0000
1010
0000
0000
0000
0002
0003
0000
0000
,
0000
1000
0000
0000
0010
0000
0010
0000
,
0000
1100
0000
0000
0101
0000
0020
0000
,
0000
0000
0000
0030
0000
0000
0000
0000
;
