#TITLE:Meantime;
#SUBTITLE:;
#ARTIST:Elton Aura;
#TITLETRANSLIT:;
#SUBTITLETRANSLIT:;
#ARTISTTRANSLIT:;
#GENRE:;
#CREDIT:;
#MUSIC:meantime.ogg;
#BANNER:meantime-bn.png;
#BACKGROUND:meantime-bg.png;
#CDTITLE:;
#SAMPLESTART:10.514;
#SAMPLELENGTH:27.617;
#SELECTABLE:YES;
#OFFSET:-0.197;
#BPMS:0.000=173.987
,28.000=347.974
,30.000=173.987
;
#STOPS:28.000=0.086
,28.500=0.086
,29.000=0.086
,29.500=0.086
,224.000=0.345
,316.500=0.690
;
#DISPLAYBPM:173.987;
#BGCHANGES:;
#FGCHANGES:;

//--------------- dance-single - Lye ----------------
#NOTES:
     dance-single:
     Lye:
     Easy:
     4:
     0,0,0,0,0:
0000
0000
0000
0000
,
0000
0000
0000
0000
,
0000
0000
0000
0000
,
0000
0000
0000
0000
,
0000
0000
0000
0000
,
0000
0000
0000
0000
,
0000
0000
0000
0000
,
0000
0000
0000
0000
,
1000
0000
0000
0000
,
0001
0000
0000
0000
,
0010
0000
0000
0000
,
0100
0000
0000
0000
,
0010
0000
0001
0000
,
1000
0000
0000
0000
,
0010
0000
0100
0000
,
0001
0000
0000
0000
,
1001
0000
0000
0000
,
0001
0000
0000
0000
,
0010
0000
0001
0000
,
0100
0000
0000
0000
,
0100
0000
0000
0000
,
0010
0000
0000
0000
,
1000
0000
0100
0000
,
1000
0000
0100
0000
,
0010
0000
0000
0000
,
0001
0000
0000
0000
,
1010
0000
0010
0000
,
0100
0000
0000
0000
,
0011
0000
0010
0000
,
0100
0000
0100
0000
,
1000
0000
0010
0010
,
0100
0000
0100
0000
,
0001
0000
0000
0000
,
1000
0000
0100
0000
,
1000
0000
0010
0000
,
0100
0000
0001
0000
,
0010
0000
0010
0000
,
0001
0000
1000
0000
,
0001
0000
0010
0000
,
0100
0000
0010
0000
,
0001
0000
1000
0000
,
0001
0000
0100
0000
,
0000
0010
1000
0000
,
0001
0000
0100
0000
,
0000
0100
0001
0000
,
0010
0000
0100
0000
,
1000
0000
0001
0000
,
1000
0000
1000
0000
,
0010
0010
0010
0000
,
0100
0000
0001
0000
,
1000
1000
1000
0000
,
0100
0000
0010
0000
,
0001
0001
0001
0000
,
1000
0000
0010
0000
,
0100
0100
0100
0000
,
0001
0000
1000
0000
,
0010
0100
0000
0001
,
0000
0000
0000
0010
,
0000
0001
0000
0100
,
0000
0000
0000
0010
,
0000
0100
0000
0001
,
0000
0000
0000
1000
,
0000
0001
0000
1000
,
0000
0001
0010
0001
,
0001
0000
1000
1000
,
0010
0000
0100
0001
,
0001
0000
0100
0010
,
0001
0000
0010
0000
,
0100
0000
1000
0010
,
0010
0000
0100
0000
,
0001
0100
0001
0101
,
0000
1001
0000
0100
,
0000
0000
0000
0010
,
0000
0000
0000
1000
,
0000
0000
0000
0001
,
0000
0000
0000
1000
,
0000
0000
0000
0010
,
0000
0000
0000
0100
,
0000
0000
0000
0001
,
0000
0000
0000
0000
,
0000
0001
0000
1000
,
0000
0001
0000
0000
,
0000
0100
0000
0010
,
0010
1000
0000
0001
,
0000
0010
0000
0100
,
0000
0001
0100
0001
,
0000
1000
0100
1000
,
0000
0110
0000
1000
,
0000
0010
0100
0001
,
0000
0010
0000
0001
,
0000
1000
1000
0010
,
0000
0100
0000
1000
,
0000
0001
1000
0010
,
0000
0100
0000
0001
,
0000
1000
1000
0010
,
0000
0100
0000
0000
,
0000
0010
0000
0100
,
0000
0001
0000
0000
,
0000
1000
0000
0010
,
0000
0100
0000
0000
,
0000
0001
0000
0001
,
0000
0100
0000
0000
,
0000
0010
0000
1000
,
0001
0000
0000
0000
;

//--------------- dance-single - Lye ----------------
#NOTES:
     dance-single:
     Lye:
     Medium:
     8:
     0,0,0,0,0:
0000
0000
0000
0000
,
0000
0000
0000
0000
,
0000
0000
0000
0000
,
0000
0000
0000
0000
,
0000
0000
0000
0000
,
0000
0000
0000
0000
,
0000
0000
0000
0000
,
0000
0000
0000
0000
,
0001
0000
0000
1000
0000
0000
0001
0000
,
0000
0010
0000
0000
0100
0000
1000
0000
,
0010
0000
0000
0100
0000
0000
0001
0000
,
0000
0001
0000
0000
0100
0000
0010
0000
,
1000
0000
0000
0001
0000
0000
1000
0000
,
0000
0010
0000
0000
1000
0000
0001
0000
,
0010
0000
0000
0100
0100
0000
1000
0000
,
0000
0001
0000
0000
1000
0000
0010
0000
,
0100
0000
0000
0010
0000
0000
1000
0000
,
0000
0100
0000
0000
0010
0000
0001
0000
,
0100
0000
0000
0001
0000
0000
0100
0000
,
0000
0010
0000
0000
1000
0000
0010
0000
,
0100
0000
0000
0001
0000
0000
0010
0000
,
0000
0100
0000
0000
1000
0000
0001
0000
,
0100
0000
0000
0001
0001
0000
1000
0000
,
0000
0100
0000
0000
0010
0000
0001
0000
,
1000
0000
0000
0010
0000
0000
0100
0000
,
0000
0001
0000
0000
1000
0000
0001
0000
,
0110
0000
0100
0000
1000
0000
0001
0100
,
0001
1000
0010
0100
,
0011
0000
0000
1100
0000
0000
0110
0000
,
0000
0101
0000
0000
0010
0000
1000
0000
,
1000
0000
0100
0100
0010
0000
0010
0000
,
0001
0001
1000
0001
,
0001
0000
0000
0100
0000
0000
0010
0000
,
2000
3000
0002
0003
,
0000
0010
0001
0100
,
0002
0003
2000
3000
,
0010
0000
0010
0000
1000
0001
0100
0000
,
0010
0010
1100
0000
,
0100
0010
0001
0000
0001
0010
0100
0000
,
1000
1000
0001
0000
,
2000
0000
3200
0000
,
0320
0000
0032
0000
,
0003
0000
0100
0010
1000
0000
0010
0000
,
0200
0000
0302
0000
,
0113
0000
0000
0100
0010
0000
1000
0000
,
2000
0000
3020
0130
,
0001
0001
0100
0100
,
0010
0000
0010
0000
1000
0100
1000
0000
,
0001
0000
0000
0100
0000
0000
0001
0000
,
0000
0010
0000
0000
0001
0000
0100
0000
,
0010
0000
0000
1000
0000
0000
0100
0000
,
0000
0010
0000
0000
0001
0000
1000
0000
,
0101
0000
0000
0010
0000
0000
1000
0000
,
0000
0001
0000
0000
0100
0000
0010
0000
,
1010
0000
0000
1000
1000
0000
0001
0000
,
0000
1000
1000
0000
0001
0000
0010
0000
,
0100
0000
1000
0000
0001
0000
0000
0100
,
0000
0010
1000
0100
,
0000
0100
0000
0000
1000
0000
0000
0010
,
0000
0100
0001
2000
,
0000
3020
0030
0000
0100
0200
0000
0000
,
0301
0000
2000
3000
0002
0003
0020
0030
,
0020
0032
0003
0000
0200
0000
0000
0000
,
0000
0000
0310
0000
1000
0000
0010
0100
,
0010
0000
0000
0000
1000
0000
0001
0100
,
0001
0000
0000
0000
1000
0000
0001
0100
,
0010
0000
0000
0000
0010
0000
1000
0100
,
0010
0000
0000
0001
0010
0000
0100
0010
,
0100
1000
0001
0100
,
0001
0000
0000
0000
1000
0000
0010
0010
,
0100
0000
0001
0000
0001
0100
0010
0000
,
1000
0000
0001
0100
0001
0000
0002
0000
,
1003
2000
3010
0100
,
0001
0010
0000
0000
0000
0000
2000
0000
,
3010
0200
0301
0010
,
0100
1000
0000
0000
0000
0000
0002
0000
,
0103
0020
1030
0001
,
0100
0010
0000
0000
0000
0000
2000
0000
,
3001
0002
0013
0001
,
0100
0010
0010
0000
0000
0100
0000
0000
,
0001
0000
0000
0010
0000
0000
0100
0000
,
1000
0000
0010
0000
0000
0100
0000
0000
,
0001
0000
0000
0001
0000
0000
1000
0000
,
0010
0000
1000
0000
0000
0010
0000
0000
,
0100
0000
0000
0001
0000
0000
1000
0000
,
0100
0000
0010
0000
0000
0100
0000
0000
,
1000
0000
0000
0001
0000
0000
0010
0000
,
0100
0000
0010
0000
0000
0001
0000
0000
,
0010
0000
0000
0100
0000
0000
1000
0000
,
0001
0000
0010
0000
0000
0010
0000
0000
,
0100
0000
0000
1000
0000
0000
0010
0000
,
1000
0000
0100
0000
0000
0010
0000
0000
,
0100
0000
0000
1000
0000
0000
0010
0000
,
0010
0000
0100
0000
0001
0001
0000
0000
,
1000
0000
0100
0100
0000
0000
0010
0000
,
0001
0000
1000
0000
0000
0001
0000
0000
,
0100
0000
0000
0010
0000
0000
1000
0000
,
0001
0000
0100
0000
0000
0010
0000
0000
,
0100
0000
0000
0010
0000
0000
0100
0000
,
0001
0000
1000
0000
0000
0010
0000
0000
,
0100
0000
0000
0001
0000
0000
0010
0000
,
0100
0000
1000
0000
0000
0010
0000
0000
,
0100
0000
0000
0010
0000
0000
0200
0300
,
0002
0003
0000
0000
0000
0000
0000
0000
;

//--------------- dance-single - Lye ----------------
#NOTES:
     dance-single:
     Lye:
     Hard:
     11:
     0,0,0,0,0:
0000
0000
0000
0000
,
0000
0000
0000
0000
,
0000
0000
0000
0000
,
0000
0000
0000
0000
,
0000
0000
0000
0000
,
0000
0000
0000
0000
,
0000
0000
0000
0000
,
1000
0001
1000
0001
0000
0000
0000
0000
,
0001
0000
0000
1000
0001
0000
0001
0000
,
0000
0010
0000
0000
0100
0000
1000
0000
,
0001
0010
0001
0010
0100
0000
0100
1000
,
0100
1000
0001
0000
0100
0000
0010
0000
,
1100
0000
0000
0011
0000
0000
1001
0000
,
0000
0110
0000
0000
1000
0000
0001
0000
,
0110
0000
0000
0010
0010
0000
1000
0000
,
0000
0001
0001
0000
1100
0000
0011
0000
,
0101
0000
0000
0010
0000
0000
0100
1000
,
0001
0001
0011
1001
,
0101
0001
0100
0010
1000
0010
0100
0000
,
1010
0101
0000
1000
,
0010
0100
0010
1000
0001
1000
0010
0000
,
1100
0000
0101
0000
0000
1000
0001
0010
,
0100
0000
1000
0010
0010
0000
1000
0000
,
0010
0100
0001
0000
0010
0001
1000
0000
,
1000
0000
0000
0010
0100
0001
0100
0001
,
1000
0000
1000
0000
1000
0010
0100
0001
,
0011
0000
1100
0000
1000
0000
0001
0100
,
0001
0000
1000
0000
0100
0100
0010
0000
,
0011
0000
0000
1100
0000
0000
0110
0000
,
0000
0101
0000
0000
0010
1000
0010
0000
,
1000
0000
0100
0100
0010
0100
0010
0100
,
0001
0000
0001
0000
1000
1000
0010
0000
,
0100
0000
0000
0001
0000
0100
0001
0010
,
0200
1300
0002
0003
,
0000
0000
0010
0100
1000
0000
1000
0000
,
0002
0103
0020
0030
,
1000
0000
0010
0100
0001
1000
0100
0000
,
0010
0010
0101
0000
,
0100
0010
1000
0000
0001
0010
0100
0000
,
1000
1000
0001
0000
,
2000
0000
0000
0010
3200
0000
0000
0000
,
0320
0000
0000
0100
0032
0000
0000
0000
,
0003
0000
1000
0100
0010
0000
0001
0000
,
0200
0000
0000
0001
2300
0000
0000
0000
,
3101
0000
1000
0100
0010
0001
1000
0010
,
2000
0000
0000
0000
3020
0000
0130
0001
,
1000
0100
1000
0000
0001
0010
0001
0001
,
0100
0000
0100
0000
0010
0100
0010
0000
,
1000
0000
0100
1000
0001
0000
0001
0000
,
0100
0010
0100
0000
0001
0000
1000
0000
,
0100
1000
0100
0010
0001
0000
0100
0000
,
0010
1000
0001
0000
0010
0000
0100
0000
,
1010
0000
0001
0010
0100
0000
0010
0000
,
0010
0001
0010
0000
0100
0000
1000
0000
,
0011
0000
0000
1000
1000
0000
0001
0000
,
0000
1000
1000
0000
0001
0000
0100
0000
,
0010
0000
1000
0000
0001
0000
0001
1000
,
0010
0000
0010
0000
0001
0100
1000
0100
,
0010
0100
1000
0100
0010
0100
0001
0000
,
1100
0100
0001
2000
,
0000
3020
0030
0000
0110
0200
0000
0000
,
0301
0000
2000
3000
0002
0003
0020
0030
,
0020
0032
0003
1000
0200
0000
0010
0000
,
0000
0000
0310
0100
1000
0000
0001
0100
,
0010
0000
0000
1000
0100
0000
0010
0100
,
1000
0000
0000
0001
0010
0000
0100
1000
,
0001
0000
0000
0010
0100
0000
1000
0100
,
0010
0000
0000
0001
0010
0000
0100
0010
,
0100
0000
1000
0000
0001
0000
0100
0100
,
0010
0000
0000
0000
1000
0000
0001
0010
,
0001
0000
1000
0000
0001
0010
0110
0000
,
1100
0000
1000
0100
1000
0000
0012
0000
,
1003
2000
3010
0100
,
0001
0010
0000
0000
0000
0000
2100
0000
,
3010
0200
0301
0010
,
0001
0100
0010
1000
0001
1000
1002
0000
,
0103
0020
1030
0001
,
0100
0010
0000
1000
0100
0100
2000
0000
,
3100
0000
0020
0000
0130
0000
1000
0010
,
0100
0001
1000
0000
0000
0001
0000
0000
,
0100
0000
0010
0010
0100
0000
0101
0000
,
1001
0000
0110
0000
1000
0100
0001
0000
,
0001
0000
0010
0001
1000
0000
1010
0000
,
0011
0000
1000
0000
0010
0100
0001
0000
,
0001
0000
0010
0100
1000
0000
1001
0000
,
0110
0000
0001
0000
0010
0001
1000
0000
,
1000
0000
0001
0100
0010
0000
1010
0000
,
0101
0000
0110
0000
0000
1010
0000
0000
,
0010
0000
1000
0100
0010
0000
0011
0000
,
1010
0000
0001
0000
0001
0010
1000
0000
,
1000
0000
1000
0010
0001
0000
0110
0000
,
1100
0000
0100
0000
1000
0001
1000
0000
,
0010
0000
1000
0001
0010
0000
1001
0000
,
1010
0000
0001
0000
0100
0100
0001
0000
,
0001
0000
0010
0010
0100
0000
1010
0000
,
0101
0000
1000
0000
0000
0001
0000
0000
,
0100
0000
0000
0010
0000
0000
1000
0000
,
0001
0000
0100
0100
0010
0100
0001
1000
,
0100
0010
0011
0000
1001
0000
0100
0000
,
0010
0000
0001
0010
0100
0010
0100
1000
,
0001
0010
1100
0000
0101
0000
0010
1000
,
0100
0000
1000
0000
0001
0001
0010
0000
,
0100
0100
0011
0000
1010
0000
0200
0300
,
2000
3000
0000
0000
0000
0000
0000
0000
;

//--------------- dance-single - Lye ----------------
#NOTES:
     dance-single:
     Lye:
     Challenge:
     13:
     0,0,0,0,0:
0000
0000
0000
0000
,
0000
0000
0000
0000
,
0000
0000
0000
0000
,
0000
0000
0000
0000
,
0000
0000
0000
0000
,
0000
0000
0000
0000
,
0000
0000
0000
0000
,
0001
0001
0001
0001
0000
0000
0000
0000
,
1000
0100
0010
1100
,
0000
0101
0000
0000
1010
0000
0011
0000
,
0010
0001
0010
0001
1000
0000
0100
1000
,
0100
1000
0001
0000
0100
0100
0010
0000
,
1100
1000
0000
0011
0001
0000
1001
0000
,
0000
0101
0000
0000
1100
0000
0011
0000
,
0110
0000
0000
0010
0001
0000
1000
0000
,
0100
1000
0010
0000
1010
0000
0001
0000
,
0101
0000
0000
0010
1000
0000
0100
1000
,
0001
1010
0010
1000
,
0101
0001
0100
0010
1000
0010
0100
0100
,
0001
0000
1010
0000
0100
0011
1000
0000
,
0110
0001
0100
2000
3010
0001
0020
0130
,
1000
0000
0101
0000
0200
1300
0002
0100
,
2003
3020
0230
0302
0010
0000
2003
3000
,
1010
1000
0001
0000
0011
0001
1000
0000
,
0100
0000
0000
0010
0001
0100
0001
0001
,
1000
0000
1010
0000
1000
0010
1000
0100
,
0110
0000
0100
0000
1000
0000
0001
0100
,
0001
0000
1000
0000
0100
0100
0010
0001
,
0011
0000
0100
1000
0100
0000
0010
0100
,
0001
0001
1010
0000
0010
1000
0010
0000
,
1100
0000
0100
0100
0010
0100
0010
0100
,
1000
0000
0001
0000
1010
1000
0100
0000
,
0010
0000
0000
0001
0000
0100
0001
0010
,
0200
1300
0002
0003
,
2100
3000
0010
0100
1000
0000
1000
0100
,
0002
0103
0020
0030
,
2000
3100
0010
0200
1300
0001
0200
0000
,
0010
0310
2100
3100
,
0020
0001
2030
3002
0103
0010
0200
0000
,
1000
0301
0001
0000
,
2000
0000
0000
0010
3200
0000
0000
0000
,
0320
0000
0000
0100
0032
0000
0000
0000
,
0003
0000
0100
0010
1000
0001
0010
0000
,
0200
0000
0000
1000
0320
0000
0000
0000
,
0132
0003
1000
0200
0310
0001
2000
3010
,
2000
0000
0000
0000
3020
0000
0230
0301
,
0020
0130
1000
0000
0002
1003
0020
1000
,
0130
0000
0100
0000
0110
0100
0010
0000
,
1000
0000
0100
1000
0001
0000
0001
0000
,
0100
0010
1010
0000
2000
0000
0001
3000
,
1100
1000
0100
0010
0001
0000
0100
0001
,
0010
0100
1000
0000
1020
0030
1100
0000
,
0011
0000
1000
0010
1000
0000
0100
0000
,
0010
0001
0010
0000
0100
0000
1000
0000
,
0011
0000
0000
1000
1000
0000
0001
0000
,
1010
1000
0001
0000
0101
0000
0100
0000
,
0010
0000
1000
0000
0001
0001
0001
1000
,
0010
0000
0100
0000
0001
0100
1000
0100
,
0001
0100
1000
0100
0001
0010
0001
0000
,
1100
0000
0110
0100
0010
0000
0102
0100
,
1003
0020
0030
0000
0100
0200
0000
0000
,
1310
0000
2000
3000
0002
0003
0020
0032
,
0023
0032
0003
0000
0200
0000
0010
0000
,
0000
0000
0310
0100
0001
0000
0010
0100
,
0010
0000
0000
0100
1000
0000
0001
0100
,
0001
0000
0000
0001
0010
0000
0100
1000
,
0001
0000
0000
0010
0100
0000
1000
0100
,
0010
0000
0000
0001
0010
0000
0100
0010
,
0100
0000
1000
0100
1000
0010
0100
0100
,
0001
0000
0000
0010
0001
0000
0011
0010
,
0100
0000
1100
0100
0010
0001
0110
0000
,
0001
0000
0000
0000
1100
0000
0100
0000
1000
0000
0100
0000
0012
0000
0003
1000
,
0100
0000
0001
0000
2000
0000
3000
0001
0010
0000
1000
0000
0100
0000
0000
0010
,
0001
0000
0010
0000
0000
0000
1000
0000
0100
0000
1000
0000
2100
0000
3000
0010
,
0100
0000
1000
0000
0200
0000
0300
0010
0001
0000
1000
0000
0010
0000
0000
0100
,
1000
1000
0100
0000
0010
0000
0001
0000
0001
0000
1000
0000
1002
0000
0103
0000
,
0100
0000
1000
0000
0020
0000
0130
0000
0100
0000
1000
0000
0001
0000
0000
1000
,
0100
0000
0010
0000
0000
0000
1000
0000
0100
0000
0100
0000
2000
0000
3000
0010
,
0100
0000
0010
0000
0002
0000
0003
0100
0010
0000
1000
0000
0001
0000
0010
0000
,
0100
0010
1100
0000
0000
0110
0000
0000
,
0101
0000
0010
0010
0100
0000
0101
0000
,
1001
0000
0010
0000
1000
0100
0010
0000
,
0001
0000
0010
0001
1000
0000
1010
0000
,
1100
0000
2000
3000
0002
0013
0100
0000
,
2000
3000
0020
0130
0102
0003
2001
3000
,
0200
0300
0012
0003
0200
0320
1000
0030
,
2000
0000
3001
0100
0010
0000
1010
0000
,
1000
0000
0101
0000
0000
1000
0000
0000
,
0010
0000
1000
0100
0011
0000
0001
0000
,
1000
0000
1010
0000
1000
0010
0100
0000
,
0001
0000
0010
0100
1100
0000
0101
0000
,
1100
0000
0000
0000
0002
0000
0003
0000
2000
0000
3001
0000
0200
0300
0000
0000
,
0020
0000
1030
0001
0010
0000
0002
0003
,
2000
3000
0102
0003
2000
3200
0311
0000
,
0002
0000
0113
0010
1000
0000
0001
0000
,
1000
0000
1000
0000
0010
0100
0001
0000
,
0011
0000
0000
1010
0000
0000
1100
0000
,
0101
0000
0110
0100
0010
0100
0001
1000
,
0100
0010
0001
0000
0101
0000
0100
0010
,
1000
0000
0000
0000
0102
0000
0103
0000
0020
0000
1030
0000
0200
0300
0010
0000
,
0002
0003
0020
0030
1200
0000
0300
0000
0201
0000
0300
0000
0020
0000
1030
0000
,
0002
0003
2000
0000
3020
0100
0031
0000
,
0100
0000
0001
0000
0002
0000
0000
0000
1003
0000
0000
0000
0200
0300
0000
0000
,
2000
3000
0000
0000
0000
0000
0000
0000
0000
0000
0000
0000
0000
0000
0000
0000
;
