#TITLE:LUCID;
#SUBTITLE:;
#ARTIST:Rina Sawayama;
#TITLETRANSLIT:;
#SUBTITLETRANSLIT:;
#ARTISTTRANSLIT:;
#GENRE:;
#CREDIT:;
#MUSIC:lucid.ogg;
#BANNER:lucid-bn.png;
#BACKGROUND:lucid-bg.png;
#CDTITLE:;
#SAMPLESTART:77.234;
#SAMPLELENGTH:25.238;
#SELECTABLE:YES;
#OFFSET:0.385;
#BPMS:0.000=126.000;
#STOPS:;
#BGCHANGES:0.385=lucid-mv.avi=1.000=1=0=0=StretchNoLoop==CrossFade==,
99999.000=-nosongbg-=1.000=0=0=0=StretchNoLoop====
;
#FGCHANGES:;

//--------------- dance-single - Lye ----------------
#NOTES:
     dance-single:
     Lye:
     Easy:
     5:
     0,0,0,0,0:
0000
0000
0000
0000
,
0000
0000
0000
0000
,
0000
0000
0000
0000
,
0000
0000
0000
0000
,
0000
0000
0000
0000
,
0000
0000
0000
0000
,
0002
0000
0000
0000
,
0003
0000
0020
0000
,
0230
0000
0300
0000
,
0000
0000
2000
0000
,
3002
0000
0003
0100
,
0000
0010
0000
0010
,
0000
1000
0000
1000
,
0000
0001
0000
0001
,
0100
0100
0010
0010
,
1000
0000
0001
0000
,
1000
1000
0010
0010
,
0100
0000
0001
0000
,
0100
0100
0001
0001
,
0010
0000
0100
0000
,
1000
1000
0002
0000
,
0103
0000
0010
0110
,
0001
0001
0100
0100
,
0010
0010
1000
1000
,
0200
0000
0310
0001
,
1000
0000
1000
0000
,
0010
0010
0100
0100
,
0001
0001
1000
1000
,
0020
0000
1030
0001
,
0100
0000
0010
0110
,
1000
0000
0001
0000
,
2000
0000
0200
3300
,
1100
0000
0010
0000
,
0200
0000
0002
0303
,
0101
0000
1000
0000
,
0020
0000
0200
0330
,
0110
0000
1001
0000
,
0010
0000
0100
0100
,
0001
0000
0010
0000
,
0100
0000
1000
1000
,
0001
0000
0010
0000
,
0100
0000
0010
0010
,
0001
0000
0100
0000
,
0001
0000
1000
1000
,
0010
0000
0100
0000
,
1001
0000
0110
0000
,
0101
0001
0010
0010
,
0100
0100
2000
3002
,
0103
0100
0010
0010
,
1000
0001
0200
0320
,
1030
1000
0001
0001
,
0100
0100
0020
2030
,
3100
0100
0010
0010
,
0001
0001
2000
3200
,
0310
0010
0001
0001
,
1000
1000
0020
0230
,
0301
0001
0010
0010
,
0001
1000
0020
2030
,
3100
0100
1000
0001
,
0010
0010
0200
2300
,
3001
0001
0100
0001
,
0001
1000
0001
0010
,
0110
0000
0000
0100
,
1000
0001
0100
0001
,
0010
0000
0001
1000
,
0010
1000
0100
0010
,
0100
0000
0000
1000
,
0100
0010
0001
1000
,
0100
0000
0000
0001
,
1000
0001
0100
0010
,
2000
0000
0000
3000
;

//--------------- dance-single - Lye ----------------
#NOTES:
     dance-single:
     Lye:
     Medium:
     9:
     0,0,0,0,0:
0000
0000
0000
0000
,
0000
0000
0000
0000
,
0000
0000
0000
0000
,
0000
0000
0000
0000
,
0000
0000
0000
0000
,
0000
0000
0000
0000
,
0002
0000
0000
0000
,
0003
0000
0020
0000
,
0230
0000
0300
0000
,
0000
0000
2000
0000
,
3002
0010
0003
1000
,
0000
0010
0000
0100
,
0000
0001
0000
1000
,
0000
0010
0000
0100
,
0101
0001
0010
0010
,
0100
0000
0010
0000
,
0100
0100
0001
0001
,
1000
0000
0010
0000
,
1000
1000
0010
0010
,
0100
0000
0001
0000
,
0010
0010
0200
0000
,
2300
0000
3001
1010
,
0010
1000
0100
0000
0100
0000
0010
0000
,
1000
1000
0001
0001
,
0200
0000
0010
0302
,
0003
1000
0000
1000
,
0010
1000
0001
0000
0010
0000
0010
0000
,
0100
0100
1000
0010
,
0200
0000
0001
0301
,
1000
0000
0001
0101
,
0100
0000
0001
1000
0001
0000
0100
0000
,
0020
0000
2000
3030
,
0100
0000
1000
0001
1000
0000
0001
0000
,
0020
0000
0200
0330
,
1000
0000
0001
0010
0001
0000
1000
0000
,
0002
0000
0020
0033
,
0010
0000
0010
0100
1000
0000
0010
0100
,
0010
0000
0010
0100
0001
0000
0011
0000
,
1010
0000
0000
0000
0100
0000
0010
0001
,
0010
0000
0100
1000
0100
0000
1010
0000
,
0110
0000
0000
0000
0001
0000
1000
0010
,
1000
0000
0001
0001
0010
0000
1100
0000
,
1010
0000
0000
0000
0100
0000
0001
1000
,
0001
0000
0010
0100
1000
0000
1100
0000
,
1010
0000
0000
0000
0100
0000
0001
0100
,
0010
0000
0010
1000
0100
0000
1010
0000
,
0011
0000
0001
0000
1000
0100
1000
0000
,
0010
0100
0011
1001
,
0010
0000
0010
0000
0100
0001
0100
0000
,
0010
1000
1100
1001
,
0100
0000
0010
0000
0100
1000
0100
0000
,
1000
0001
0110
1010
,
1000
0000
0001
0000
0010
0100
1000
0000
,
0010
0100
0101
1010
,
0010
0000
0010
0000
1000
0100
1000
0000
,
0001
0010
0110
1100
,
0010
0000
0100
0000
0001
0010
0001
0000
,
1000
0100
0011
1001
,
0010
0000
0010
0000
0100
0010
0100
0000
,
0001
0001
0110
1010
,
0010
1000
0010
1000
0100
0000
1000
0001
,
1000
0000
0001
1000
0001
0000
0110
0000
,
0101
0000
0000
0000
0001
0000
0010
0100
,
0010
0000
0100
1000
0001
0000
1010
0000
,
0101
0000
0000
0000
1000
0000
0010
1000
,
0001
0000
0001
1000
0010
0000
0101
0000
,
0110
0000
0000
0000
0001
0000
0100
0010
,
0100
0000
0001
1000
0010
0000
0110
0000
,
1100
0000
1000
0000
0001
0000
0001
0100
,
0001
0000
1000
0100
1000
0000
0110
0000
,
0102
0000
0000
0003
;

//--------------- dance-single - Lye ----------------
#NOTES:
     dance-single:
     Lye:
     Hard:
     10:
     0,0,0,0,0:
0000
0000
0000
0000
,
0000
0000
0000
0000
,
0000
0000
0000
0000
,
0000
0000
0000
0000
,
0000
0000
0000
0000
,
0000
0000
0000
0000
,
0200
0000
0000
0000
,
0300
0000
0002
0000
,
0023
0000
0030
0000
,
0000
0000
0000
0100
2000
0000
3000
0000
,
0200
0000
0000
0010
0300
0000
0010
0000
0000
0001
0000
0000
0001
0000
0000
0100
,
0000
0000
0001
0000
0000
1000
0000
0000
0020
0000
0000
0000
1030
0000
0000
0000
,
0010
0000
0000
0010
0000
0000
0100
0000
0000
0001
0000
0000
0010
0000
0000
0001
,
0000
0000
0100
0000
0000
0001
0000
0000
0020
0000
0000
0000
0130
0000
0000
0000
,
0110
0000
0001
0000
0010
0000
0100
1000
,
0010
0000
0010
1000
,
0001
0100
0001
0000
1000
0010
0100
0000
,
0001
0000
0010
0000
,
0100
1000
0100
0000
0001
0100
0010
0000
,
0100
0000
0000
0000
0000
0000
0000
0000
0001
0000
0010
0000
0000
0010
0000
0000
,
0001
0000
0000
1000
0000
0000
0200
0000
0000
0000
0000
0000
0000
0000
0000
0000
,
0320
0000
0031
1010
,
0000
1000
0010
0000
1000
0010
0000
1000
,
0010
0000
1000
0010
0000
1000
0001
0000
,
0020
0000
0000
0030
0000
0000
0100
0000
2000
0000
3000
0000
0020
0000
0000
0000
,
0030
0000
0000
0000
1000
0000
0000
0010
0000
0100
0000
0001
0000
0000
2000
3000
,
0000
0001
0100
0000
0001
0100
0000
0001
,
0100
0000
0001
0100
0000
0001
0100
0000
,
0020
0000
0000
1030
0200
0300
0020
0030
,
0001
0000
0000
0000
0000
0000
0001
0000
0000
1000
0000
0000
0000
0000
0000
0000
0000
0000
1000
0000
0000
0000
0000
0000
0010
0000
0000
0000
0000
0000
1000
0000
0000
0001
0000
0000
0000
0000
0000
0000
0000
0000
0200
0000
0300
0000
0000
0000
,
0200
0000
0300
0000
0000
0000
0001
0000
0000
0000
0000
0000
0010
0000
0000
0000
0000
0000
0000
0000
0000
0100
0000
0000
0000
0000
0000
0000
0000
0000
1000
0000
0000
0000
0000
0000
0010
0000
0000
0000
0000
0000
0100
0000
0000
0000
0000
0000
,
0002
0000
0003
1000
2000
0000
3000
0010
,
0100
0000
0001
0000
1000
0000
0000
0100
0000
0000
0100
0000
0010
0000
0001
0000
,
0020
0000
0030
0001
0200
0000
0310
1000
,
0000
0000
1000
0000
0001
0000
0000
0100
0000
0000
0010
0000
1000
0000
0100
0000
,
0020
0000
0030
0001
0020
0000
0030
0001
,
0010
0100
0010
0100
1000
0000
0010
0100
,
0010
0000
1000
0100
0010
0000
0101
0000
,
1010
0000
0000
0000
0000
0000
0020
0030
0000
0000
0000
0000
2000
3000
0000
0000
0000
0000
0100
0000
0000
0010
0000
0000
,
0001
0000
0100
0001
0010
0000
0101
0000
,
1010
0000
0000
0000
0000
0000
2000
3000
0000
0000
0000
0000
0002
0003
0000
0000
0000
0000
1000
0000
0000
0010
0000
0000
,
1000
0000
0001
0001
0010
0000
1100
0000
,
1010
1000
0000
0010
0000
1000
0001
1000
,
0001
0100
0010
0100
0001
0000
1100
0000
,
1010
0000
0000
0000
0000
0000
0002
0003
0000
0000
0000
0000
0200
0300
0000
0000
0000
0000
0001
0000
0000
0100
0000
0000
,
0010
1000
0010
0100
0001
0100
1010
0000
,
0011
0001
0001
0001
1000
0100
1000
0100
,
0010
0000
0001
0000
0001
0000
0100
0000
0002
0000
0000
0003
1010
0000
0000
0000
,
0010
1000
1000
1000
0100
0010
0100
0010
,
0001
1000
1000
0100
0020
0030
1100
0000
,
0100
0010
0010
0010
0001
0100
0001
0100
,
0010
1000
1000
0001
0020
0030
1100
0000
,
0100
1000
1000
1000
0010
0100
0010
0100
,
0010
1000
1000
0100
0020
0030
1100
0000
,
0010
0001
0001
0010
1000
0100
1000
0100
,
0010
0001
0001
1000
0020
0030
0101
0000
,
0100
0010
0010
0010
1000
0100
1000
0100
,
1000
0010
0010
0100
0002
0003
0011
0000
,
0010
0100
0100
0100
1000
0010
1000
0010
,
0010
0100
0100
0010
2000
3000
0101
0000
,
0010
0100
0010
0100
0001
0000
1000
0001
,
1000
0000
0001
0010
0100
1000
0110
0000
,
0011
0000
0000
0000
0010
0000
0001
0100
,
0010
0000
0001
0010
0001
0000
1100
0000
,
1010
0000
0000
0000
0000
0000
0020
0030
0000
0000
0000
0000
0200
0300
0000
0000
0000
0000
0010
0000
0000
1000
0000
0000
,
0001
0000
0001
1000
0010
0000
1010
0000
,
0101
0000
0000
0000
0000
0000
0200
0300
0000
0000
0000
0000
0020
0030
0000
0000
0000
0000
1000
0000
0000
0100
0000
0000
,
1000
0000
0001
0001
0010
0000
1010
0000
,
0110
0000
0000
0001
1000
0000
0100
0000
0010
0000
0001
0000
0001
0000
0100
0000
,
0100
0010
1000
0100
1000
0001
0100
0010
,
0102
0000
0000
0003
;

//--------------- dance-single - Lye ----------------
#NOTES:
     dance-single:
     Lye:
     Challenge:
     13:
     0,0,0,0,0:
0000
0000
0000
0000
,
0000
0000
0000
0000
,
0000
0000
0000
0000
,
0000
0000
0000
0000
,
0000
0000
0000
0000
,
0000
0000
0000
0000
,
2000
0000
0000
0000
,
3000
0000
0002
0000
,
0203
0000
0300
0000
,
0000
0000
0000
0100
2000
0000
3020
0030
,
0100
0000
0000
0100
0000
0000
0001
0000
0000
0001
0000
0000
0001
0000
0000
0010
,
0000
0000
0010
0000
0000
0010
0000
0000
0100
0000
0000
1000
0000
0000
0001
0000
,
0010
0000
0000
0010
0000
0000
0100
0000
0000
1000
0000
0000
1000
0000
0000
0010
,
0000
0000
0100
0000
0000
0000
0100
0001
0020
0000
0030
0000
0100
0000
0000
0000
,
1100
0010
0001
0000
0100
0010
0100
0000
,
0100
0000
0000
0000
0010
0000
1000
0100
,
0010
0100
1000
0010
0100
0001
0010
0000
,
0100
0000
0000
0000
0010
0000
0001
0001
,
1000
0000
0010
1000
0100
0100
0010
0000
,
0100
0000
0000
0000
0000
0000
0000
0000
0001
0000
0010
0000
0000
0010
0000
0000
,
0001
0000
0000
1000
0000
0000
0200
0000
0000
0000
0000
0000
0000
0000
0010
0000
,
0320
0000
0000
0000
0031
0100
1010
0000
,
0010
0000
0000
1000
0000
0000
0100
0000
0000
0010
0000
0000
0100
0000
0000
1000
,
0000
0000
0001
0000
0000
1000
0000
0000
0001
0000
0000
0100
0000
0000
0010
0000
,
0020
0000
0000
0030
0000
0000
0100
0001
0100
0000
0000
0000
0020
0000
0000
0000
,
0030
0000
0000
0000
1000
0100
1000
0010
0000
0100
0000
0010
0000
0000
2000
3000
,
0001
0000
0000
0100
0000
0000
0001
0000
0000
0010
0000
0000
0001
0000
0000
0100
,
0000
0000
0010
0000
0000
1000
0000
0000
0001
0000
0000
0100
0000
0000
0100
0000
,
0020
0000
0000
0000
0000
0000
1030
0100
1000
0000
0000
0000
0002
0000
0103
0000
,
0010
0000
0100
0000
0001
0000
1000
0000
0000
0000
0000
0000
1000
0000
0000
0000
0010
0000
0000
0000
1000
0000
0001
0000
0101
0000
0000
0000
0200
0300
0000
0000
,
0200
0300
0000
0000
0001
0000
0000
0000
0010
0000
0000
0000
0100
0000
1000
0000
0000
0000
0000
0000
0010
0000
0000
0000
0100
0000
0000
0000
0010
0000
0000
0000
,
0020
0000
0000
0000
0030
0000
1000
0100
2000
0000
0000
0000
3000
0000
0010
0000
,
0100
0000
0001
0000
1000
0000
0001
0100
0000
0000
0100
0000
0010
0000
1000
0000
,
0020
0000
0000
0000
0030
0000
0100
0001
0200
0000
0000
0000
0310
0000
1000
0000
,
0000
0000
1000
0000
0001
0000
0010
0001
0000
0000
0001
0000
1000
0000
0100
0000
,
0020
0000
0000
0000
0030
0000
0001
0100
0020
0000
0000
0000
0030
0000
1000
0000
,
0010
0100
0010
0100
0001
0000
0010
0100
,
0010
0000
0100
1000
0010
0000
0101
0000
,
1010
0000
0000
0000
0000
0000
0000
0000
2000
3000
0000
0000
0000
0000
0000
0000
0200
0300
0000
0000
0000
0000
0000
0000
0010
0000
0000
0000
0001
0000
0000
0000
,
0010
0000
0100
1000
0100
0000
1010
0000
,
0110
0000
0000
0000
0000
0000
0000
0000
0002
0003
0000
0000
0000
0000
0000
0000
0002
0003
0000
0000
0000
0000
0000
0000
1000
0000
0000
0000
0010
0000
0000
0000
,
1000
0000
0001
0001
0010
0000
1100
0000
,
1010
0000
0000
0000
2000
3000
0000
0000
0000
0000
0000
0000
0002
0003
0000
0000
0000
0000
0000
0000
2000
3000
0000
0000
0001
0000
0000
0000
2000
3000
0000
0000
,
0001
0200
0310
0100
0001
0000
1100
0000
,
1010
0000
0000
0000
0000
0000
0002
0003
0000
0000
0000
0000
0200
0300
0000
0000
0000
0000
0001
0000
0000
0100
0000
0000
,
0010
1000
0010
1000
0010
0000
0100
0001
0100
0001
0100
0000
1010
0000
0000
0000
,
0011
0001
0001
0001
1000
0100
1000
0100
,
0010
0000
0001
0000
0001
0000
0100
0010
2000
0000
3000
0000
0011
0000
0000
0000
,
0010
0001
0001
0001
0100
0010
0100
0010
,
1000
0000
0001
0000
0001
0000
0100
0010
2000
0000
3000
0000
0101
0000
0000
0000
,
0100
0010
0010
0010
0100
0001
0100
0001
,
1000
0000
0010
0000
0010
0000
1000
0001
0020
0000
0030
0000
1100
0000
0000
0000
,
0100
1000
1000
1000
0010
0100
0010
0100
,
0010
0000
1000
0000
1000
0001
0010
0100
0020
0000
0030
0000
0011
0000
0000
0000
,
0001
0000
0100
0001
0100
0000
0010
0000
1000
0000
0100
0000
1000
0000
0100
0000
,
0010
0000
0001
0000
0001
0000
1000
0100
0020
0000
0030
0000
1100
0000
0000
0000
,
0010
0000
1000
0001
0100
0000
0010
0000
1000
0000
0100
0000
1000
0000
0100
0000
,
1000
0000
0010
0000
0010
0000
0100
0010
2000
0000
3000
0000
0011
0000
0000
0000
,
0010
0000
0001
1000
0010
0000
0010
0000
0100
0000
0001
0000
0100
0000
0001
0000
,
0010
0000
0100
0000
1000
0000
0010
0100
0002
0000
0003
0000
1010
0000
0000
0100
,
0010
1000
0010
1000
0100
0000
1000
0001
,
1000
0000
0000
0000
0001
0100
0001
0100
0001
0000
1000
0100
1000
0000
0010
0000
,
0110
0000
0000
1000
0001
0000
0100
0000
0001
0000
0000
0010
0001
0000
0100
0000
,
0010
0000
0000
1000
0001
0000
0010
0000
0001
0000
0010
0001
0100
0000
0001
0000
,
1000
0000
0000
1000
0010
0000
0010
0000
0100
0000
0000
0100
0010
0000
1000
0000
,
0001
0000
0000
1000
0001
0000
1000
0000
0010
0000
0000
1000
0010
0000
0100
0000
,
0010
0000
0000
0000
2000
3000
0000
0000
0000
0000
0000
0000
0002
0003
0000
0000
0000
0000
0000
0000
0020
0030
0000
0000
0100
0000
0000
0000
2000
3000
0000
0000
,
0010
0200
0301
0001
0010
0000
0110
0000
,
1100
0000
0000
0010
1000
0000
0100
0000
0010
0000
0001
0000
0001
0000
0100
0001
,
0100
0000
0010
1000
0001
0010
0001
0010
0100
0000
1000
0001
0100
0000
0010
0000
,
0102
0000
0000
0003
;
