#TITLE:Kongaragatta!;
#SUBTITLE:;
#ARTIST:Necry Talkie;
#TITLETRANSLIT:;
#SUBTITLETRANSLIT:;
#ARTISTTRANSLIT:Necry Talkie;
#GENRE:;
#CREDIT:;
#MUSIC:Kongaragatta!.ogg;
#BANNER:Kongaragatta!-bn.png;
#BACKGROUND:Kongaragatta!-bg.png;
#CDTITLE:;
#SAMPLESTART:39.194;
#SAMPLELENGTH:25.338;
#SELECTABLE:YES;
#OFFSET:0.090;
#BPMS:0.000=150.077
,25.000=150.349
,68.000=149.890
,98.500=150.128
,139.250=149.788
,140.000=159.658
,144.000=148.658
,156.000=149.658
,162.000=165.658
,162.875=148.945
,168.375=145.594
,168.500=300.153
,172.000=150.077
,349.250=156.856
;
#STOPS:168.500=0.100
,169.000=0.100
,169.500=0.100
,170.000=0.100
,170.500=0.100
,171.000=0.100
,171.500=0.100
;
#DISPLAYBPM:145.594:165.658;
#BGCHANGES:0.090=Kongaragatta!-mv.avi=1.000=1=0=0=StretchNoLoop==CrossFade==,
99999.000=-nosongbg-=1.000=0=0=0=StretchNoLoop====
;
#FGCHANGES:;

//--------------- dance-single - Lye ----------------
#NOTES:
     dance-single:
     Lye:
     Easy:
     4:
     0,0,0,0,0:
0000
0000
0000
0000
,
1000
0000
0000
0000
,
0001
0000
0100
0010
,
1000
0000
0000
0000
,
0100
0000
0010
0001
,
0100
0100
0010
0010
,
1000
0000
0001
0100
,
0010
0010
0100
0001
,
0010
0000
0100
1000
,
0010
0010
0100
0000
,
1001
0000
0010
0000
,
0100
0000
1000
0100
,
0010
0000
0001
0000
,
0100
0010
1000
0000
,
0001
0000
0001
0000
,
1000
0000
1000
0100
,
0010
0000
0100
0000
,
2000
0000
0000
3000
,
0020
0000
0000
0030
,
0200
0000
0000
0300
,
0002
0000
0000
0003
,
0020
0000
0000
0030
,
0200
0000
0000
0300
,
2000
0000
0000
0000
,
3001
0000
0000
0000
,
1001
0001
0100
0000
,
0110
0100
0001
0000
,
0010
0000
0100
0000
,
1000
1000
0010
0000
,
0200
0000
0310
0000
,
2000
0000
3001
0000
,
0010
0100
0001
0100
,
0010
1000
0000
0000
,
1000
0000
0001
0000
,
0010
0200
0000
0000
,
1300
0000
0000
0000
,
0001
0000
0000
0000
,
0010
0000
0000
0000
,
0000
0000
0000
0000
,
0200
0000
0000
0000
,
0000
0000
0000
0300
,
1000
0001
1000
0001
,
0100
0000
0000
0000
,
0010
0000
1000
0000
,
0100
0000
0100
0010
,
0001
0000
0100
0000
,
0010
0000
1000
0010
,
0100
0000
0010
0000
,
1000
0000
1000
0010
,
0100
0000
0001
0000
,
0010
0000
0100
0010
,
0001
0001
1000
1000
,
0010
0010
0100
0100
,
0001
0001
0010
0010
,
0100
0100
1000
1000
,
0010
0010
0100
0100
,
0010
0010
1000
0001
,
0200
0000
0000
0000
0020
0000
0000
0330
,
0110
0000
0000
0000
,
0000
0000
0000
0000
,
2000
0000
0000
3000
,
0020
0000
0000
0030
,
2000
0000
3002
0000
,
0023
0000
0030
0001
,
1001
1000
0010
0010
,
0100
0100
0001
0001
,
0010
0010
0100
0100
,
1000
1001
0000
0000
,
1000
0001
0001
0000
,
0010
0100
1000
0000
,
0010
0000
0100
0000
,
0001
1000
0010
0000
,
0200
0000
0301
0000
,
0200
0000
0310
0000
,
0100
0010
1000
0010
,
1000
0001
0000
0000
,
0001
0010
0010
0000
,
0100
1000
0001
0000
,
0100
0000
0010
0000
,
1000
0001
0010
0000
,
0100
0000
0010
0000
,
0100
0000
1000
0000
,
0001
0100
0001
0100
,
0010
1000
0000
0000
,
0001
0000
0100
0000
,
0010
2000
0000
0000
,
0000
0000
0000
3000
,
0110
0000
0000
0000
;

//--------------- dance-single - Lye ----------------
#NOTES:
     dance-single:
     Lye:
     Medium:
     8:
     0,0,0,0,0:
0000
0000
0000
0000
,
1000
0100
0010
0001
,
0100
0000
0000
0001
0100
0000
0010
0000
,
1000
0010
0100
0010
,
1000
0000
0000
0010
0100
0000
0001
0000
,
1000
0000
0100
0000
0010
0100
0010
0000
,
0001
0000
0000
0100
0001
0000
1000
0000
,
0010
0000
0100
0000
0001
0010
0001
0000
,
1000
0000
0000
0010
0100
0000
0001
0000
,
0010
0100
0010
0000
0100
0000
1000
0000
,
1010
0000
0000
0001
0010
0000
0001
0000
,
0100
0000
0010
0100
0001
0000
0010
0000
,
0110
0000
0001
1000
0000
1000
0001
0000
,
0100
0000
0010
0000
1000
0001
0100
0000
,
0101
0000
0000
0001
1000
0000
0000
0010
,
0000
0010
0100
0000
0001
0000
1000
0100
,
0000
0000
0010
0010
0000
0000
0000
0000
,
0002
0003
0002
0003
0002
0003
0100
0010
,
0000
1000
0000
0010
0000
0100
0001
0000
,
0010
0000
0100
0000
0000
1000
0010
0000
,
0100
0001
1000
0100
,
2000
3000
2000
3000
2000
3000
2000
3000
,
0002
0003
0002
0003
0002
0003
0002
0003
,
0040
0000
0000
0000
,
0030
0000
0000
0000
0000
0100
1000
0000
,
0001
0000
0010
0000
0100
0000
0010
0010
,
0000
0101
0000
1010
0000
0001
0000
0010
,
0000
0100
1000
0100
0000
0100
0010
0100
,
0000
0010
0001
0010
0000
0001
0000
1000
,
0000
0010
0100
0000
0010
1000
1000
0000
,
0001
0000
0010
0000
0010
0001
0001
0000
,
0010
0100
0010
0100
,
1000
0010
0000
0000
,
1000
0000
0001
0000
0001
0000
0010
0001
,
0010
0200
0000
0000
,
2310
3000
0000
0000
0000
0000
0000
0000
,
0002
0003
0000
0000
0000
0000
0000
0000
,
0020
0030
0000
0000
0000
0000
0000
0000
,
0100
0010
0010
0100
,
0200
0000
0000
0000
,
2000
3000
0000
0000
0000
0000
0300
0000
,
1000
0100
0001
0001
,
0004
0000
0000
0000
,
0013
0000
0100
0000
1000
0000
0010
0100
,
0001
0000
0010
0000
0100
0000
1000
0010
,
0100
0000
0010
0000
0100
0000
0001
0100
,
0010
0000
0010
0000
1000
0000
0100
1000
,
0010
0000
0100
0000
,
0001
0000
0000
0000
1000
0100
0010
0000
,
0001
0000
0000
0100
0001
0000
0000
0010
,
0000
0010
0001
1000
,
0001
0100
0001
0000
1000
0010
1000
0000
,
0010
0100
0010
0000
0100
0001
0100
0000
,
0001
1000
0001
0000
0010
0100
0010
0000
,
0100
1000
0100
0000
1000
0001
1000
0000
,
0010
0100
0010
0000
0100
0001
0100
0000
,
0010
1000
0010
0000
1000
0001
0010
0000
,
0200
0000
0000
0000
0020
0000
0000
0330
,
0110
0000
0000
0000
,
0000
0000
0000
0000
0000
0001
1000
0000
,
2000
0010
0010
3000
,
0020
0100
0100
0030
,
0200
0000
0302
0010
,
0023
0000
0030
0001
,
1001
1000
1010
0010
,
0110
0100
0101
0001
,
0110
0010
1100
0100
,
1010
0000
1001
0000
0000
0001
1000
0000
,
1000
0000
0010
0000
0100
0000
0010
0100
,
0000
0011
0000
1100
0000
1000
0000
0001
,
0000
0100
0010
1000
0000
0100
0010
0001
,
0000
0001
1000
0100
0000
0010
0000
0001
,
0200
0000
0000
0000
0301
0100
0001
0000
,
0200
0000
0000
0000
0310
1000
0010
0000
,
0100
0010
1000
0010
,
1000
0000
0001
0000
0000
0010
0100
0000
,
0001
0000
1010
0000
0101
0000
0010
1000
,
0000
0011
0000
0110
0000
0100
0000
0002
,
0000
0013
0100
0010
0000
0001
1000
0010
,
0000
0100
0001
1000
0000
0010
0100
0010
,
0000
0010
1000
0000
0010
0010
0000
1000
,
0100
1000
0100
0000
0001
0010
0000
0000
,
0001
1000
0100
0000
0001
1000
0100
0000
,
0010
0000
0100
0000
0001
0000
0010
0100
,
1000
0000
1000
0000
0100
0010
0100
0000
,
0010
0001
0200
0000
0000
0000
0000
0000
,
0000
0000
0000
0300
,
1010
0000
0000
0000
,
0000
0000
0000
0000
0001
0100
0010
1000
;

//--------------- dance-single - Lye ----------------
#NOTES:
     dance-single:
     Lye:
     Hard:
     12:
     0,0,0,0,0:
0000
0000
0000
0000
,
0001
0010
0100
0000
0010
0100
0001
0010
,
1000
0000
0000
0000
0000
0000
0001
0010
0001
0000
1000
0100
1000
0000
0000
0000
,
1000
0000
0000
0000
0110
0000
0000
0000
0010
0000
1000
0100
0000
1000
0001
0000
,
0100
0000
0000
0000
0000
0000
0010
0100
0001
0000
1000
0010
0100
0000
0001
0000
,
0010
0001
0100
0000
0010
1000
0100
0010
,
0001
0000
0000
0000
0000
0000
0100
0001
0100
0000
0010
0100
0001
0000
0000
0000
,
0010
0100
1000
0000
0100
0010
0001
0100
,
0010
0000
0000
0000
0000
0000
0010
1000
0100
0000
0010
0001
1000
0000
0000
0000
,
0010
0100
0010
1000
0001
0100
0010
1000
,
0010
0000
1010
0001
0010
0200
0300
1000
,
0000
0000
0100
0010
0100
0000
0001
0000
0010
0000
1000
0000
0100
0000
0010
0000
,
0000
0000
0001
1000
0000
0001
0010
1000
,
0001
0010
0100
1000
0100
0010
0001
1000
,
0000
0000
0000
0000
0100
0000
0001
0010
0001
0000
0100
0000
1000
0000
0010
0000
,
0001
0000
0100
0010
0100
0000
0010
0000
1000
0000
0010
0000
0100
0000
0002
0003
,
0000
0000
0100
0000
0010
0000
0020
0030
0000
0000
1000
0000
0001
0100
0000
0100
,
0002
0023
0230
2300
3002
0023
0030
0020
,
0032
2003
3200
0320
0030
0200
2300
3002
,
0023
0230
0300
0020
0032
2003
3020
0230
,
0300
0002
0203
0302
0023
0130
1000
0000
,
2000
3001
0200
0300
0020
0030
0020
0130
,
0002
0003
0002
0003
0002
0013
0001
0001
,
4000
0000
0000
0000
,
3000
0000
0000
0000
0000
0100
2000
3000
,
0110
0000
0101
0000
1010
0000
0010
1000
,
0000
1100
0000
0011
0000
0001
0000
0200
,
0300
0000
0010
0000
1000
0000
1000
0000
0100
0000
0010
0100
1000
0000
0100
0000
,
0100
0010
0001
0010
0000
0010
0010
0001
,
0000
1000
0010
1000
0010
1010
0101
0001
,
0000
0001
1000
0100
1000
0011
1100
1000
,
0000
0010
0100
0100
0010
0100
0001
1000
,
1000
0000
0100
0000
0010
0000
0001
0000
1000
0000
0010
1000
0100
0000
0010
0000
,
0001
0000
0000
0010
0100
0000
0010
0000
0001
0000
0001
0000
0100
0000
0100
0000
,
0010
1000
0200
0000
0000
0000
0000
0300
,
0012
0000
0000
0003
,
0200
0000
0000
0300
,
0010
0000
0000
1000
0000
0000
0010
0000
0000
0100
0000
0000
0001
0000
1000
0000
,
0200
0000
0010
0010
0310
0000
0100
0000
,
2000
0000
0001
0000
,
0020
0000
0000
0000
0000
0000
0000
0000
3030
0000
0000
1000
0001
0000
0000
0000
,
1000
0001
1000
0001
0001
1000
0001
1000
,
1000
0001
0001
0001
0001
0001
0001
0010
,
0100
0000
0000
0000
1000
0100
1000
0000
0000
0000
0010
0000
1000
0000
0001
0000
,
0000
0000
1000
0000
0100
0010
0100
0000
0010
0000
0001
0000
0100
0000
1000
0000
,
0100
0000
0000
0000
0010
1000
0100
0000
0000
0000
0010
0000
0100
0000
1000
0000
,
0000
0000
1000
0000
0010
0000
0100
0000
0001
0000
0100
0000
0010
0000
0000
0010
,
0000
0000
0000
0000
0000
0000
0100
1000
0100
0000
0000
0000
0000
0000
0001
0100
,
0001
0000
0000
0000
0000
0000
1000
0010
0100
0000
0001
0000
0010
0000
0100
0000
,
1000
0100
0010
0000
0000
0000
0100
0000
0010
0000
0010
0001
0000
0000
1000
0000
,
0001
0100
0000
0000
0100
0000
0010
1000
0010
0000
0100
0000
0100
0000
0100
0000
,
0001
0000
0010
0000
0001
0000
0000
0000
1000
0100
0010
0000
0100
0000
0000
0000
,
0010
0100
0010
0000
0001
0100
0101
0000
,
0001
1000
0010
0000
0100
0010
1010
0000
,
0100
1000
0100
0000
1000
0001
0011
0000
,
0010
0000
0100
1000
0100
0000
0000
0000
0100
0000
0010
0000
0101
0000
0000
0000
,
0010
0100
0010
0000
1000
0000
0000
0000
0100
0000
0010
0000
1100
0000
0100
0000
,
0200
0000
0000
0000
0000
0300
0010
0000
0020
0000
0000
0000
0000
0000
0030
0000
,
0101
0000
0000
0000
0001
0000
0100
0000
0000
0010
0000
0100
0000
0001
0100
0010
,
1000
0000
0000
0000
0000
0001
1000
0000
,
1000
0000
0010
0000
0010
0000
0100
0002
,
0000
0100
0000
0100
0003
0020
0030
2000
,
3000
0000
0100
0000
0100
0000
0010
0000
0001
0000
0010
0100
0010
0000
0001
0000
,
0001
0100
0010
1000
0000
1000
0001
1000
,
1001
0001
1000
0010
1000
0100
0000
0010
,
0001
0100
1000
0100
0010
0001
0000
0100
,
1100
0010
0001
0100
1010
1000
0010
0100
,
1010
1100
0101
0011
0000
0001
1000
0000
,
1010
0000
0110
0000
0101
0000
0010
0100
,
0000
1100
0000
0011
0000
2000
3000
0002
,
0003
0000
0100
0000
0010
0000
1000
0000
1000
0000
0100
0000
0010
0000
0001
0100
,
0001
0010
0100
1000
0000
0010
1000
0200
,
0300
0000
0010
0100
1000
0000
1000
0000
1100
0000
1001
0000
0000
0000
0100
0000
,
0100
0000
0010
0000
0001
0000
1000
0000
1010
0000
1001
0000
0000
0000
1000
0100
,
1000
0100
0010
0100
1000
0001
0010
0100
,
1010
0110
0101
0000
0000
0010
0001
0000
,
1100
0000
1010
0000
0101
0100
0010
1000
,
0000
0000
0011
0000
0000
1000
0010
0000
0100
0000
0000
0010
0000
0000
0200
0000
,
0000
0000
0310
1000
0000
1000
0010
0000
0010
0000
0100
0000
0100
0000
0010
0000
,
1000
0000
0100
0000
0001
0000
0100
0000
1000
0000
0001
0010
0100
0010
0002
0000
,
0003
0010
1000
0010
0011
1001
0000
1000
,
0100
0001
0100
1000
1010
0101
0000
0100
,
0001
0001
1000
0100
0010
0010
0001
0100
,
0100
0010
2000
0000
3001
0000
0010
0001
,
0200
0000
0300
0001
1000
0000
0100
0000
0010
0000
0010
0000
0100
0000
0020
0000
,
0030
1000
0200
0000
0000
0000
0000
0000
,
0000
0000
0000
0300
,
0011
0000
0000
0000
,
0000
0000
0000
0000
0000
0000
0000
0000
0001
0010
0001
0000
1000
0000
0200
0000
,
0000
0000
0000
0300
0000
0000
0000
0000
;

//--------------- dance-single - Lye ----------------
#NOTES:
     dance-single:
     Lye:
     Challenge:
     14:
     0,0,0,0,0:
0000
0000
0000
0000
,
0001
0000
0010
0000
0100
0000
1000
0000
0001
0010
0001
0010
0001
0000
0100
0000
,
0010
0000
0000
0000
0000
0000
0010
1000
0001
0000
0001
0100
0010
0000
0000
0000
,
1000
0000
0100
0000
0010
0000
0001
0000
0010
0100
1000
0100
0010
0000
0001
0000
,
0100
0000
0000
0000
0000
0000
0010
1000
0100
0000
1000
0010
0100
0000
1000
0100
,
0010
0000
1000
0000
0100
0000
0010
0000
0001
0100
1000
0100
0001
0000
0100
0000
,
0100
0000
0000
0000
0000
0000
0010
1000
0100
0000
0100
0010
0001
0000
0000
0000
,
0010
0000
0100
0000
1000
0000
1000
0000
0100
0010
0001
0010
0100
0000
1000
0000
,
0010
0000
0000
0000
0000
0000
1000
0001
0100
0000
0100
0010
1000
0000
0000
0000
,
0010
0000
0100
0000
0010
0000
0100
0000
0001
0000
0001
1000
0000
0010
1000
0010
,
0100
0000
0000
0000
0000
0000
0001
0100
0010
0000
0100
0000
0001
0000
0000
0000
,
1100
0000
0000
0000
0010
0000
0100
0000
0000
0000
0010
0100
0000
0001
1000
0000
,
0100
0000
0000
0000
0010
0000
0001
0100
0010
0000
0010
0100
0001
0000
1000
0000
,
0100
0000
0010
0000
0100
0000
1000
0000
0100
0000
0100
0010
0000
0100
0000
1000
,
0010
0000
0000
0000
0100
0000
0001
0010
0001
0000
0100
1000
0100
0000
0010
0000
,
1000
0000
0100
0010
0100
0000
0010
0000
0001
0000
0100
0000
0010
0000
0100
0010
,
1000
0000
0100
0000
0010
0100
0010
0001
0100
0000
0010
0000
1000
0100
0000
0010
,
0200
0320
0230
2300
3002
0023
0230
0320
,
0032
2003
3200
0320
0030
0200
2300
3002
,
0023
0230
0300
0020
0032
2003
3020
0230
,
0300
0000
0002
0000
0023
0000
0032
0000
0023
0000
0031
0100
0010
0000
1000
0000
,
2000
3001
0200
0300
0020
0030
0020
0130
,
0002
0000
0003
0010
0002
0000
0003
0000
0002
0000
0013
0000
0001
0000
0001
0000
,
0100
0010
1000
0010
1000
0010
1000
0010
1000
0010
1000
0010
1000
0010
1000
0010
,
1000
0000
0000
0000
0000
0100
2000
3000
,
0010
0100
0000
0010
0100
0000
0001
0000
1010
0000
0000
0000
0010
0000
1000
0000
,
0001
0000
0001
0000
1000
0010
0000
0100
0001
0000
0002
1000
0003
0000
0200
0000
,
0300
0000
0010
0001
1000
0000
1000
0000
0100
0000
0010
0100
1000
0000
0100
0010
,
0100
0000
0010
0000
0001
0000
0010
0100
1000
0000
0010
0100
0010
1000
0001
0000
,
0000
0000
0010
1000
0000
0010
1000
0000
0010
0000
1010
0000
0101
0000
0010
0000
,
0000
0010
0001
0000
1000
0100
0000
0100
1000
0000
1100
0000
0011
0000
0100
0000
,
1000
0010
0100
0100
0010
0100
0001
1000
,
1000
0000
0100
0010
0001
0000
1000
0100
0010
0000
0001
1000
0100
1000
0001
0000
,
0100
0000
0000
0010
1000
0000
0010
0000
0100
0000
0001
0000
0010
0000
0001
0000
,
0010
0100
0200
0000
0000
0000
0000
0300
,
2010
0000
0000
0000
0000
0000
0000
0000
0000
0000
0000
0000
3100
0010
0001
0000
,
0200
0310
0010
0010
,
1000
0000
0000
1000
0100
0000
0010
0000
0001
0100
0000
0001
1000
0010
0100
0001
,
0200
0000
0000
0010
0010
0000
0010
0000
0310
0000
0000
0000
0100
0000
0100
0000
,
0002
0000
0100
0000
,
2000
0000
0000
0000
0003
0000
0000
0000
3010
0000
0000
1000
0001
0000
0000
0000
,
1000
0100
1000
0001
0001
0100
0001
0010
,
0010
0001
0010
0100
1000
0001
0010
0100
,
1000
0000
0000
0000
1000
0100
1000
0100
0000
0000
0010
0000
1000
0000
0001
0000
,
0100
0000
1000
0000
0100
0010
0100
0001
0100
0000
0001
0000
0010
0000
0100
0000
,
1100
0000
0000
0000
0100
1000
0100
1000
0000
0000
0010
0000
0100
0000
0001
0000
,
0000
0000
1000
0000
0010
0000
1000
0000
0010
0000
0100
0010
0100
0001
1000
0100
,
0010
0000
0000
0000
0001
0000
0100
1000
0100
0000
0000
0000
0001
0000
1000
0100
,
1000
0000
0100
0000
0100
0000
1000
0010
0100
0000
0001
0000
0010
0000
0100
0000
,
1000
0100
0010
0000
0000
0000
0100
0000
0010
0100
0010
0001
0000
0000
0010
0100
,
1000
0010
0000
0000
0100
0000
0010
1000
0001
0000
0010
0000
0010
0000
0010
0000
,
0001
0000
0100
0000
0001
0000
0000
0000
1000
0100
0010
0000
0100
0000
0000
0000
,
1000
0000
0010
0000
0100
0000
0000
0001
0010
0000
0010
0000
0001
0000
0000
0000
,
0001
0000
1000
0000
0010
0000
0000
0100
0010
0000
1100
0000
1010
0000
0000
0000
,
0100
1000
0100
0000
0100
0101
1100
0000
,
0010
0000
0100
0001
0010
0000
0000
0001
0100
0000
1010
0000
0101
0000
0000
0000
,
0010
0100
0010
0000
1000
0000
0000
0000
1100
0000
0011
0000
1100
0000
0100
1000
,
0200
0000
0000
0000
0000
0300
0010
0001
0200
0000
0000
0000
0000
0000
0300
0000
,
0101
0000
0000
0000
0010
1000
0100
1000
0000
0010
0000
0100
0000
0010
1000
0001
,
0100
0000
0000
0000
0000
0001
1000
0000
,
1000
0000
1000
0000
0010
0000
0010
0000
0010
0000
0000
1000
0001
0000
2000
0000
,
0000
0001
0001
0001
3000
0100
0000
0010
,
0000
0000
0100
0000
0100
0000
0010
0000
1000
0000
0010
0100
0010
0000
1000
0100
,
0010
0100
1000
0010
0000
1000
0001
1000
,
1001
0001
1000
0010
1010
0100
0010
0001
,
0011
0100
1000
0100
1100
0010
0001
0100
,
1010
0100
0011
0001
1100
1000
0110
0001
,
0101
1100
1010
0011
0000
0001
1000
0000
,
1000
0000
1000
0000
0010
0100
0001
0000
0100
0000
0000
0010
1000
0000
0100
0000
,
0000
0000
0010
0000
0100
1000
0000
0010
1000
0000
1000
0010
0100
0000
0001
0000
,
0000
0000
0100
0000
0010
0000
1000
0100
0010
0000
0100
0010
0001
0000
0001
0100
,
0001
0000
0010
0000
0100
0000
1000
0001
0010
0000
0010
0100
1000
0010
0200
0000
,
0300
0000
0001
0100
0001
0000
1000
0000
0001
0000
1100
0000
0101
0000
0100
0000
,
0100
0000
0100
0010
1000
0000
0001
0100
0001
0000
1010
0000
0011
0000
1000
0100
,
1000
0100
0010
0100
1000
0001
0010
0100
,
1000
0000
0010
0100
0001
0000
0010
0100
1000
0000
0010
0100
0001
0100
0010
0000
,
1100
0100
1010
0010
0101
0100
0010
1000
,
0000
0000
0011
0000
0000
1000
0010
0000
0100
0000
0000
0001
0010
0000
0002
0000
,
0000
0000
0013
0100
0000
0100
0010
0000
0010
0000
0001
1000
0100
0000
0010
0000
,
0001
0000
0100
0010
1000
0000
1000
0100
0010
0000
0001
0010
0100
1000
0002
0000
,
0003
0000
0010
0000
1000
0001
0100
0010
0100
0000
1100
0000
0011
0000
1000
0000
,
0100
0000
1000
0010
0100
0001
0100
0000
0001
0000
1010
0000
0101
0000
0100
0000
,
0001
1000
0100
0010
0001
1000
0100
0010
,
0010
0000
0100
0010
0001
0000
1000
0100
0010
0000
0001
0100
0010
1000
0100
0000
,
2000
0000
3000
0001
1000
0000
0100
0000
0010
0000
0010
0000
0100
0000
1000
0000
,
0010
0100
0002
0000
0000
0000
0000
0000
,
0000
0000
0000
0003
,
1010
0000
0000
0000
,
0000
0000
0000
0000
0000
0000
0000
0000
0001
0010
0100
0000
1010
0000
0101
0000
;
