#TITLE:Hello;
#SUBTITLE:;
#ARTIST:Furui Riho;
#TITLETRANSLIT:;
#SUBTITLETRANSLIT:;
#ARTISTTRANSLIT:;
#GENRE:;
#CREDIT:;
#MUSIC:hello.ogg;
#BANNER:hello-bn.png;
#BACKGROUND:hello-bg.png;
#CDTITLE:;
#SAMPLESTART:0.538;
#SAMPLELENGTH:29.610;
#SELECTABLE:YES;
#OFFSET:1.020;
#BPMS:0.000=154.000
,68.000=77.000
,84.000=154.000
,116.000=77.000
;
#STOPS:;
#BGCHANGES:1.020=hello.avi=1.000=1=0=0=StretchNoLoop==CrossFade==,
99999.000=-nosongbg-=1.000=0=0=0=StretchNoLoop====
;
#FGCHANGES:;

//--------------- dance-single - Lye ----------------
#NOTES:
     dance-single:
     Lye:
     Beginner:
     3:
     0,0,0,0,0:
0000
0000
0000
0000
,
1000
0000
0000
0000
,
0001
0000
0000
0000
,
0100
0000
0000
0000
,
0010
0000
0000
0000
,
1000
0000
0000
0000
,
0100
0000
0010
0000
,
0100
0000
1000
0000
,
0020
0000
0000
0000
,
1030
0000
0000
0000
,
0001
0000
0000
0000
,
0100
0000
0000
0000
,
0010
0000
0000
0000
,
1000
0000
0000
0000
,
0010
0000
0100
0000
,
0010
0000
0000
0000
,
1000
0000
0001
0000
,
1001
0000
0010
0000
,
0110
0000
0001
0001
,
1001
0000
0010
0000
,
0100
0010
2000
3000
,
0200
0000
0000
0000
,
0000
0000
0000
0300
,
0020
0000
0000
0000
,
0000
0000
0000
0030
,
0002
0000
0000
0000
,
0000
0000
0000
0003
,
2000
3000
0020
0030
,
0200
0000
0000
0300
,
1002
0003
0100
0001
,
0020
0030
0100
1000
,
0020
0030
0100
0001
,
0020
0030
0100
1000
,
0210
0300
1000
0100
,
0020
0030
0001
0100
,
0020
0030
1000
0100
,
0020
0030
0001
0100
,
0120
0000
0000
0000
,
0000
0000
0000
0030
1000
0000
0001
0000
,
0100
0000
0100
0001
,
0010
0000
0000
0000
2002
0000
0000
3003
;

//--------------- dance-single - Lye ----------------
#NOTES:
     dance-single:
     Lye:
     Easy:
     6:
     0,0,0,0,0:
0000
0000
0000
0000
,
1000
0000
1000
0000
,
0100
0000
0100
0000
,
0010
0000
0010
0000
,
0001
0000
0001
0000
,
0100
0000
0100
0100
,
0010
0000
1000
0000
,
0100
0000
1000
0000
,
0020
0000
0100
0100
,
0130
0000
0001
0000
,
1000
0010
0100
0000
,
0001
0000
0001
0000
,
0010
0100
1000
0000
,
1000
0000
0010
0100
,
0010
0000
1000
0000
,
1000
0000
0020
1000
,
1030
0000
0200
0000
,
0310
0110
0100
1001
,
0010
0000
1010
0000
0100
0000
0001
0100
,
0010
1001
0010
0010
,
0100
0000
0110
0000
0002
2000
3003
0000
,
0100
0000
0100
0000
,
0100
0000
0100
0000
,
0010
0000
0010
0000
,
0010
0000
0010
0000
,
1000
0000
1000
0000
,
1000
0000
1000
0000
,
0010
0100
0001
0000
,
0010
0200
0000
1300
,
1002
1003
0001
0001
,
2000
3010
1000
1000
,
0002
0013
0001
0001
,
2000
3010
0100
0001
,
0210
0310
1000
1000
,
0020
0130
0001
0001
,
0200
0310
1000
1000
,
0020
0130
0001
0100
,
0120
0000
1030
0000
0010
1000
1000
0000
,
0100
0000
0010
0000
0010
0001
0001
0000
,
0100
0000
0010
0000
0100
0010
0010
0000
,
1000
0000
0000
0000
0010
0000
0000
0000
0100
0000
0002
0000
0000
0000
0000
0003
;

//--------------- dance-single - Lye ----------------
#NOTES:
     dance-single:
     Lye:
     Medium:
     9:
     0,0,0,0,0:
0000
0000
0000
0000
,
0001
0001
0001
0000
,
0010
0010
0010
0000
,
0100
0100
0100
0000
,
1000
1000
1000
0000
,
0010
0000
0010
0000
0010
0100
0010
0000
,
0100
0001
0100
0100
,
0010
0000
1000
0000
0010
1000
0010
0000
,
0100
0010
1000
1000
,
1010
0100
0001
0001
,
0010
0100
1000
1000
,
0010
0100
0010
0010
,
0100
0001
0100
0100
,
0010
0000
0010
0000
0010
0100
0001
0000
,
0010
0100
1000
0100
,
2000
0000
3100
0000
0020
0000
0031
0200
,
0000
0000
0000
0000
0002
0000
0000
0300
,
0013
0000
0101
0000
0100
0010
1010
0000
,
0100
0000
0011
0000
0001
0000
0010
0100
,
0010
0000
1100
0000
0010
0001
0101
0000
,
0100
0000
1010
0000
0002
0020
0003
0030
,
0100
0010
0100
0010
,
0100
0010
0100
0010
,
0100
1000
0100
1000
,
0100
1000
0100
1000
,
0010
0100
0010
0100
,
0010
0100
0010
0100
,
0001
1000
0001
0100
,
0010
2010
0000
3010
,
0210
0000
0301
0000
0100
0010
0110
0000
,
2000
0000
3001
0000
0010
0100
1100
0000
,
0002
0000
0103
0000
0001
0010
0011
0000
,
0020
0000
0130
0000
1000
0010
0100
0001
,
2010
0000
3100
0000
0010
0001
0101
0000
,
0200
0000
0310
0000
1000
0001
1001
0000
,
0020
0000
1030
0000
0100
0010
0011
0000
,
0200
0000
0310
0000
0100
0010
1000
0001
,
0120
0000
1030
0000
0100
0010
0001
0000
,
0100
0010
1010
0000
0001
0010
0001
0100
,
0010
0100
0101
0000
0010
1000
1010
0000
,
0100
0000
0010
0000
0011
0000
0000
0000
1000
0000
0002
0000
0000
0000
0000
0003
;

//--------------- dance-single - Lye ----------------
#NOTES:
     dance-single:
     Lye:
     Hard:
     12:
     0,0,0,0,0:
0000
0000
0000
0000
,
0010
0000
0010
0000
0010
0000
0100
0002
,
0003
0000
0010
0002
0003
1000
0000
0020
,
0000
0000
0100
0030
0100
0000
0001
2000
,
3000
0000
0010
0200
0300
0001
0000
0200
,
0000
0000
0310
0000
0010
1000
0100
0020
,
0030
0000
0001
0200
0300
0010
0000
2000
,
0000
3000
0100
0000
1000
0010
0100
0002
,
0000
2000
3203
2300
3000
0200
0000
0300
,
1000
0000
1000
0000
1000
0000
0100
0020
,
0030
0000
0100
2000
3000
0001
0000
0002
,
0000
0000
0013
0000
0010
0000
0100
2000
,
3000
0000
0100
0020
0030
0001
0000
0200
,
0000
0000
0310
0000
0010
0100
0001
2000
,
0000
3000
0010
0200
0300
0002
0003
0020
,
0100
0000
0130
1000
0100
0010
0001
0011
,
0000
0000
1200
0000
,
0310
0001
0010
0000
0101
0000
1000
0010
0100
0000
0010
0000
0000
1010
0000
0000
,
0010
0100
0001
0000
0011
0000
0100
0001
1000
0000
0100
0000
1000
0100
0010
0001
,
0100
0010
0100
0000
1010
0000
0100
0010
1000
0000
0001
0000
0000
0110
0000
0000
,
1000
0010
0100
0000
0101
0000
0010
0100
1100
0000
1020
0000
0000
0100
0030
0000
,
0010
0100
0010
1000
0010
0100
0010
1000
,
0010
0100
0010
1000
0010
0100
0010
0000
,
1000
0100
1000
0010
1000
0100
1000
0010
,
1000
0100
1000
0010
1000
0100
1000
0000
,
0001
0010
0001
1000
0001
0010
0001
1000
,
0001
0010
0001
1000
0001
0010
0001
0000
,
0010
0100
1100
0000
1010
0000
0010
0100
,
0011
0101
2000
3010
,
0220
0000
0330
0000
0101
0000
0010
1000
0000
1000
0100
0000
1100
0000
0000
0000
,
2010
0000
0000
0000
3001
0000
0100
0010
0000
0010
0100
0000
0101
0000
0000
0000
,
0210
0000
0000
0000
0310
0000
1000
0001
0000
0001
0100
0000
1010
0000
0000
0000
,
1002
0000
0000
0000
0010
0003
0000
0000
0100
1000
0100
0010
0001
0000
0100
0000
,
1020
0000
0000
0000
0130
0000
0001
0010
0000
0100
1000
0000
1100
0000
0000
0000
,
2010
0000
0000
0000
3100
0000
1000
0010
0000
0100
0001
0000
0101
0000
0000
0000
,
0012
0000
0000
0000
0103
0000
0010
1000
0000
0100
0010
0000
0011
0000
0000
0000
,
1200
0000
0000
0000
1300
0000
0000
0000
0001
0100
0010
0100
0001
0000
0011
0000
,
0201
0000
0000
0000
0320
0000
2030
0000
0000
0000
3200
0000
0000
1000
0000
0000
,
0010
0000
0010
0000
1300
0000
0100
0010
0001
0000
0010
0000
0001
0010
0100
1000
,
0100
0010
0100
0000
0011
0000
1000
0010
1000
0000
1100
0000
0000
1010
0000
0000
,
0100
0010
1000
0000
0101
0000
0100
0010
1000
0000
0102
0000
0000
0000
0000
0003
;

//--------------- dance-single - Lye ----------------
#NOTES:
     dance-single:
     Lye:
     Challenge:
     13:
     0,0,0,0,0:
0000
0000
0000
0000
,
0001
0000
0001
0000
0001
0000
0100
0020
,
0030
0010
1000
0020
0030
0200
0300
0002
,
0010
0000
0010
0000
0013
0000
0100
2000
,
3000
0010
0100
0002
0003
0020
0030
0200
,
1000
0000
1300
0000
1000
0010
0100
0002
,
0000
0013
0100
0020
0030
0002
0003
0200
,
0010
0300
0010
0100
0001
1000
0010
2000
,
0000
0000
3002
0003
0020
0030
0002
0000
0003
0000
0200
0000
0000
0000
0300
0000
,
1010
0000
0010
0000
0010
0100
0001
0020
,
0030
0010
0100
2000
3000
0020
0030
0200
,
0010
0000
0310
0000
0010
0000
1000
0002
,
0003
1000
0100
0020
0030
0002
0003
0200
,
0010
0000
0310
0000
0010
0100
0001
2000
,
3000
0100
0010
0002
0003
0200
0300
0020
,
0100
0000
0130
0001
0100
0010
1000
0200
,
0300
0020
0030
0200
0300
2000
3000
0001
,
0001
0100
0010
0000
0101
0000
0001
0010
0100
0000
1100
0000
0001
0011
0000
0000
,
0100
0010
1000
0000
1100
0000
0100
0010
0001
0000
0011
0000
0100
0001
1000
0010
,
0100
0001
0100
0000
1010
0000
0100
0010
1000
0000
1100
0000
0010
0011
0000
0000
,
0100
0010
1000
0000
1010
0000
0100
0010
0101
0000
0210
0000
0000
0001
0300
0100
,
0001
0100
0010
1000
0001
0100
0010
1000
,
0001
0100
0010
1000
0001
0100
0010
0000
,
1000
0100
0010
0001
1000
0100
0010
0001
,
1000
0100
0010
0001
1000
0100
0010
0000
,
0100
1000
0001
0010
0100
1000
0001
0010
,
0100
1000
0001
0010
0100
1000
0001
0000
,
0001
0100
0110
0000
1010
0000
0100
0010
,
0011
1010
2000
3010
,
0220
0000
0330
0000
0101
0000
0010
1000
0000
1000
0100
0000
0110
0000
0000
0010
,
0002
0000
0000
0000
1003
0000
0100
1000
0000
0001
0010
0000
0101
0000
0000
0010
,
2000
0000
0000
0000
3010
0000
0100
0001
0000
0001
1000
0000
1010
0000
0000
0100
,
0002
0000
0000
0000
1000
0003
0000
0000
0100
1000
0010
1000
0001
0000
0100
0000
,
0210
0000
0000
0000
1300
0000
0100
0010
0000
1000
0001
0000
0011
0000
0000
0100
,
2000
0000
0000
0000
3010
0000
0100
0001
0000
0010
0100
0000
1100
0000
0000
0010
,
0200
0000
0000
0000
0310
0000
1000
0010
0000
0010
1000
0000
0110
0000
0000
0010
,
0200
0000
0000
0000
0301
0000
0000
0001
0100
0010
1000
0100
0010
0000
0011
0000
,
0201
0000
0000
0000
0320
0000
2030
0000
0000
0000
3020
0000
0000
0001
0000
0000
,
0100
0000
0100
0000
1000
0000
0130
0010
0001
0000
0010
0000
0001
0100
0010
1000
,
0100
0010
0001
0000
0101
0000
0010
0100
0010
0000
1010
0000
0100
0110
0000
0000
,
0010
1000
0100
0000
0011
0000
0100
0010
1010
0000
0102
0000
0000
0000
0000
0003
;
