#TITLE:Hella Good;
#SUBTITLE:;
#ARTIST:No Doubt;
#TITLETRANSLIT:;
#SUBTITLETRANSLIT:;
#ARTISTTRANSLIT:;
#GENRE:;
#CREDIT:;
#MUSIC:hellagood.ogg;
#BANNER:hellagood-bn.png;
#BACKGROUND:hellagood-bg.png;
#CDTITLE:;
#SAMPLESTART:41.605;
#SAMPLELENGTH:21.776;
#SELECTABLE:YES;
#OFFSET:-0.332;
#BPMS:0.000=115.149;
#STOPS:;
#BGCHANGES:-0.332=hellagood-mv.avi=1.000=1=0=0=StretchNoLoop==CrossFade==,
99999.000=-nosongbg-=1.000=0=0=0=StretchNoLoop====
;
#FGCHANGES:;

//--------------- dance-single - Lye ----------------
#NOTES:
     dance-single:
     Lye:
     Easy:
     4:
     0,0,0,0,0:
0000
0000
0000
0000
,
0000
0000
0000
0000
,
1000
0000
0001
0000
,
1000
0000
0001
0000
,
0010
0010
0010
0000
,
0100
0100
0100
0000
,
1000
1000
1000
0000
,
0001
0001
0001
0000
,
0010
0000
1000
0000
,
0100
0000
0001
0000
,
1001
0000
0001
0000
,
1001
0000
1000
0000
,
0010
0000
0100
0000
,
0010
0000
1000
0000
,
0110
0000
0100
0000
,
0110
0000
0010
0000
,
0000
1000
0000
0010
,
0000
0001
0000
0100
,
0110
0000
0001
0000
,
1001
0000
1000
0000
,
0010
0100
0100
0000
,
0001
1000
0001
0000
,
1001
0000
0110
0000
,
0110
0000
1001
0000
,
0010
0001
0010
0001
,
0010
0100
2000
3200
,
0300
0001
1000
0000
,
0010
0100
0100
0000
,
0100
0010
0001
1000
,
0001
0010
0200
2300
,
3002
0003
0002
0000
0003
0000
0000
0000
,
1000
0100
0100
0000
,
0200
0000
0000
1000
,
1300
0000
0010
0001
,
2000
0000
0000
0000
,
3002
0000
0000
0000
,
1003
0010
0100
0001
,
0001
0000
0020
0000
,
0000
0000
0000
0000
,
0001
0000
0001
0000
,
0031
1000
1000
0000
,
1000
0010
0010
0000
,
0001
1000
0001
1000
,
0001
1000
0001
0000
,
0100
0100
0010
0000
,
0010
0000
0001
0000
,
2000
3000
0000
0000
0000
0000
0000
0000
0200
0300
0000
0000
0000
0000
0000
0000
,
0020
0030
0000
0000
0000
0000
0000
0000
0002
0003
0000
0000
0000
0000
0000
0000
,
1000
0010
1000
0001
,
0100
0001
0020
0230
,
0300
1000
0001
0000
,
0010
0001
1000
0000
,
0010
1000
0001
1000
,
0100
0010
0002
2003
,
3000
0010
0100
0000
,
1000
0001
1000
0000
,
0100
0010
0100
0001
,
1000
0001
2000
3020
,
0030
1000
0001
0000
,
0010
0100
1000
0000
,
0010
0001
0100
0001
,
0010
0100
2000
3002
,
0003
0001
1000
0000
,
0010
0100
0001
0000
,
2000
0000
3001
0000
,
0000
0001
0001
0000
,
0100
0000
0010
0000
,
1000
0001
0100
0000
;

//--------------- dance-single - Lye ----------------
#NOTES:
     dance-single:
     Lye:
     Medium:
     7:
     0,0,0,0,0:
0000
0000
0000
0000
,
0000
0000
0000
0000
,
1000
0000
0001
0000
,
0100
0000
0010
0000
,
1010
1000
0001
0000
,
0101
0100
0010
0000
,
0110
0100
1000
0000
,
0011
0010
0100
0000
,
1000
0000
0001
1000
0001
0000
0100
0000
,
0100
0010
0020
0030
,
2001
0000
3001
0000
,
1002
0000
1003
0000
,
0010
0010
0100
0000
,
0010
1000
0001
0000
,
0110
1000
1001
0000
,
1001
0001
0110
0000
,
0001
0000
1000
0001
1000
0000
0010
0000
,
0100
0001
0100
0001
0000
0000
0100
0000
,
0110
0100
0101
0000
,
0101
0010
1100
0000
,
0010
0000
0100
1000
0100
0000
0000
0000
,
0001
1000
0001
0100
0000
0000
0010
0000
,
1001
1000
0110
0000
,
0110
0001
1001
0000
,
0010
0001
0010
0000
0100
0000
1000
0000
,
0002
0203
0320
2030
,
3001
0000
0001
0000
1000
0000
0000
0100
,
0100
0001
1000
0000
,
0010
0100
0010
0000
0001
0000
1000
0000
,
0002
0023
0230
2300
,
3002
0003
0002
0000
1003
0000
0000
0001
,
1000
0000
0010
0000
0100
0000
0000
0001
,
0200
0000
0000
0000
0000
0000
0001
0002
,
0303
0000
0000
0000
0000
0000
0000
0000
0020
0030
0000
0000
0200
0300
0000
0000
,
2000
0000
0010
0010
,
3002
0000
0000
0000
1000
1000
1000
0000
,
2003
0000
0010
0000
0100
0000
0001
0001
,
0000
0000
0010
0000
,
0010
0000
0001
0000
,
0001
0000
0000
0000
0100
0000
0000
3000
,
1100
0000
1000
0100
1000
0000
0000
0000
,
0001
0010
0001
0010
0000
0000
0000
0000
,
0001
0100
0001
1000
,
0100
1000
0001
0000
,
0100
0000
0100
0100
0001
0000
0000
0000
,
0001
0001
0010
0001
0000
0000
0000
0000
,
2000
3000
0000
0000
2000
3000
0000
0000
0200
0300
0000
0000
0200
0300
0000
0000
,
0020
0030
0000
0000
0020
0030
0000
0000
0002
0003
0000
0000
0002
0003
0000
0000
,
1010
0000
0010
0100
0010
0000
0001
0000
,
0200
0300
0020
0030
2000
0000
3020
0000
,
1030
0000
0001
0100
0010
0000
0000
0100
,
0010
0001
1000
0000
1010
0000
0000
0000
,
0100
0001
1000
0000
0001
0000
1000
0000
,
0200
0320
0032
2003
,
3100
0000
0100
0010
0001
0000
0000
0000
,
1000
0001
1000
0001
2000
0000
0000
0000
,
3002
0000
0013
0001
0100
0000
0010
0000
,
0200
0320
2030
3002
,
1003
0000
1000
0000
0001
0000
0000
0100
,
0010
0100
1000
0000
,
0010
0001
0100
0001
,
0010
0100
2000
3002
,
0003
0000
0001
0000
1000
0000
0000
0001
,
0010
0100
1000
0000
,
2000
0010
3001
0000
,
0000
1000
0001
1000
0001
0000
0000
0000
,
0100
0010
0000
0010
0100
0000
0000
0000
,
1000
0001
1000
0000
0110
0000
0000
0000
;

//--------------- dance-single - Lye ----------------
#NOTES:
     dance-single:
     Lye:
     Hard:
     10:
     0,0,0,0,0:
0000
0000
0000
0000
,
0000
0000
0000
0000
,
1000
0001
0100
0010
,
1000
0000
0000
0000
0000
0000
0000
0000
0001
0000
0000
0000
0000
0000
0000
0000
0100
0000
0000
0000
0000
0000
0000
0000
1020
0030
0000
0000
0000
0000
0000
0000
,
0011
0000
0000
1000
0000
0000
0010
0000
0100
0000
0000
0000
0001
0000
0000
0000
,
1000
0000
0000
0000
0000
0000
0001
0000
0000
0000
0000
0000
0100
0000
0000
0000
0010
0000
0000
0000
0000
0000
0000
0000
2100
3000
0000
0000
0000
0000
0000
0000
,
0100
0000
0000
0010
0000
0000
0001
0000
1000
0000
0000
0000
0010
0000
0000
0000
,
0001
0000
0000
0000
0000
0000
0010
0000
0000
0000
0000
0000
0100
0000
0000
0000
1000
0000
0000
0000
0000
0000
0000
0000
0102
0003
0000
0000
1000
0000
0000
0000
,
0010
0000
0001
1000
0001
0010
0100
0010
,
0001
2000
3000
0020
0030
0200
0000
0300
,
2001
0010
3001
0000
,
1002
0000
0010
0000
1003
0000
0010
0100
,
0010
0000
0001
0010
0100
1000
0001
0010
,
0010
0100
0000
2000
0000
0000
3100
0000
,
0010
0000
0000
0001
0000
0000
0100
0000
1100
0000
0000
0000
0010
0000
0000
0000
,
0001
0000
0000
0010
0000
0000
0100
0000
0101
0000
0000
0000
0100
0000
0000
0000
,
0002
0003
0000
0000
0000
0000
0000
0000
2000
3000
0000
0000
0002
0003
0000
0000
0020
0030
0000
0000
0000
0000
0000
0000
0000
0000
0000
0000
0000
0000
0000
0000
,
0020
0030
0000
0000
0020
0030
0000
0000
0002
0003
0000
0000
0020
0030
0000
0000
0000
0000
0000
0000
0100
0000
0000
0000
0001
0000
0000
0000
0000
0000
0000
0000
,
0100
0000
0000
0001
0000
0000
0100
0000
1010
0000
0000
0000
1000
0000
0000
0000
,
0001
0000
0000
0100
0000
0000
0010
0000
0110
0000
0000
0000
1000
0000
0100
0000
,
0010
0000
0000
0000
0000
0000
0000
0000
0200
0300
0000
0000
2000
3000
0000
0000
0200
0300
0000
0000
1000
0000
0000
0000
0001
0000
0000
0000
0010
0000
0000
0000
,
0002
0003
0000
0000
2000
3000
0000
0000
0000
0000
0000
0000
0002
0000
0000
0000
0000
0000
0000
0000
0000
0000
0000
0000
0103
0000
0000
0000
0000
0000
0000
0000
,
0010
0000
0000
1000
0000
0000
0001
0000
1010
0000
0000
0000
0000
0000
0000
0000
,
0010
0000
0000
0100
0000
0000
0001
0000
1100
0000
0010
0000
0010
0000
0000
0000
,
0100
0000
0001
0000
0010
0000
0000
0001
0000
0000
0100
0000
1000
0000
0010
0000
,
0102
0203
0320
2030
,
3001
0001
0000
1000
1000
0000
0000
0010
,
0010
0000
0000
0000
0000
0000
0000
0000
1000
0000
0000
0000
0100
0000
0000
0000
0010
0000
0000
0000
0000
0000
0000
0000
0102
0003
0000
0000
0000
0000
0000
0000
,
0010
0000
1000
0000
0100
0000
0000
0010
0000
0000
0001
0000
1000
0000
0010
0000
,
0200
0320
2030
3200
,
0302
0003
0002
0000
1003
0000
0000
0001
,
0001
0100
0010
1000
0100
0000
0000
0001
,
0200
0300
0010
1000
0010
0000
0100
0000
0000
0000
0001
0000
0001
0000
0002
0000
,
0003
0000
0000
0000
0000
0000
0000
0000
0000
0000
0000
0000
0200
0300
0000
0000
0020
0000
0000
0030
0000
0000
0000
0000
0200
0000
0000
0300
0000
0000
0000
0000
,
0002
0003
0020
0030
0200
0300
2000
0000
0000
0000
0000
0000
0000
0000
0000
0000
,
3002
0003
0020
0030
0200
0300
0002
0003
2000
0000
0000
3000
0000
0000
0001
0000
,
2000
0000
0100
0100
0000
0001
0001
0002
,
3000
0000
0003
0000
0000
0000
0000
0000
0200
0300
0002
0003
0200
0300
0020
0030
,
2000
0000
0001
0000
,
0100
0000
0100
3000
,
1100
0000
0000
0000
0000
0000
0000
0000
2000
3000
0000
0000
0200
0300
0000
0000
2000
3000
0000
0000
0000
0000
0000
0000
0000
0000
0000
0000
0000
0000
0000
0000
,
0002
0003
0000
0000
0200
0300
0000
0000
0002
0003
0000
0000
0020
0030
0000
0000
0000
0000
0000
0000
0000
0000
0000
0000
0000
0000
0000
0000
0000
0000
0000
0000
,
0001
0010
0100
0010
0001
0010
0100
0010
,
1000
0010
0100
0010
0001
0000
0000
0000
,
2000
3000
0000
0000
0000
0000
0000
0000
2000
3000
0000
0000
2000
3000
0000
0000
0020
0030
0000
0000
0000
0000
0000
0000
0000
0000
0000
0000
0000
0000
0000
0000
,
0020
0030
0000
0000
0020
0030
0000
0000
2000
3000
0000
0000
0002
0003
0000
0000
0000
0000
0000
0000
0000
0000
0000
0000
0000
0000
0000
0000
0000
0000
0000
0000
,
1000
0000
0000
0100
0000
0000
0010
0000
0000
0001
0000
0000
1000
0000
0000
0100
,
0000
0000
1000
0000
0000
0001
0000
0000
0010
0000
0000
0001
0000
0000
1000
0000
,
1000
0000
0100
0000
0010
0000
0000
0100
0000
0000
0001
0000
0010
0000
0100
0000
,
2000
3000
0002
0003
2000
0000
3020
0000
,
1030
1000
0000
0001
0010
0000
0000
1000
,
0100
0000
1000
0000
0010
0000
0100
0000
0101
0000
0000
0000
2000
3000
0000
0000
,
0010
0000
0001
0000
1000
0000
0000
0010
0000
0000
0100
0000
0001
0000
1000
0000
,
0200
0320
0032
2003
,
3100
0100
0000
0010
1000
0000
0000
0001
,
1000
0010
0100
0010
1000
0000
0000
0001
,
0001
0000
0010
0000
0010
0000
0000
0001
0000
0000
0100
0000
0010
0000
1000
0000
,
0002
0023
0230
2300
,
3001
0100
0000
0010
1000
0000
0000
0100
,
0100
0000
0000
0000
0001
0000
0000
0000
0010
0000
0000
0000
0001
0000
0000
0000
0100
0000
0000
0000
0000
0000
0000
0000
1020
0030
0000
0000
0000
0000
0000
0000
,
0001
0000
1000
0000
0010
0000
0000
0100
0000
0000
0001
0000
0010
0000
0100
0000
,
2000
3200
0320
0032
,
0013
0100
0000
0100
0010
0000
0000
0001
,
0010
0100
1000
0010
0100
0000
0000
0000
,
1000
0010
0000
0100
0001
0000
0000
0000
,
0000
1000
0001
0010
0100
0000
0000
0000
,
1000
0000
0010
0000
0000
0000
0100
0000
0001
0000
0000
0000
0000
0000
0010
1000
,
0010
0000
0000
0000
0010
0000
0000
0000
1000
0000
0000
0000
0100
0000
0000
0000
0011
0000
0000
0000
0000
0000
0000
0000
1002
0003
0000
0000
0000
0000
0000
0000
;

//--------------- dance-single - Lye ----------------
#NOTES:
     dance-single:
     Lye:
     Challenge:
     11:
     0,0,0,0,0:
0000
0000
0000
0000
,
0000
0000
0000
0000
,
1000
0001
0100
0010
,
1000
0000
0000
0000
0000
0000
0000
0000
0001
0000
0000
0000
0000
0000
0000
0000
0100
0000
0000
0000
0000
0000
0000
0000
MM2M
0030
0000
0000
0000
0000
0000
0000
,
1010
0000
1000
0010
0000
0010
1000
0000
0001
0000
0000
0000
0100
0000
0000
0000
,
0001
0000
0000
0000
0100
0000
0001
0000
0000
0000
0001
0000
0100
0000
0000
0000
0010
0000
0000
0000
0000
0000
0000
0000
2MMM
3000
0000
0000
0000
0000
0000
0000
,
0100
0000
0010
0001
0000
0001
0010
0000
0100
0000
0000
0000
1000
0000
0000
0000
,
0001
0000
0000
0000
1000
0000
0010
0000
0000
0000
0010
0000
1000
0000
0000
0000
0100
0000
0000
0000
0000
0000
0000
0000
2MMM
3000
0000
0000
0001
0000
0000
0000
,
0010
0000
0001
1000
0001
0010
0100
0010
,
0001
2000
3000
0020
0030
0200
0000
0300
,
2010
0000
0000
0010
0000
0000
0001
0000
3001
0000
0000
0000
0000
0000
0000
0000
,
0012
0000
0000
0010
0000
0000
1000
0000
1003
0000
0000
0000
0010
0000
0100
0000
,
0010
0000
0001
0010
0100
1000
0001
0010
,
0010
0100
0000
2000
0000
0000
3010
0000
,
0010
0000
1000
0001
0000
1000
0001
0000
1001
0000
0000
0000
0010
0000
0000
0000
,
0001
0000
1000
0010
0000
1000
0010
0000
1010
0000
0000
0000
0100
0000
0000
0000
,
0002
0003
0000
0000
0000
0000
0000
0000
2000
3000
0000
0000
0002
0003
0000
0000
2000
3000
0000
0000
0000
0000
0000
0000
0010
0000
0000
0000
0000
0000
0000
0000
,
2000
3000
0000
0000
0200
0300
0000
0000
0020
0030
0000
0000
0200
0300
0000
0000
0000
0000
0000
0000
0010
0000
0000
0000
0001
0000
0000
0000
0000
0000
0000
0000
,
0100
0000
1000
0001
0000
0001
0100
0000
0101
0000
0000
0000
1000
0000
0000
0000
,
0010
0000
0100
0001
0000
0100
0010
0000
1000
0000
0000
0000
0110
0000
0100
0000
,
0002
0003
0000
0000
0000
0000
0000
0000
0200
0300
0000
0000
2000
3000
0000
0000
0200
0300
0000
0000
0010
0000
0000
0000
0100
0000
0000
0000
0001
0000
0000
0000
,
2000
3000
0000
0000
0002
0003
0000
0000
0020
0030
0000
0000
0002
0000
0000
0000
0000
0000
0000
0000
0000
0000
0000
0000
0013
0000
0000
0000
0000
0000
0000
0000
,
1000
0000
0001
0100
0000
0100
0001
0000
1010
0000
0010
0000
0100
0000
0000
0000
,
0010
0000
1000
0010
0000
0010
1000
0000
0101
0000
0001
0000
1000
0000
0100
0010
,
0100
0000
0001
0000
0010
0000
0001
0010
0000
0000
0100
0000
1000
0000
0010
0000
,
0102
0203
0320
2030
,
3001
0000
0001
0000
0000
0000
1000
0000
1000
0000
0000
0000
0000
0000
0100
0010
,
0100
0000
0000
0000
0100
0000
0000
0000
1000
0000
0000
0000
0100
0000
0000
0000
0010
0000
0000
0000
0000
0000
0000
0000
M1M2
0003
0000
0000
0000
0000
0100
0000
,
0010
0000
0100
0000
0010
0000
0100
0001
0000
0000
1000
0000
0100
0000
0010
0001
,
0200
0320
2030
3200
,
2300
0000
3001
0000
0002
0000
1000
0000
1003
0000
0000
0000
0000
0000
0001
0010
,
0001
0100
0010
1000
0100
0000
0000
0001
,
0200
0300
0010
1000
0010
0000
0100
0000
0000
0000
0001
0000
0001
0000
0002
0000
,
0003
0000
0000
0000
0000
0000
0000
0000
0000
0000
0000
0000
0200
0300
0000
0000
0020
0000
0000
0030
0000
0000
0000
0000
0200
0000
0000
0300
0000
0000
0000
0000
,
0002
0003
0020
0030
0200
0300
2000
0000
0000
0000
0000
0000
0000
0000
0000
0000
,
3002
0000
0000
0000
0200
0300
0000
0000
2000
0000
0000
3000
0000
0000
1000
0000
,
2003
0000
0100
0100
0000
0001
0001
0002
,
3000
0000
0003
0000
0000
0000
0000
0000
0200
0300
0002
0003
0200
0300
0020
0030
,
2000
0000
0001
0000
,
0100
0000
0100
3000
,
1100
0000
0000
0000
0000
0000
0000
0000
2000
3000
0000
0000
0200
0300
0000
0000
2000
3000
0000
0000
0000
0000
0000
0000
0000
0000
0000
0000
0000
0000
0000
0000
,
0002
0003
0000
0000
0200
0300
0000
0000
0002
0003
0000
0000
0020
0030
0000
0000
0000
0000
0000
0000
0000
0000
0000
0000
MMMM
0000
0000
0000
0000
0000
0000
0000
,
0001
0100
1000
0100
0001
0010
1000
0010
,
0001
0100
1000
0100
0001
0000
0000
0000
,
2000
3000
0000
0000
0000
0000
0000
0000
2000
3000
0000
0000
2000
3000
0000
0000
0020
0030
0000
0000
0000
0000
0000
0000
0000
0000
0000
0000
0000
0000
0000
0000
,
0020
0030
0000
0000
0020
0030
0000
0000
2000
3000
0000
0000
0002
0003
0000
0000
0000
0000
0000
0000
0000
0000
0000
0000
0000
0000
0000
0000
0000
0000
0000
0000
,
1000
0000
1000
0001
0000
0000
1000
0000
0001
0100
0000
0000
0010
0000
0010
1000
,
0000
0000
0100
0000
0010
0001
0000
0000
0001
0000
0100
0010
0000
0000
1000
0100
,
1000
0000
0100
0000
0010
0000
0001
2000
0000
3000
0100
0000
0010
0000
0100
0000
,
2000
3000
0002
0003
2000
0000
3020
0000
,
1030
0000
1000
0000
0001
0000
0100
0000
0010
0000
0000
0000
0000
0000
1000
0100
,
1000
0000
0000
0000
0001
0000
0000
0000
1000
0000
0000
0000
0100
0000
0000
0000
0011
0000
0000
0000
0000
0000
0000
0000
M2MM
0300
0000
0000
0000
0000
1000
0000
,
0100
0000
0010
0000
1000
0000
0001
0200
0000
0300
0010
0000
1000
0000
1000
0001
,
0200
0320
2030
3002
,
0103
0000
0100
0000
0000
0000
0010
0000
1000
0000
0000
0000
0000
0000
0010
0100
,
1000
0000
0100
0000
0010
0000
0001
0000
0010
0000
0000
0000
0000
0000
0001
0100
,
0001
0000
0010
0000
0010
0000
0001
1000
0000
0000
0100
0000
0010
0000
0001
0000
,
2000
3020
0230
0302
,
1003
0000
0100
0000
0000
0000
0100
0000
1000
0000
0000
0000
0000
0000
0100
0010
,
1000
0000
0000
0000
0001
0000
0000
0000
0010
0000
0000
0000
0001
0000
0000
0000
0100
0000
0000
0000
0000
0000
0000
0000
MM2M
0030
0000
0000
0000
0000
0100
0000
,
0010
0000
1000
0000
0001
0000
0010
0200
0000
0300
1000
0000
0010
0000
0100
0010
,
2000
3200
0320
0032
,
0013
0000
0001
0000
0000
0000
1000
0000
0100
0000
0000
0000
0000
0000
0001
1000
,
0010
0010
0100
0001
1000
0000
0000
0000
,
1000
0000
0010
0100
0000
0100
0010
0000
0001
0000
0000
0000
0000
0000
0000
0000
,
0000
0000
1000
0000
0010
0000
0100
0000
0001
0000
0000
0000
0000
0000
0000
0010
,
0100
0000
0010
0000
0000
0000
1000
0000
0100
0000
0000
0000
0000
0000
0100
1000
,
0001
0001
1000
0100
0110
0000
MMMM
0000
;
