#TITLE:Friday (Dopamine ReEdit);
#SUBTITLE:;
#ARTIST:Riton, Nightcrawlers, Mufasa, Hypeman;
#TITLETRANSLIT:;
#SUBTITLETRANSLIT:;
#ARTISTTRANSLIT:;
#GENRE:;
#CREDIT:;
#MUSIC:friday.ogg;
#BANNER:friday-bn.png;
#BACKGROUND:friday-bg.png;
#CDTITLE:;
#SAMPLESTART:81.360;
#SAMPLELENGTH:26.341;
#SELECTABLE:YES;
#OFFSET:1.702;
#BPMS:0.000=123.000
,46.000=61.500
,48.000=123.000
,156.000=61.500
,158.000=123.000
;
#STOPS:119.500=4.038;
#BGCHANGES:2.702=friday-mv.avi=1.000=1=0=0=StretchNoLoop==CrossFade==,
99999.000=-nosongbg-=1.000=0=0=0=StretchNoLoop====
;
#FGCHANGES:;

//--------------- dance-single - Lye ----------------
#NOTES:
     dance-single:
     Lye:
     Easy:
     4:
     0,0,0,0,0:
0000
0000
0000
0000
,
1000
0000
0001
0000
,
1000
1000
0001
0000
,
0010
0000
0100
0000
,
1000
0010
0110
0000
,
0001
0000
1000
0000
,
0100
0010
0001
0000
,
0100
0000
0010
0010
,
0010
0000
1000
0000
,
0001
0000
0100
0000
,
0010
0000
0000
0000
,
1000
0010
0100
1000
,
0010
0000
0100
0010
,
1000
1000
0001
0001
,
0000
0000
0010
0001
,
1000
0001
1000
0010
,
0100
0000
0001
0000
,
1000
0000
0010
0000
,
0100
0000
0001
0000
,
0010
0100
0100
0000
,
0010
0000
1000
0000
,
0001
0000
0100
0100
,
0110
0000
0001
0000
,
0010
0000
0100
0100
,
1000
0000
0010
0000
,
0100
0000
0001
1000
,
0100
0000
0010
0000
,
0001
0000
0100
0100
,
0010
0000
1000
0000
,
0001
0000
1000
1000
,
1001
0000
0010
0000
,
1000
0000
0100
0000
,
0110
0000
0001
0000
,
0010
0000
0100
0000
,
1000
0000
0010
0000
,
0100
0000
0001
0000
,
0100
0000
0010
0000
,
0010
0000
1000
1000
,
0001
0000
0100
0000
,
0020
0000
0000
0030
1001
0000
0000
0000
,
0100
0000
0100
0000
,
0010
0001
0001
0000
,
0100
0000
0010
0000
,
0100
0001
0001
0000
,
0010
0000
0100
0000
,
0100
1000
1000
0000
,
0010
0000
0010
1000
,
1000
1000
0002
0003
,
0200
0300
0020
0030
,
2000
3000
0200
0300
,
0020
0030
0200
0300
,
2000
3000
0020
0030
,
0200
0300
0002
0003
,
0020
0030
0100
1000
,
0001
0000
1000
0100
,
1000
1000
0110
0000
,
0001
0000
0010
0000
,
0010
0001
0010
0000
,
0001
0000
1000
0000
,
0010
0100
0100
0000
,
0010
0000
1000
0000
,
0010
0001
0010
0000
,
0100
0000
1000
1000
,
1000
1000
0000
0000
;

//--------------- dance-single - Lye ----------------
#NOTES:
     dance-single:
     Lye:
     Medium:
     6:
     0,0,0,0,0:
0000
0000
0000
0000
,
0100
0000
0001
0000
,
0100
0010
1000
0000
,
0100
0000
1000
0000
,
0010
0100
0101
0001
,
0010
0000
0100
1000
,
0010
0000
0001
0100
,
0010
0000
0010
1000
,
1000
1000
0101
0000
,
0001
0010
0001
0100
,
0010
1000
0100
0000
,
1000
0000
0010
0000
0100
0000
0001
0011
,
0010
0000
0001
0100
,
0010
1000
0001
0001
,
0010
0000
0010
0001
,
0100
0010
1000
0100
,
0010
0100
0010
0000
1000
0000
0010
0000
,
0100
0000
0001
0100
0001
0000
0010
0000
,
0100
0000
1000
0010
1000
0000
0000
0000
,
0010
1000
0100
0100
,
0010
0001
0100
0010
,
1000
1000
0100
0110
,
0011
0000
0001
1000
,
1000
0000
0100
0100
,
1000
0000
0010
0100
,
0100
0000
0001
1000
,
0100
0000
0010
0010
,
0001
0000
0100
0100
,
0010
0000
1000
0000
,
0010
0000
0100
0001
,
1001
0000
0010
0000
,
1000
0000
0000
0100
,
0110
0001
0001
0100
,
0010
0010
1000
1000
,
0001
0001
0100
0100
,
0010
0010
1000
0010
,
0100
0001
0001
0001
,
0010
0010
0100
0100
,
1000
1000
0010
0010
,
0200
0000
0000
0300
0101
0000
0000
0000
,
0010
1000
1000
0000
,
0010
0100
0001
0000
0001
0000
0000
0000
,
0100
0010
0010
0000
,
0010
1000
0100
0000
0100
0000
0000
0000
,
1000
0010
0010
0000
,
0100
0001
0010
0000
0100
0000
0000
0000
,
0100
0010
0001
0001
,
0001
0001
0010
0100
,
1000
0100
1000
0000
0010
0000
0100
0000
,
0002
0003
0100
0100
,
0001
1000
0001
0000
0010
0000
0001
0000
,
2000
3000
0010
0010
,
0100
0010
0100
0000
0001
0000
0010
0000
,
0100
1000
0001
0100
,
0010
0000
1000
0010
1000
0000
0100
0000
,
0010
0001
0110
0000
,
0100
0100
1000
0000
,
0010
0100
0001
0000
0010
0000
0000
0000
,
0100
0000
0100
0000
0010
0000
0001
0100
,
0001
1000
0010
0000
,
0010
0100
0001
0000
,
0010
0100
0010
0000
0100
0000
0000
0000
,
1000
0010
0100
0100
,
0100
0100
0000
0000
;

//--------------- dance-single - Lye ----------------
#NOTES:
     dance-single:
     Lye:
     Hard:
     11:
     0,0,0,0,0:
0000
0000
0000
0000
,
0100
0000
0000
0001
0000
0000
0000
0000
,
0100
1000
0100
0001
0010
0000
0000
0000
,
0100
0000
0000
1000
0000
0000
0000
0000
,
0100
0000
0001
0000
0100
0000
1000
0000
0011
0000
0000
0000
0001
0000
0000
0010
,
0000
0000
0010
0000
0000
0010
0000
0000
0100
0000
0000
0000
1000
0000
0000
0010
,
0000
0000
0010
0000
0000
0010
0000
0000
0100
0000
0000
0000
0001
0000
0000
0010
,
0000
0000
0010
0000
0000
0010
0000
0000
1100
0000
0000
0000
0020
0000
0000
0000
,
0230
0302
1003
0100
,
0010
0100
1000
0001
0010
0000
0100
0000
,
0120
0000
1030
0000
1100
0000
0010
0100
,
0001
0100
0010
1000
0100
0100
0010
0101
,
0010
0000
1000
0000
0001
0100
0010
1000
,
0100
1000
0002
0013
,
1100
0000
0000
0100
0010
0100
0010
0001
,
0200
0300
0020
0030
2000
3000
0002
0003
,
0010
0100
0010
0001
0100
0000
0010
0010
,
0100
0100
0001
0010
0100
0000
0010
0010
,
0100
1000
1000
0001
0010
0000
0000
0000
,
0010
0010
0100
0100
1000
1000
0100
0010
,
0001
0001
0100
0100
0010
0010
0100
0001
,
1000
0100
1000
0010
0200
0000
0301
0000
,
1100
0000
0000
0000
1000
0000
0000
0001
0000
0000
0001
0000
0000
0001
0000
0000
,
1010
0000
0000
0000
0100
0000
0000
0010
0000
0000
0010
0000
0000
0010
0000
0000
,
0101
0000
0000
0000
1000
0000
0000
0001
0000
0000
0100
0000
0000
0001
0000
0000
,
0110
0000
0000
0000
0010
0000
0000
1000
0000
0000
1000
0000
0000
0100
0000
0000
,
0011
0000
0000
0000
0100
0000
0000
1000
0000
0000
0010
0000
0000
0100
0000
0000
,
1010
0000
0000
0000
0002
0000
0000
1000
0003
0000
0010
0000
0000
0100
0000
0000
,
0021
0000
0000
0000
0130
0000
0000
0000
1000
0000
0000
0010
0000
0000
0200
0000
,
0000
0300
0000
0000
0001
0100
0010
0100
,
1010
0000
0101
0000
,
0011
0000
0000
0000
0000
0000
0000
1000
0000
0000
1000
0000
0100
0000
0010
0000
,
0011
0000
0000
0000
0101
0000
0010
1000
0000
0000
0100
0000
0000
0010
0000
0000
,
0001
0000
0000
0000
0010
0000
0000
0100
0000
0000
1000
0000
0010
0000
0000
0100
,
0002
0000
0003
0000
0021
0000
0030
0100
0000
0000
1000
0000
0000
0010
0000
0000
,
0100
0001
0000
0000
0001
0000
0010
0200
0000
0000
1000
0000
0300
1000
0000
0000
,
0210
0300
0000
0000
0011
0000
0001
0100
0000
0000
0010
0000
0000
1000
0000
0000
,
0010
0100
0000
0100
0001
0000
0001
0010
0000
0100
1000
0000
0100
0000
0010
0000
,
0001
0100
0000
0100
0010
0000
1000
0100
0000
0000
0010
0000
0001
1000
0000
0001
,
0200
0000
0000
0000
0000
0000
0000
0001
0000
0000
0001
0000
0000
0301
0000
0000
2010
0000
0000
0000
0000
0000
0000
0000
3100
0000
0000
0000
0000
0000
0001
0000
,
0000
0000
0010
0000
0000
0001
0000
0000
1100
0000
0000
0000
0010
0000
0000
0001
,
0000
0000
1000
0000
0000
0010
0000
0000
0110
0000
0000
0000
1000
0000
0000
0001
,
0000
0000
0100
0000
0000
0001
0000
0000
0011
0000
0000
0000
0200
0000
0000
1000
,
0300
0000
0010
0000
0000
0001
0000
0000
0110
0000
0000
0000
1010
0000
0000
1000
,
0000
0000
0001
0000
0000
0010
0000
0000
0011
0000
0000
0000
0100
0000
0000
1000
,
0000
0000
0010
0000
0000
0100
0000
0000
0101
0000
0000
0000
0010
0000
0000
0100
,
0000
0000
0001
0000
0000
1000
0000
0000
0110
0000
0000
0000
1010
0000
0000
0000
,
0101
0000
0011
0000
0010
0010
0100
0100
,
1000
1000
0010
0100
0001
0001
0100
0010
,
2000
0000
3001
0000
0100
0100
0010
0010
,
1000
1000
0100
0010
0100
0100
1000
0001
,
0020
0000
0130
0000
1000
1000
0010
0010
,
0100
0100
0001
0100
0010
0010
1000
0001
,
0200
0000
0301
0001
0100
0100
0010
0010
,
0100
0100
0001
1000
0220
0330
2002
3003
,
2020
0000
3030
0000
0202
0000
0303
0000
0011
0000
0000
0000
0010
0000
0000
0001
,
0000
0000
0100
0000
0000
0001
0000
0000
1100
0000
0000
0000
0010
0000
0000
0001
,
0000
0000
0100
0000
0000
0010
0000
0000
1010
0000
0000
0000
0100
0000
0000
0001
,
0000
0000
1000
0000
0000
0100
0000
0000
0011
0000
0000
0000
0001
0000
0000
0100
,
0000
0000
0010
0000
0000
1000
0000
0000
0102
0000
0000
0000
0013
0000
0000
1000
,
0000
0000
0010
0000
0000
0100
0000
0000
0011
0000
0000
0000
0100
0000
0000
0010
,
0000
0000
1000
0000
0000
0010
0000
0000
0110
0000
0000
0000
1000
0000
0000
0001
,
0000
0000
0100
0000
0000
0001
0000
0000
0022
0000
0033
0000
2200
0000
3300
0000
,
2020
3030
0202
0303
0000
0000
0000
0000
;

//--------------- dance-single - Lye ----------------
#NOTES:
     dance-single:
     Lye:
     Challenge:
     13:
     0,0,0,0,0:
0000
0000
0000
0000
0000
0000
0000
0001
,
0100
0000
0000
0100
0000
0000
0002
0000
0000
0000
0003
0000
0000
0000
0100
0000
,
0010
1000
0100
0001
0100
0000
0000
1000
,
0100
0000
0000
0100
0000
0000
2000
0000
0000
0000
3000
0000
0000
0000
0010
0000
,
0100
0000
0001
0000
0100
0000
1000
0000
0100
0001
0000
0000
0010
0000
0000
0100
,
0000
0000
1000
0000
0000
0010
0000
0000
0100
0001
0000
0000
0010
0000
0000
0100
,
0000
0000
0010
0000
0000
0001
0000
0000
0100
0010
0000
0000
1000
0000
0000
0010
,
0000
0000
1000
0000
0000
0100
0000
0000
1000
0001
0000
0000
0020
0000
0030
0200
,
0000
0300
0020
0000
0030
0002
0000
0003
0010
0100
0000
0000
1000
0000
0100
0000
,
0010
0100
1000
0010
0100
0000
0101
0000
,
0120
0000
0000
0000
1030
0000
0000
0000
1000
0100
0000
0000
0010
0000
0100
0000
,
1000
0000
0000
0000
0100
0000
0000
0000
0010
0000
0000
0000
0001
0000
0000
0000
1010
0000
0000
0000
0100
0000
0000
0001
0000
0000
0010
0000
0110
0000
0000
0000
,
0010
0001
0000
0000
0100
0000
0010
0000
1000
0000
1000
0000
0001
0000
0100
0000
,
0010
0000
1010
0000
2100
0100
3010
0000
,
1000
0100
0000
0000
0011
0000
0100
0000
0010
0000
1000
0000
0010
0000
0010
0000
,
2000
3000
0200
0300
0002
0003
0020
1030
,
1010
1000
0100
0000
0010
0000
0001
0000
0100
0000
0000
0000
0010
0000
0100
0001
,
0100
0000
0100
0010
1000
0000
0010
0000
0101
0000
0000
0000
0010
0000
0001
0000
,
1000
0000
0100
0010
0001
0000
0001
0000
0110
0000
0000
0000
1000
0000
0000
0000
,
0010
0100
0010
0000
0100
0001
0100
0000
0001
0100
0001
0000
0100
0000
0010
0000
,
1000
0000
0001
0000
0100
0001
0010
0000
0001
0000
1000
0000
0100
0000
0010
0000
,
0001
0001
1000
0010
0200
0000
0301
0000
,
0010
1000
0000
0000
0010
0000
1000
0100
0000
0000
0011
0000
0000
0101
0000
0000
,
0010
0001
0000
0000
0100
0000
0010
1000
0000
0000
1010
0000
0000
0110
0000
0000
,
0100
0001
0000
0000
1000
0000
0000
0001
0000
0000
0100
0000
0010
1000
0000
0000
,
0010
0100
0000
0000
0010
0000
0100
0001
0100
0000
0011
0000
0010
0001
1000
0000
,
2000
0010
3000
0000
0100
0000
1000
0001
0000
0000
0010
0000
0010
0001
0000
0000
,
0100
0001
0000
0000
0001
0000
0010
0100
1000
0000
0010
0000
0100
0100
0001
0000
,
0021
0000
0000
0030
0100
0000
1000
0000
0001
1000
0000
0010
0100
0000
0200
0000
,
0001
0000
0300
0000
0010
0000
1000
0000
0010
0100
0001
0000
0010
0000
0100
0000
,
1010
0000
0011
0000
,
1001
0000
0000
0000
0000
0000
0000
1100
0000
0001
1000
0000
0100
0000
0010
0000
,
0101
0000
0000
0000
1010
0000
1000
0100
0000
0000
0010
0000
0001
0010
0000
0000
,
0001
1000
0000
0000
0010
0000
0010
0100
0001
0000
1000
0000
0010
0100
0000
0100
,
0002
0000
0003
0000
0012
0000
0003
0100
0010
0000
1000
0000
0001
0010
0000
0000
,
0100
1000
0000
0000
0010
0000
0100
0102
0000
0000
1003
0000
0010
0100
0001
0000
,
0210
0300
0000
0000
1010
0000
0001
0100
0000
0000
0010
0000
0100
0001
0000
0000
,
0010
0100
0000
0100
1000
0000
0010
0100
0001
0000
1000
0000
0100
0010
0100
0000
,
1000
0100
0000
0100
0010
0000
0001
0100
0000
0000
0010
0000
1000
0001
0100
0001
,
0200
0001
0000
0000
0001
0000
0000
0010
0000
0000
0010
0000
0000
0310
0000
0000
2000
0000
0001
0000
0000
0000
0000
0000
3100
0000
0000
0000
0010
0000
0001
0000
,
0010
0000
0001
0000
1000
0001
0000
0000
1000
0010
0000
0000
0011
0000
1000
0001
,
0100
0000
0010
0000
1000
0010
0100
0000
0100
0001
0000
0000
0001
0000
0010
0100
,
0000
0000
0100
0000
1000
0010
0000
0000
0010
0100
0001
0000
0200
0000
1000
0000
,
0310
0000
0010
0000
0100
0001
0010
0000
0011
0000
0000
0000
0110
0000
1000
0001
,
0000
0000
0010
0000
0100
1000
0000
0000
1000
0100
0000
0000
0100
0000
1000
0010
,
0100
0000
0010
0000
0100
0010
1000
0000
0100
0010
0000
0000
0010
0000
0100
1000
,
0000
0000
1000
0000
0010
1000
0010
0000
0100
0001
0000
0000
1010
0000
0000
0000
,
0101
0000
0000
0000
0011
0000
0000
0000
0010
0100
0010
0000
0100
1000
0100
0000
,
1000
0010
1000
0000
0010
0000
0100
0000
0001
0100
0001
0000
0100
0000
0010
0000
,
2100
0000
0000
0000
3001
0000
0001
0000
0100
0010
0100
0000
0010
0100
0010
0000
,
0100
0001
0100
0000
0001
0000
0010
0000
0100
1000
0100
0000
1000
0000
0001
0000
,
0120
0000
0000
0000
0130
0000
0100
0000
0001
0100
0001
0000
0010
0100
0010
0000
,
0100
1000
0100
0000
0010
0000
0010
0000
0102
0003
0100
0000
0010
0000
1000
0000
,
0200
0000
0000
0000
0310
0000
0001
0000
0100
0010
0100
0000
0010
1000
0010
0000
,
0100
0001
0100
0000
0001
0000
1000
0000
0120
0000
0130
0000
2001
0000
3001
0000
,
1020
0000
1030
0000
0102
0000
0103
0000
0011
0001
0000
0000
0010
0000
0100
0010
,
0000
0000
0010
0000
0010
0001
0100
0000
0010
1000
0000
0000
0010
0000
0100
0001
,
0000
0000
0001
0000
0010
0100
1000
0000
0010
1000
0000
0000
0100
0000
0100
0010
,
0000
0000
0001
0000
0010
0100
1000
0000
0010
0100
0000
0000
0002
0000
0100
0003
,
0100
0000
0010
0000
1000
0100
1000
0000
0012
0000
0003
0000
0210
0000
0310
1000
,
0001
0000
0010
0000
0100
1000
0000
0000
0001
0100
0000
0000
0100
0000
0010
1000
,
0100
0000
1000
0000
0001
0010
0001
0000
0010
0100
0000
0000
1000
0000
0010
0100
,
0001
0000
0100
0000
0010
1000
0000
0000
0002
0010
0003
0000
2100
0000
3100
0000
,
0102
0103
2010
3010
0000
0000
0000
0000
;
