#TITLE:Follow;
#SUBTITLE:;
#ARTIST:0171;
#TITLETRANSLIT:;
#SUBTITLETRANSLIT:;
#ARTISTTRANSLIT:;
#GENRE:;
#CREDIT:;
#MUSIC:Follow.ogg;
#BANNER:follow-bn.png;
#BACKGROUND:follow-bg.png;
#CDTITLE:;
#SAMPLESTART:31.254;
#SAMPLELENGTH:24.474;
#SELECTABLE:YES;
#OFFSET:-0.149;
#BPMS:0.000=190.000;
#STOPS:;
#BGCHANGES:;
#FGCHANGES:;

//--------------- dance-single - Lye ----------------
#NOTES:
     dance-single:
     Lye:
     Easy:
     4:
     0,0,0,0,0:
0000
0000
0000
0000
,
0000
0000
0000
0000
,
0000
0000
0000
0000
,
0000
0000
0000
0000
,
0000
0000
0000
0000
,
0000
0000
0000
0000
,
0000
0000
0000
0000
,
0000
0000
0000
0000
,
0100
0000
0001
0000
,
0000
0000
0010
0000
,
0000
0000
0100
0000
,
0000
0000
0010
0000
,
1001
0000
1000
0000
,
0000
0000
0100
0000
,
0000
0000
0010
0000
,
0000
0000
0001
0000
,
0210
0300
0001
0000
,
2000
3000
0001
0000
,
0200
0300
0010
0000
,
2000
3000
0001
0000
,
0200
0300
0010
0000
,
2000
3000
0010
0000
,
0200
0300
0001
0000
,
1000
0001
1001
0000
,
0010
0000
0000
0000
,
0100
0000
0000
0000
,
0001
0000
0000
0000
,
0100
0000
0000
0000
,
0010
0000
0000
0000
,
1000
0000
0000
0000
,
0100
0000
0000
0000
,
0010
0000
0000
0000
,
0002
0000
1000
0000
,
0013
0000
0100
0000
,
0000
0000
0010
0000
,
1000
0000
0001
0000
,
0010
0000
0000
0000
,
0100
0000
1000
0000
,
1000
0000
0001
0000
,
1000
0000
0001
0000
,
0110
0000
0100
0000
,
0001
0000
0001
0000
,
0000
0000
1000
0000
,
0010
0000
0100
0000
,
0000
0000
0001
0000
,
1000
0000
0001
0000
,
0000
0000
0100
0000
,
0100
0000
0010
0000
,
1001
0000
1000
0000
,
0010
0000
0100
0000
,
0000
0000
0001
0000
,
0100
0000
0001
0000
,
0000
0000
1000
0000
,
0010
0000
0100
0000
,
0000
0000
0001
0000
,
1000
0000
0001
0002
,
0000
0003
0000
0000
,
0000
0000
0000
0000
,
0000
0000
0000
0000
,
0000
0000
1001
0000
,
0001
0000
0000
0000
,
1000
0000
0000
0000
,
0010
0000
0000
0000
,
0100
0000
0000
0000
,
0002
0003
0000
0000
,
0020
0030
0000
0000
,
0002
0003
0000
0000
,
0200
0300
0000
0000
,
0020
0030
0000
0000
,
2000
3000
0000
0000
,
0200
0300
0000
0000
,
0020
0030
0001
1000
,
0002
0000
0003
0000
,
0200
0300
0010
0000
,
2000
3000
0001
0000
,
0020
0030
0100
0000
,
0020
0030
0000
0000
,
0200
0300
0000
0000
,
2000
3000
0001
0100
,
0020
0000
0000
0000
,
1030
0000
1000
0000
,
0001
0000
0001
0000
,
0000
0000
0100
0000
,
0010
0000
0010
0000
,
0100
0000
0100
0000
,
0001
0000
0001
0000
,
0000
0000
1000
0000
,
0100
0000
0100
0000
,
0010
0000
0010
0000
,
0100
0000
0100
0000
,
0000
0000
0010
0000
,
0001
0000
0001
0000
,
1000
0000
1000
0000
,
0010
0000
0010
0000
,
0100
0000
0001
0000
,
0010
0100
0010
0001
,
1001
0000
0100
0000
,
0000
0000
0010
0000
,
0000
0000
1000
0000
,
0000
0000
0100
0000
,
0000
0000
0010
0000
,
0000
0000
0001
0000
,
0000
0000
0100
0000
,
0100
0000
0010
0000
,
0110
0000
1000
0000
,
0000
0000
0100
0000
,
0000
0000
0010
0000
,
0001
0000
0001
0000
,
2000
3000
0000
0000
,
0020
0030
0000
0000
,
0100
0000
0001
0000
,
0001
0000
0020
0000
,
0000
0030
0000
0000
;

//--------------- dance-single - Lye ----------------
#NOTES:
     dance-single:
     Lye:
     Medium:
     8:
     0,0,0,0,0:
0000
0000
0000
0000
,
0000
0000
0000
0000
,
0000
0000
0000
0000
,
0000
0000
0000
0000
,
0000
0000
0000
0000
,
0000
0000
0000
0000
,
0000
0000
0000
0000
,
0000
0000
0000
0000
,
1001
0000
0100
0000
,
0000
0000
0010
0000
,
1000
0000
0001
0000
,
0000
0000
0010
0000
,
0102
0000
1000
0003
,
0000
0000
0010
0000
,
0110
0000
0001
0000
,
0000
0000
0100
0000
,
2001
0000
3100
0000
,
0020
0000
1030
0000
,
0200
0000
0301
0000
,
0002
0000
0013
0000
,
0200
0000
1300
0000
,
0020
0000
1030
0000
,
0200
0000
0301
0000
,
0010
2000
0100
3000
,
0011
0000
0000
0100
0000
0000
0100
0000
,
0100
0000
0000
0001
0000
0000
0001
0000
,
0000
0001
0000
0010
0000
0000
0100
0000
,
1000
0000
0000
0100
0000
0000
0010
0000
,
0001
0000
0000
0001
0000
0000
1000
0000
,
0100
0000
0000
1000
0000
0000
0001
0000
,
0000
0010
0000
0001
0000
0000
1000
0000
,
0010
0000
0000
1010
0000
0000
0011
0000
,
2000
0000
3001
0000
,
0011
0001
0020
0000
1000
0000
1030
0000
,
0000
0010
0000
0100
0000
0000
0001
0000
,
1000
0000
0000
0100
0000
0000
0010
0000
,
0001
0000
0000
0100
0000
0000
0010
0000
,
1000
0000
0000
0010
0000
0000
0100
0000
,
0000
0010
0000
1000
0000
0000
0001
0000
,
0010
0000
0000
0110
0000
0000
0000
0000
,
1001
0000
0100
0000
0100
0000
0000
0001
,
0000
0000
0100
0000
0100
0000
0000
1000
,
0000
0100
0010
0000
,
1000
0000
0010
0000
0100
0000
0000
0001
,
0000
0000
0100
0000
0010
1000
0010
0000
,
0100
0001
0001
0100
,
0000
0010
1000
0001
,
1000
0000
0100
0000
0000
0010
0000
0000
,
0011
0000
1000
0000
1000
0000
0000
0001
,
0000
0000
0001
0000
0001
0000
0000
1000
,
0000
0000
0000
0010
,
1000
0000
0000
0001
0000
0000
0100
0000
,
0000
0000
0000
0000
0000
0000
0001
0010
,
0001
0000
0100
0000
0000
0000
1000
0100
,
1000
0100
0010
0001
,
0010
0100
1000
0002
,
0000
0003
0000
0000
,
0000
0000
0000
0000
,
0000
0000
2000
0000
,
0000
0000
3001
0000
,
1000
0100
0010
0000
,
1000
0010
1000
0000
,
0100
0010
0001
0000
,
1000
0010
0100
0000
,
1010
0000
0000
0001
0001
0000
0000
0000
,
0100
0000
0010
0100
,
1000
0100
0001
0010
,
1000
0010
0001
0000
,
2000
0000
0000
3000
,
0000
0000
0001
0100
,
0010
0000
1000
0000
0100
0010
0100
0000
,
1000
0010
1000
0100
,
0010
0000
0000
0001
0020
0000
0030
0000
,
1000
0100
1000
1000
,
0001
0000
0001
0100
,
0001
0001
1000
0000
,
0110
0000
0001
0100
,
0010
1000
0000
0000
,
0001
0000
0010
0100
,
1000
0020
0000
0000
,
0130
0000
0000
1001
0000
0000
0101
0000
,
0010
0000
0000
0010
0000
0000
0010
0000
,
0000
0100
0000
1000
0000
0000
0001
0000
,
0010
0000
0000
0010
0000
0000
0010
0000
,
0001
0000
0000
0001
0000
0000
0001
0000
,
1000
0000
0000
1000
0000
0000
1000
0000
,
0000
0010
0000
1000
0000
0000
0001
0000
,
0100
0000
0000
0001
0000
0000
0001
0000
,
2010
0000
0000
0010
3000
0000
0100
0000
,
0010
0000
0000
0010
0000
0000
0010
0000
,
0000
1000
0000
0100
0000
0000
0100
0000
,
0010
0000
0000
0010
0000
0000
0010
0000
,
0001
0000
0000
1000
0000
0000
0001
0000
,
0100
0000
0000
0010
0000
0000
1000
0000
,
0000
0001
0000
0001
0000
0000
0010
0000
,
0100
1000
0010
1000
,
1002
0000
1000
0000
0013
0000
0000
1000
,
0000
0000
0001
0000
0010
0000
0000
0001
,
0000
0100
0010
0000
,
1000
0000
0010
0000
0010
0000
0000
0100
,
0000
0000
0001
0010
,
0000
0001
0010
0100
,
0000
1000
0001
0000
,
0010
0000
1000
0000
0000
0002
0000
0003
,
1010
0000
0010
0000
0100
0000
0000
0001
,
0000
0000
0100
0000
0010
0000
0000
1000
,
0000
0000
0000
0010
,
0100
0000
0000
0001
0000
0000
2000
0000
,
0000
3000
0000
0100
,
0010
0001
0000
1000
,
0010
0100
0001
0100
,
0100
0010
1000
0200
,
0000
0300
0000
0000
;

//--------------- dance-single - Lye ----------------
#NOTES:
     dance-single:
     Lye:
     Hard:
     11:
     0,0,0,0,0:
0000
0000
0000
0000
,
0000
0000
0000
0000
,
0000
0000
0000
0000
,
0000
0000
0000
0000
,
2000
0000
0000
0000
,
3020
0000
0000
0000
,
0230
0000
1000
0000
,
0302
0000
0100
0003
,
1001
0001
1000
0000
0100
0000
0000
0000
,
0000
0000
0000
1000
0100
0000
1000
0010
,
1000
0000
0001
0000
,
0000
0000
0000
0000
0010
0000
0000
0001
,
0200
0000
0001
0300
,
0000
0100
0010
0000
,
0110
0000
0001
0000
,
0000
0000
0100
0000
,
1001
0100
0100
0000
,
0010
1000
0010
1000
0100
0000
1000
0000
,
0200
0000
0000
0300
0010
0001
0000
0001
,
0020
0001
0130
0000
,
0002
0000
0000
0000
1003
0010
0000
0100
,
0020
1000
0030
0000
,
0200
0000
0000
0000
0301
0010
0000
0100
,
1000
0000
0002
0000
0100
0000
0000
0003
,
1010
0000
0000
0100
0000
0000
0010
0000
,
0010
0000
0000
0001
0000
0000
0001
0000
,
0000
0001
0000
0010
0000
0000
0100
0000
,
1000
0000
0000
0100
0000
0000
0010
0000
,
0001
0000
0000
0001
0000
0000
1000
0000
,
0100
0000
0000
1000
0000
0000
0001
0000
,
0000
0010
0000
0001
0000
0000
1000
0000
,
0010
0000
0000
1010
0000
0000
0011
0000
,
2000
0000
0000
3020
0230
0300
0000
0200
,
0302
0023
0032
0000
1000
0000
1000
0003
,
0000
0010
0000
0100
0000
0010
0001
0010
,
0100
0000
0010
0001
1000
0010
0100
0000
,
0010
0000
0000
0100
0000
0000
0001
0000
,
1000
0100
1000
0010
0000
0010
1000
0000
,
0002
0000
0003
2000
0000
3000
0001
0000
,
0010
0100
1000
0100
1010
0000
0000
0000
,
1001
0000
0100
1000
0100
0000
0000
0010
,
0000
0000
0001
0100
0001
0000
0000
0010
,
0000
0000
0100
1000
0010
0000
0000
1000
,
0100
0000
1000
0000
0010
0000
0000
0100
,
0000
0000
0100
0000
0010
1000
0010
0000
,
0100
0000
0001
0000
0001
0000
0100
0010
,
0000
0010
0100
0000
0010
0000
1000
0000
,
1100
0000
0110
0000
0000
0011
0000
0000
,
0101
0000
1000
0100
1000
0000
0000
0001
,
0000
0000
0001
0000
0001
0000
0000
1000
,
0100
0010
0100
0010
0100
0010
0100
0000
,
1000
0000
0000
0001
0000
0000
0100
0000
,
0010
0000
0000
0010
0000
0000
1000
0010
,
0100
0000
0001
0000
1000
0000
1000
0100
,
1000
0000
0100
0010
0100
0010
0100
0010
,
0010
0000
0100
1000
0010
0000
0200
0000
,
0000
0300
0000
0000
,
0000
0000
0000
0000
,
0000
0000
0020
0000
,
0000
0000
1030
0000
,
1000
0100
1000
0000
0001
0000
0000
0100
,
0010
1000
0001
0000
0010
0000
0000
0001
,
0100
0010
1000
0000
0100
0000
0000
0010
,
0001
1000
0010
0000
1000
0000
0000
0000
,
1010
0000
0000
0001
0001
0000
1000
0000
,
0100
0000
0000
0000
0010
0001
0000
0001
,
1000
0000
0100
0000
0001
0100
0010
1000
,
0001
0100
0001
0010
,
0200
0000
0000
0300
,
0000
0000
0000
0000
1000
0001
0000
0100
,
0010
0000
1000
0000
0100
0010
0100
0010
,
0001
0010
0100
0010
,
1000
0000
0000
0001
0020
0000
0030
0000
,
0100
0010
0100
0010
1000
0000
1000
0000
,
0001
0000
0000
0000
0001
0100
0000
0100
,
0001
0000
0002
2003
3200
2300
3000
0000
,
0210
0000
0000
0000
0301
0010
0001
0100
,
0010
0010
0100
0000
,
0001
0010
0100
0000
1000
0010
0100
0001
,
1000
0020
0100
0000
,
0031
0000
0000
1001
0000
0000
0101
0000
,
1010
0000
0000
1100
0000
0000
1010
0000
,
0000
0101
0000
0101
0000
0000
1001
0000
,
1010
0000
0000
0011
0000
0000
1010
0000
,
1100
0000
0000
1100
0000
0000
1100
0000
,
0101
0000
0000
0101
0000
0000
0101
0000
,
0000
1010
0000
1010
0000
0000
0110
0000
,
0101
0000
0000
0101
0000
0000
0101
0000
,
2100
0000
0000
3020
0032
0003
0000
0200
,
0302
0023
0032
0103
1000
1000
0100
0000
,
0000
0010
0000
1000
0000
0000
0100
1000
,
0010
0000
0100
0001
0010
0100
0010
0000
,
0011
0000
0000
1010
0000
0000
0100
0000
,
0001
1000
0100
0010
0000
0010
0001
0000
,
0100
0001
0000
0001
0000
0000
0010
0000
,
0100
1000
0001
0100
0010
1000
0100
1000
,
1002
0000
1000
0000
0013
0000
0100
1000
,
0100
0000
0001
0000
0010
0000
0100
0010
,
0001
0010
0100
0010
0100
0010
0100
0010
,
0001
0000
0100
0000
0100
0000
0010
1000
,
0010
0000
0000
1000
0010
0100
0001
0000
,
1000
0001
0010
0100
,
0000
0000
1000
0000
0001
0000
0000
0100
,
0010
0000
1000
0000
0000
0002
0000
0003
,
2100
0000
0010
0000
3100
0000
0000
0001
,
0000
0000
0100
0000
0010
0000
0000
1000
,
0000
0001
0100
0001
0100
0001
0010
0100
,
0010
0000
0000
1000
0000
0001
2000
0000
,
0001
0000
3000
0001
0100
0000
0100
0000
,
0010
0000
0000
0010
1000
0000
0010
0100
,
0001
0000
1000
0000
0100
0000
0100
0010
,
0001
0000
1000
0100
0010
0000
0200
0000
,
0000
0300
0000
0000
;

//--------------- dance-single - Lye ----------------
#NOTES:
     dance-single:
     Lye:
     Challenge:
     15:
     0,0,0,0,0:
0000
0000
0000
0000
,
0000
0000
0000
0000
,
0000
0000
0000
0000
,
0000
0000
0000
0000
,
2000
0100
0001
0000
,
3020
0100
1000
0000
,
0230
1000
0010
0000
,
0302
0010
0100
0003
,
1001
0001
1000
0000
0110
0000
0000
0001
,
0010
0100
1000
0000
1100
0000
0000
0010
,
0100
0010
1000
0000
0101
0000
0000
0010
,
1000
0001
0100
0000
0011
0000
0000
0100
,
0102
0000
0000
0000
1000
0000
0003
1000
,
0100
1000
0010
0000
2010
3000
0001
0010
,
0120
0000
0200
0000
0331
0000
0000
1000
,
0120
0000
2000
0000
3130
0000
0000
0100
,
0201
0000
0310
0000
0010
0000
0000
1000
,
0002
1003
0010
1000
0100
0000
0010
0000
,
0002
0003
0000
0000
1000
0010
0000
0010
,
2000
3000
0010
0000
1100
0000
0000
0000
,
2010
3000
0000
0000
0100
0010
0000
0100
,
0020
0030
1000
0000
0100
0000
0000
0010
,
0200
0300
0000
0000
1000
0010
0000
1000
,
1010
2100
0001
0000
,
3201
0300
0000
0011
0000
0000
0011
0000
,
1100
0000
0000
1100
0000
0000
1100
0000
,
0000
0110
0000
0110
0000
0000
0110
0000
,
1100
0000
0000
0101
0000
0000
1010
0000
,
0011
0000
0010
0001
0000
1000
0100
0000
,
0100
0000
0010
0001
0000
0001
0010
0000
,
0000
0100
0010
0100
0000
1000
1000
0000
,
0010
0000
1000
1010
0000
0010
0110
0000
,
2010
0000
3000
0020
0230
0300
0001
0200
,
0302
0023
0032
0000
1000
1000
1000
0000
,
0003
0110
0000
0110
0000
0010
1000
0100
,
1100
0000
1000
0101
0010
0001
0110
0000
,
0101
0000
0000
0110
0000
0000
1010
0000
,
1100
0100
1000
0110
0000
0010
0011
0000
,
0001
0011
0000
1100
0000
0000
0101
0000
,
0110
0100
0001
0100
1010
0000
0000
0000
,
1001
0000
0100
1100
0100
0000
1100
0000
,
1010
0000
0100
0011
0100
0001
1010
0100
,
0010
1100
0001
0011
0100
0000
1010
0001
,
0101
0000
1000
0110
0010
0000
0101
0001
,
1010
0000
0000
1100
0010
0001
0011
0000
,
0110
0000
1010
0000
1001
0000
1100
0010
,
0001
0101
0010
0000
1010
0000
0011
1000
,
1100
0000
0110
0000
0000
0011
0000
0000
,
0102
0000
1003
0100
2000
0000
3000
0001
,
0010
0100
0010
0000
0002
0000
0103
0010
,
0100
0010
1000
0010
1000
0010
1000
0010
,
0101
0000
0000
1010
0000
0000
1100
0000
,
0101
0000
0000
0110
0000
0000
0001
0010
,
0011
0000
1100
0000
0000
1000
0000
0010
,
1010
0000
0100
0010
0100
0010
0100
0010
,
0010
0000
1000
0100
0011
0000
0102
0000
,
0000
0003
0000
0000
,
0000
0000
0000
0000
,
0000
0000
2000
0000
,
0000
0000
0000
0000
3001
0000
0000
0100
,
0001
0100
0010
0000
1000
0000
0010
0100
,
0010
1000
0001
0000
0010
0000
0100
1000
,
0100
1000
0001
0000
0100
0000
0001
0010
,
0001
1000
0010
0000
1000
0100
1000
0100
,
2010
3000
0000
0001
0001
0000
1000
0000
,
0102
0003
0000
0000
0010
0001
0000
0001
,
1020
0030
0100
0000
0001
0100
0010
1000
,
0102
0003
0100
0000
0001
0000
0010
0000
,
2100
0000
0000
0000
0001
0000
3000
0010
,
0001
0010
0100
0000
1000
0001
0000
0100
,
0010
1000
1100
0000
0100
0010
0100
0010
,
0001
0011
1100
0110
,
0020
0000
0030
2000
3020
0000
0030
0000
,
1200
0310
0100
0010
0011
0000
1010
0000
,
0210
0300
0000
0000
0001
0100
0000
0001
,
0021
0030
0101
0000
1100
0020
0030
0000
,
0210
0000
0000
0000
0301
0010
0100
1000
,
2100
3000
0010
0000
0100
0000
0000
0000
,
1020
0030
0100
0000
1000
0010
1000
0010
,
0102
0003
0020
0000
0100
0000
0000
0000
,
0031
0000
0000
1001
0000
0000
0101
0000
,
1010
0000
0000
1100
0000
0000
1010
0000
,
0000
0101
0000
0101
0000
0000
1001
0000
,
1010
0000
0000
0011
0000
0000
1010
0000
,
1100
0000
0000
1100
0000
0000
1100
0000
,
0101
0000
0000
0101
0000
0000
0101
0000
,
0000
1010
0000
1010
0000
0000
0110
0000
,
0101
0000
0000
0101
0000
0000
0101
0000
,
2100
0000
0000
3020
0032
0003
0000
0200
,
0302
0023
0032
0103
0010
1000
0110
0000
,
0000
0010
0100
0001
0011
0000
0100
1000
,
1010
0000
0001
0010
0000
0100
0101
0000
,
1100
0000
0000
1010
0000
0000
0110
0000
,
0101
0001
0010
0011
0000
0001
1100
0000
,
0101
0001
0000
0011
0000
0000
0110
0000
,
0100
0010
1000
0001
0100
0010
1000
0001
0100
0010
1000
0001
,
1002
0000
1000
0000
0013
0000
0100
1000
,
1100
0000
0001
0110
0010
0000
1100
1000
,
0001
0010
0100
0010
0100
0010
0100
0010
,
0101
0000
0100
1010
0000
0100
0110
1000
,
1010
0000
1000
0101
0010
0100
1100
0000
,
0101
1001
0101
0110
,
0000
0100
0001
0000
0100
0000
0000
0010
,
1000
0000
1000
0000
0000
0002
0000
0003
,
2100
0000
0001
0000
3100
0000
0010
0100
,
0000
0000
0001
0000
0010
0000
0100
1000
,
0000
0010
1000
0100
1000
0010
0100
0001
,
1010
0000
1000
0101
0000
0001
2010
0000
,
0001
0000
3000
0011
0001
0000
1100
0010
,
0011
0000
0001
0101
0000
1000
0110
0100
,
0001
0000
1001
0000
0101
0000
1010
0010
,
0100
0000
0001
1000
0110
0000
0102
0000
,
0000
0003
0000
0000
;
