#TITLE:Duo;
#SUBTITLE:;
#ARTIST:Sam Gelliatry;
#TITLETRANSLIT:;
#SUBTITLETRANSLIT:;
#ARTISTTRANSLIT:;
#GENRE:;
#CREDIT:Lye;
#MUSIC:Duo.mp3;
#BANNER:duo-bn.jpg;
#BACKGROUND:duo-bg.jpg;
#CDTITLE:;
#SAMPLESTART:18.860;
#SAMPLELENGTH:24.921;
#SELECTABLE:YES;
#OFFSET:-0.080;
#BPMS:0.000=127.000;
#STOPS:;
#BGCHANGES:-1.280=duo-mv.avi=1.000=1=0=1===CrossFade==,
99999.000=-nosongbg-=1.000=0=0=0=StretchNoLoop====
;
#FGCHANGES:;

//--------------- dance-single - Lye ----------------
#NOTES:
     dance-single:
     Lye:
     Easy:
     4:
     0,0,0,0,0:
0000
0000
0000
0000
,
0000
0000
0000
0000
,
1001
1000
1000
0001
,
0100
0001
0000
0000
,
0110
0100
0100
0010
,
0100
0001
0000
1000
,
1010
0000
0000
0001
,
1000
0000
0010
0000
,
0001
0110
0000
1000
,
0100
0000
0010
0000
,
0001
1001
0000
0100
,
0010
0100
0001
0000
,
0100
1001
0000
0000
,
0100
0010
0002
0000
,
0003
0000
1000
0001
,
0010
0000
2000
0000
,
3000
0010
0001
1000
,
0001
0000
0000
0000
0000
0010
0000
0001
,
0000
1000
1000
0010
,
0100
0000
0001
0001
,
0001
0000
1000
0010
,
0100
0000
0010
1000
,
1001
0000
0100
0100
,
0100
0000
0010
0000
,
0001
0000
1000
1000
,
1000
0000
0000
0000
,
0001
0100
0001
0000
,
0010
1000
0001
0000
,
0100
0100
0001
0000
,
0010
0010
0100
0000
,
1001
0000
0001
0010
,
0010
0001
0000
0000
,
0010
0100
0001
1000
,
0001
1000
0100
0010
,
0000
1000
1000
0001
,
0100
0010
0000
0000
,
0000
0100
0001
0010
,
0001
0100
0010
1000
,
0000
0001
0000
1000
,
0001
0100
0200
0000
,
0301
0001
0001
0000
,
0100
0010
1000
1000
,
0002
0003
0000
0100
,
0010
0100
0001
0000
,
1000
0000
1000
0001
,
1000
0100
0010
0001
,
1000
0000
1000
1000
,
0010
0000
0001
0000
,
0001
0000
0100
0100
,
0010
0000
0000
0000
0000
0100
0000
0001
,
0000
1000
1000
0000
,
0101
0000
0100
0000
,
0001
0001
1000
0001
,
0100
0000
0010
0000
,
0110
1000
0001
0000
,
0010
0000
0100
0000
,
1000
0001
0100
0010
,
1000
0000
0000
0000
,
1001
0100
0100
0000
,
0010
0010
0000
0000
,
1001
0010
1000
0100
,
0010
0000
1001
0000
,
0110
0000
0001
0001
,
0000
0000
0000
0110
0000
0000
1000
0000
,
0000
1000
0001
0001
,
0000
0000
0000
0101
0000
0000
2001
0000
,
0000
3000
0000
0000
0000
0000
0000
0000
;

//--------------- dance-single - Lye ----------------
#NOTES:
     dance-single:
     Lye:
     Medium:
     8:
     0,0,0,0,0:
0000
0000
0000
0000
,
0000
0000
0000
0000
,
1001
0100
0001
0010
,
0001
0100
0000
0000
,
0110
0100
1000
0010
,
1000
0000
0001
0000
1000
0000
0001
0100
,
0001
1000
0001
1001
,
0110
0001
1010
0000
,
1000
0001
0100
0000
1000
0000
0010
0000
,
1010
1000
0011
0000
,
0100
1000
0001
0000
0001
0000
0010
0000
,
2000
0000
3100
0001
0010
0000
0100
0000
,
0001
0000
0110
0000
0000
0000
0001
1000
,
0100
0000
0010
0000
2000
0200
0000
3300
,
0011
0000
0000
0000
1000
0010
0001
0000
,
0110
0000
0000
0000
1000
0010
0001
0000
,
1000
0000
0001
0100
1000
0000
0011
0000
,
1100
0000
0000
0000
1000
0001
1000
0000
,
0010
0000
0001
1000
0001
0000
1000
0001
,
1000
0010
0001
1000
,
0010
0000
0001
0010
0100
0000
1000
0100
,
0010
0001
0100
1000
,
0010
0100
0001
0000
0001
0000
1000
0000
,
1000
0000
0101
0000
0001
0100
0001
0000
,
0010
0000
1000
0000
0100
0000
0001
0100
,
1000
0000
0000
0000
,
1000
0001
0010
0000
1010
0000
1001
0000
,
0001
0010
1000
0000
0110
0000
0101
0000
,
0010
0001
1000
0000
1001
0000
1100
0000
,
0101
0011
1001
0000
,
1000
0000
0001
0001
0100
0000
1000
1000
,
0100
0011
0000
0000
,
0100
0010
0001
0000
0001
1000
0100
0000
,
0001
0100
1010
0101
,
0000
0000
0010
0100
0010
0000
0001
0000
,
1000
0001
0100
0000
0000
0000
0000
0000
,
0001
1000
0001
0000
0100
0000
0001
0000
,
0010
0000
1000
0000
0001
1000
0010
0000
,
0001
0000
1000
0000
0000
0000
0010
0001
,
1000
0001
0010
1000
,
0001
0000
0000
0000
1000
0100
0010
0000
,
0001
1000
0010
0001
,
0110
0000
1010
0000
0000
0000
0001
0100
,
0001
0010
1000
1100
,
0011
0000
1010
0101
,
0011
0000
1100
0000
0001
1000
0010
0000
,
0001
0010
0001
0000
1000
0100
1000
0000
,
0101
0000
0000
0000
1000
0001
0010
0000
,
0100
0000
0010
0010
0001
0000
0010
0100
,
1000
0000
1000
0010
,
1000
0000
0001
0100
1000
0000
0100
0010
,
0001
0100
1000
0011
,
1001
0000
1000
0100
1000
0000
0001
0100
,
0001
1000
0010
0001
,
1001
0000
0100
1000
0100
0000
0010
0001
,
0010
1001
0100
0010
,
0001
0000
1000
0100
0010
0000
0011
0000
,
1001
0000
0000
0000
,
1010
0000
0001
0010
0100
0000
1000
0100
,
0010
0101
1001
0100
,
0001
1000
0100
0000
1000
0000
0100
0000
,
0101
0000
0000
0000
1000
0100
0010
0000
,
0011
1010
0100
0010
,
0001
0000
0000
2002
3003
0000
0010
0000
,
1000
0000
0001
1000
0100
0000
0001
0000
,
0010
0000
0001
0000
1000
0100
0010
0001
;

//--------------- dance-single - Lye ----------------
#NOTES:
     dance-single:
     Lye:
     Hard:
     11:
     0,0,0,0,0:
0000
0000
0000
0000
,
0000
0000
0000
0000
0000
0100
0000
0001
,
1001
0010
0100
1000
0001
0000
0010
0100
,
1000
0001
0010
0000
0000
1000
0000
0010
,
0110
0100
1000
0100
0001
0000
0010
0100
,
1000
0010
0001
0000
1000
0001
1000
0100
,
1100
0010
1000
0100
0001
0000
1000
0010
,
0001
1000
0100
0000
1000
0001
0001
0100
,
1000
0001
0100
0010
1000
0000
0010
1000
,
0110
0000
1001
0000
0010
0100
0001
0000
,
0100
1000
0001
0000
0001
0000
0010
0100
,
1000
0000
0001
0000
0010
1000
0100
0000
,
0001
1000
0010
0001
0100
0000
0001
1000
,
0100
0000
0010
0001
2000
0200
3000
0311
,
0001
1000
0001
0000
1000
0010
0001
0000
,
1100
1000
0000
0000
1000
0000
0001
1000
,
0100
0010
0001
0100
1000
0000
0011
0000
,
0110
0010
0000
0000
1000
0001
1000
0100
,
0010
0000
0001
1000
0001
0000
1000
0001
,
1000
0000
0010
0000
0001
0100
1000
0001
,
0010
0000
0001
0010
0100
0000
1000
0100
,
0010
0000
0001
0000
0100
0010
1000
0001
,
0010
0100
0011
0000
0101
0000
1010
0000
,
1100
0000
0001
0000
0001
0100
0001
1000
,
0010
0000
1000
0100
0010
0100
0001
0010
,
1000
0001
0000
0000
0000
0000
0000
0000
,
1000
0001
0010
0000
1010
0000
1001
0000
,
0001
0010
1000
0000
0110
0000
0101
0000
,
0010
0001
1000
0000
1001
0000
1100
0000
,
0101
0000
0011
0000
1001
0000
0010
0001
,
1000
0100
0001
0001
0100
0000
1000
1000
,
0100
0000
0011
0000
0100
1010
0000
0101
,
0100
0010
0001
1000
0100
1000
0001
0010
,
0001
1000
0100
1000
1010
0000
0101
0000
,
0000
0000
0010
0100
0010
1000
0001
0000
,
1000
0001
0100
0000
0000
1010
0000
0011
,
0001
1000
0001
0010
0100
0010
1000
0001
,
0001
0100
1000
0001
0010
1000
0010
0000
,
0001
0100
1000
0100
0001
0000
0010
0001
,
1000
0001
0010
0000
0010
0000
1000
0000
,
0001
0010
0100
0001
1000
0000
0010
0001
,
0100
0010
0100
0000
0010
1000
0001
0101
,
0000
1001
0000
0000
1000
0100
0001
0100
,
0001
1000
0010
0000
1000
0100
1000
0100
,
0010
0001
0010
0002
2003
3200
2300
3002
,
0023
0230
2300
3020
0230
0302
0203
0320
,
0031
0010
0001
1000
0010
0100
1000
0000
,
0101
0000
0000
0000
1000
0001
0010
1000
,
0100
0000
0010
0010
1000
0000
0100
0100
,
0001
0000
0110
0000
1010
0001
0010
0100
,
1000
0010
0001
0100
1000
0000
0100
0010
,
0001
1000
0100
0000
1000
0010
0001
0100
,
1000
0001
1000
0100
1000
0010
0001
0100
,
0001
0010
1000
0000
0010
0000
0001
0000
,
1001
0001
0010
0100
1000
0000
0010
0001
,
0010
1000
0101
0000
0010
0001
0100
1000
,
0001
0000
1000
0100
0001
0010
0100
0001
,
1000
0010
0000
0000
0000
0000
0000
0000
,
0101
0000
1000
0100
0010
0000
0001
0010
,
0100
0000
0100
0010
0001
1000
0100
0000
,
0001
1000
0100
0001
1000
0000
0100
0010
,
0100
0001
1000
0000
1000
0100
0001
0000
,
0011
0000
0000
0000
1010
0000
1000
0001
0100
0000
0001
0000
0010
0000
1000
0000
,
0001
0100
0000
2002
3003
0100
0010
0001
,
1000
0000
0000
0000
0001
0010
0100
1000
0001
0000
0100
0000
1000
0000
0001
0000
,
0110
0000
0000
0000
0000
0000
1002
0000
0000
0003
0100
0000
0010
0000
2000
0000
,
0000
3000
0000
0000
;
