#TITLE:Dreaming;
#SUBTITLE:;
#ARTIST:Lil Texas, Danny L. Harle;
#TITLETRANSLIT:;
#SUBTITLETRANSLIT:;
#ARTISTTRANSLIT:;
#GENRE:;
#CREDIT:;
#MUSIC:dreaming.ogg;
#BANNER:dreaming-bn.png;
#BACKGROUND:dreaming-bg.png;
#CDTITLE:;
#SAMPLESTART:34.523;
#SAMPLELENGTH:19.072;
#SELECTABLE:YES;
#OFFSET:0.546;
#BPMS:0.000=97.523
,80.500=195.046
,81.500=97.523
,82.000=195.046
,95.000=390.093
,96.000=195.046
,97.000=390.093
,98.000=195.046
,110.000=97.523
,112.000=195.046
,119.000=390.093
,120.000=195.046
,127.000=390.093
,128.000=195.046
,140.000=97.523
,142.000=195.046
,156.000=390.093
,157.000=195.046
,173.000=390.093
,174.000=195.046
,181.000=390.093
,182.000=195.046
,184.000=390.093
,185.000=97.523
,187.000=390.093
,188.000=195.046
,200.000=390.093
,201.500=195.046
,202.000=390.093
,204.000=195.046
,216.000=97.523
;
#STOPS:80.500=0.154
,81.000=0.154
,95.000=0.154
,97.000=0.154
,119.000=0.154
,127.000=0.154
,156.000=0.154
,173.000=0.154
,181.000=0.154
,184.000=0.154
,187.000=0.154
,200.000=0.077
,200.500=0.077
,201.000=0.077
,202.000=0.154
,203.000=0.154
;
#DISPLAYBPM:97.500:195.000;
#BGCHANGES:0.546=dreaming-mv.avi=1.000=1=0=0=StretchNoLoop==CrossFade==,
99999.000=-nosongbg-=1.000=0=0=0=StretchNoLoop====
;
#FGCHANGES:;

//--------------- dance-single - Lye ----------------
#NOTES:
     dance-single:
     Lye:
     Easy:
     8:
     0,0,0,0,0:
0000
0000
0000
0000
0002
0000
0000
0003
,
0020
0000
0000
0030
0200
0000
0000
0300
,
2000
0000
0000
3000
0020
0000
0000
0030
,
0200
0000
0000
0300
0002
0000
0000
0003
,
2000
0000
0000
3000
0020
0000
0000
0030
,
2000
0000
0000
3000
0200
0000
0000
0300
,
0020
0000
0000
0030
0002
0000
0000
0003
,
0200
0000
0000
0300
0020
0000
0000
0030
,
2000
0000
0000
3000
2002
3003
0000
0000
,
0010
0000
0100
0000
,
0001
0000
0010
0000
,
0001
0000
1000
0000
,
0100
0000
0010
0000
,
0100
0000
1000
0000
,
0001
0000
1000
0001
,
0010
0100
0010
0001
,
1000
1000
0010
0010
1010
0000
0000
0000
,
0000
0000
0000
0000
0100
0100
0100
0000
,
0001
0000
0010
0110
0100
0000
0100
0000
,
1000
0000
0010
0000
0100
0100
0001
0001
,
0010
0110
1001
0100
0002
0000
2003
0000
,
3002
2003
3020
0230
,
0320
0230
0302
0203
,
0302
0203
0310
1010
,
0010
0110
0200
0302
,
0203
0302
0023
0032
,
0023
0032
2003
3200
,
2300
3200
0320
0031
,
0010
0000
0001
0100
,
0010
0000
1000
1010
,
0010
0000
0010
0100
,
0001
1000
0010
0100
,
0010
0000
1000
1000
,
1000
0000
0100
0010
,
0001
0000
0001
1000
,
0020
1030
0200
0000
,
0000
0000
0000
0000
,
0000
0000
0000
0000
,
0000
0000
0300
0000
,
1001
0100
1000
0000
,
1000
0010
0100
0000
,
0001
0001
0100
0000
,
0100
0010
1000
0000
,
1000
0110
1000
0000
,
0100
0010
0100
0000
,
0010
0011
1000
0001
,
0110
0200
0301
1001
,
0100
0000
0100
0010
,
0100
0000
0100
1000
,
0001
0000
1000
0010
,
2000
3000
0101
0110
,
0001
0000
0001
1000
,
1000
0000
0010
0100
,
0010
0010
0010
1000
,
0002
0000
1000
0003
0210
0000
0000
0300
,
0002
0000
0000
0000
2003
0000
0000
3000
,
0020
0000
0000
0030
0200
0000
0000
0300
,
0002
0000
0000
0003
0020
0000
0000
0030
,
0200
0000
0000
0300
2010
0000
0000
3000
,
0200
0000
0000
0300
2000
0000
0000
3000
,
0020
0000
0000
0030
2000
0000
0000
3000
,
0002
0000
0000
0003
0200
0000
0000
0300
,
0020
0000
0000
0030
1000
0000
0000
0000
,
0001
0000
0100
0000
,
0010
0000
1000
0000
,
0100
0000
0010
0000
,
0001
0000
0000
0000
0200
0000
0000
0300
,
0020
0000
0000
0030
2000
0000
0000
3000
,
0002
0000
0000
0003
2000
0000
0000
3000
,
0020
0000
0000
0030
0200
0000
0000
0300
,
0002
0000
0000
0003
0000
0000
0000
0000
;

//--------------- dance-single - Lye ----------------
#NOTES:
     dance-single:
     Lye:
     Medium:
     10:
     0,0,0,0,0:
0000
0000
0000
0000
0002
0000
0000
0003
,
0020
0000
0000
0030
0200
0000
0000
0300
,
2000
0000
0000
3000
0002
0000
0000
0003
0020
0000
0000
0000
0000
0000
0030
0000
,
0002
0000
0000
0003
2000
0000
0000
3000
,
0020
0000
0000
0030
0200
0000
0000
0300
2000
0000
3000
0000
0200
0000
0300
0000
,
0020
0030
0200
0300
0002
0000
0000
0003
,
0020
0030
0200
0300
2000
0000
0000
3000
,
0200
0000
0000
0300
0020
0000
0001
0030
,
2000
0000
0001
3000
0102
0000
1000
0000
,
0010
0010
0010
0000
0103
0000
0010
0000
,
0100
0100
0001
0000
0010
0010
0100
0000
,
1000
0000
0001
0000
0100
0100
0100
0000
,
0010
1000
0010
0100
0001
0001
0001
0000
,
0010
0100
1000
0000
1000
0001
0001
0000
,
0001
0010
0010
0000
0100
0100
0100
0000
,
0100
0000
1000
0000
0010
0010
0100
0001
,
1000
0010
0100
0001
0102
0000
0000
0000
,
0000
0003
0000
0000
0100
0100
0100
0000
,
0001
0000
0010
1100
0100
0010
0001
0000
,
0100
0100
0010
0010
0100
0001
0100
0001
,
0010
0110
0011
0100
2000
0000
3002
0000
,
2003
3002
0203
0320
,
0230
0320
2030
3200
,
2300
3200
1300
0011
,
0100
1010
0200
0302
,
0203
0302
0203
0320
,
0230
0320
2030
3020
,
2030
0000
3020
0000
0230
0001
0301
0001
,
0010
0100
1000
0100
,
0010
0001
0001
1100
,
0010
0010
0010
0100
,
0001
1000
0010
0100
,
0010
1000
1000
1000
,
0100
0000
0010
0000
0100
0000
1000
0100
,
0010
0001
0001
0001
,
0020
0001
0130
0001
0020
0000
0000
0000
,
0000
0000
0000
0000
,
0000
0000
0000
0000
,
0000
0000
0030
0000
,
0101
0010
1000
0010
,
0010
0010
0100
0100
,
0001
0001
0100
0010
,
0100
0001
1000
1000
,
1000
0011
0010
0001
,
1000
0010
1000
0001
,
0010
1100
1000
0001
,
0110
0000
0200
0000
0301
0001
0101
0000
,
0100
0100
0100
0010
,
0100
0001
0100
0100
,
0001
1000
0010
0010
,
2000
3000
0101
0110
,
0001
1000
0001
1000
,
1000
0010
0010
0100
,
0010
0000
0010
0000
0010
0000
1000
1000
,
0002
1000
1000
1003
0210
0000
0000
0300
,
0002
0000
0000
0003
2000
0000
0000
3000
,
0020
0030
0200
0300
0002
0000
0000
0003
,
0200
0000
0000
0300
0020
0000
0000
0030
,
0200
0000
0000
0300
2010
0000
0000
3000
,
0200
0000
0000
0300
0020
0000
0000
0030
,
0002
0003
0200
0300
1002
0000
0000
0003
,
2000
0000
0000
3000
0002
0000
0010
0000
,
0023
0000
0001
0000
0130
0100
0000
0000
,
0001
0001
0000
0000
0100
0100
0000
0000
,
0010
0010
0000
0000
1000
1000
0000
0000
,
0100
0100
0000
0000
0010
0010
0000
0000
,
0001
0001
0000
0000
0200
0000
0000
0000
,
0320
0000
2030
0000
,
3002
0000
2003
0000
,
3020
0000
0230
0000
,
0302
0000
0003
0000
;

//--------------- dance-single - Lye ----------------
#NOTES:
     dance-single:
     Lye:
     Hard:
     13:
     0,0,0,0,0:
0000
0000
0000
0000
0002
0203
0320
0230
,
0302
2003
3200
0320
0230
2300
0000
0000
,
3002
0000
0203
0320
2030
0000
3100
0200
,
0000
0320
0032
0203
0320
2030
0000
0000
,
3020
0000
0000
0000
0230
0302
0203
0320
,
2030
3200
2300
3020
0230
0302
0000
0000
,
2003
0000
3020
0230
0302
0003
0200
2300
,
3000
0200
0302
2003
3010
0020
1000
0000
,
2030
0000
0001
3000
0102
0000
1000
0000
,
0010
0010
0013
0000
0100
0000
1000
0000
,
0010
0000
0100
0000
0001
0000
0000
0000
0010
0100
0010
0000
0100
0000
0000
0000
,
1000
1000
0001
0000
0100
0100
0100
0000
,
0010
1000
0000
1000
0000
0010
0100
0001
0001
0000
0001
0000
0001
0000
0010
0000
,
0010
0100
1000
1000
1000
0010
0100
0001
,
0001
0100
0010
1000
0100
0100
0100
0010
,
0001
0100
0001
0000
1000
0100
1000
0000
0010
0100
0010
1000
0001
0100
0001
0010
,
0100
1000
0001
0010
0100
1000
0001
0010
2100
0000
0000
0000
0000
0000
0000
0000
,
0000
0000
3000
0000
0001
0000
0001
0000
0100
0000
0100
0000
0100
0001
0000
0010
,
0000
0000
0100
0000
0010
0000
1100
0000
0100
0000
0010
0000
0001
0100
0000
0010
,
0000
0000
1000
0100
1000
0100
0010
0001
0100
0000
0001
0000
0100
0001
0000
0010
,
0000
0110
0011
0100
2000
3002
2003
3002
,
0203
0302
0203
0302
0023
0230
0320
0230
,
2300
3200
2300
3200
0320
0032
0023
0032
,
0203
0302
0203
0302
1003
0000
1010
0000
,
0001
0000
0011
0000
0200
0320
0230
0320
,
0032
0023
0032
0023
0032
2003
3002
2003
,
3020
2030
3020
2030
3002
0203
0320
2030
,
3002
0203
0320
2030
3002
0100
0010
1003
,
0100
0010
0001
0100
,
0010
1000
0000
1000
0000
0001
0101
0000
,
0010
0010
0010
0100
,
0001
0001
1000
0100
0010
0000
1100
0000
,
0010
1000
1000
1000
,
0100
0010
0000
0010
0000
0001
1000
0100
,
0010
0000
0001
0000
0001
0000
0001
1000
,
0020
1000
0130
1000
0002
0000
0000
0000
,
0000
0000
1000
1000
,
1000
0000
1000
0003
0010
0100
0010
0100
,
0001
0100
0001
0100
0010
1000
0010
1000
,
1100
0000
0010
0000
1000
0000
0010
1000
,
0100
0000
0010
0000
0100
1000
0000
1000
,
0000
1000
0001
0010
0100
0000
0010
0000
,
0100
0000
1000
0000
0001
0100
0000
0100
,
0000
0100
0011
0000
0010
0001
1000
0010
,
1000
0000
0010
0010
1000
0100
0000
0010
,
0000
0001
1100
0000
1000
0000
0001
0000
,
0110
0000
0100
0020
0001
0031
0101
0000
,
0100
0010
0100
0000
0001
0000
1000
0000
0100
0000
0000
0000
0100
0000
0000
0000
,
0100
0010
0000
0010
0000
0010
0001
0100
,
0001
1000
0010
0010
,
1000
0001
0100
0000
0101
0000
0110
0000
,
1000
0010
0100
0010
1000
0000
1000
0100
,
1000
0010
0000
0010
0000
0010
0100
0010
,
1000
0000
0010
0000
0100
0000
0001
0001
,
0200
1000
0010
0301
0210
0302
2003
3200
,
0320
0230
0320
0032
2003
3200
0000
0000
,
0320
0000
0032
0203
0302
0003
2000
3020
,
0030
2000
3002
0023
0230
2300
0000
0000
,
0002
0003
0000
0000
0002
0003
0000
0000
0002
0003
0000
0000
3002
0003
0000
0000
0210
0000
0000
0000
0302
0000
0000
0000
2003
0000
0000
0000
3200
0000
0000
0000
,
2300
3002
0203
0302
0023
0230
0000
0000
,
0320
0000
0000
0000
0000
0000
0000
0000
0032
0000
0000
0000
2003
0000
0000
3000
0102
0000
0000
0000
0000
0000
0000
0000
0023
0000
0000
0000
0230
0000
0000
0000
,
0300
0000
2000
0000
3020
0000
0230
0000
0302
0000
0203
0000
0310
0000
0010
0010
,
1000
0001
0000
0100
0000
0010
1000
0010
0100
0000
0100
0000
0100
0000
0010
1000
,
0001
0100
0000
0100
0000
0100
0000
0001
0010
0000
0010
0000
0010
0000
0100
1000
,
0100
0010
0000
0010
0000
0010
0000
0001
1000
0100
1000
0000
0001
0000
0100
0010
,
0100
0001
0000
1000
0000
0100
0000
0100
0010
0000
0010
0000
0001
0000
0010
0100
,
1000
0010
0000
0010
0000
0100
0100
0010
2000
3000
2000
0000
0000
0000
0000
0000
,
3020
0030
0020
0000
0000
0000
0000
0000
0230
0300
0200
0000
0000
0000
0000
0000
,
0302
0003
0002
0000
0000
0000
0000
0000
0023
0030
0020
0000
0000
0000
0000
0000
,
0032
0003
0002
0000
0000
0000
0000
0000
2003
3000
2000
0000
0000
0000
0000
0000
,
3020
0030
0020
0000
0000
0000
0000
0000
0030
0000
0000
0000
0000
0000
0000
0000
;

//--------------- dance-single - Lye ----------------
#NOTES:
     dance-single:
     Lye:
     Challenge:
     15:
     0,0,0,0,0:
0000
0000
0000
0000
0002
0203
0320
0230
,
0302
2003
3200
0320
0230
2300
0000
0000
,
3002
0000
0000
0000
0203
0000
0320
0000
2030
0000
0000
0000
3020
0030
0200
0000
,
0000
0320
2030
3200
0320
0032
0000
0000
,
0023
0000
0032
0000
0203
2300
3200
0320
,
2030
3200
0320
0032
0023
0230
0000
0000
,
2300
0000
3020
0230
0302
0003
0020
0230
,
0300
0000
2000
0000
3200
0000
0320
0000
0230
0000
0302
0000
1003
0000
1000
0100
,
1000
0010
0000
0100
0000
0001
0100
0010
2010
0000
0000
0000
3010
0000
0000
0000
,
0001
0010
0000
0010
0000
0010
0000
0001
0100
0000
0010
0000
1000
0000
0010
0100
,
0010
1000
0000
0100
0000
0010
0000
0001
0010
0100
0010
0000
0100
0000
1000
0010
,
0100
0010
0000
0010
0000
1000
0000
1000
0100
0000
0100
0000
0100
0000
0100
0010
,
0001
0000
1000
0000
0000
0000
1000
0000
0000
0000
1000
0010
0100
0000
0001
0000
0001
0000
0000
0000
0001
0000
0000
0000
0001
0000
0000
0000
0010
0000
0100
0000
,
0010
0001
0000
0100
0000
0010
1000
0100
0010
0000
0010
0000
0001
0000
0010
0100
,
1000
0010
0000
0010
0000
0100
0000
0100
0100
1000
0100
0000
0001
0000
0010
0001
,
1000
0000
0100
0000
0000
0000
0100
0000
0000
0000
1000
0000
0000
0000
1000
0000
0010
0000
0100
0000
0010
0000
1000
0000
0001
0100
0001
0100
0010
0001
0010
0001
,
1000
0100
1000
0100
1000
0010
0100
0010
0100
0001
1000
0001
1000
0010
0100
0010
2000
0000
0000
0000
0000
0000
0000
0000
0000
0000
0000
0000
0000
0000
0000
0000
,
0001
0000
3000
0000
1000
0000
1000
0001
0100
0000
0100
0000
0100
0001
0000
0010
,
0000
0000
0100
0000
0010
0000
1100
0000
0100
0000
0010
0000
0001
0100
0000
0010
,
0000
0000
1000
0100
1000
0100
0010
0001
0100
0000
0001
0000
0100
0001
0000
0010
,
0000
0000
0110
0000
0011
0000
0100
0000
0020
0030
2000
3000
0020
0030
2000
3000
,
0200
0300
2000
3000
0200
0300
2000
3000
0002
0003
0020
0030
0200
0300
2000
3000
,
0002
0003
0020
0030
0002
0003
0200
0300
0020
0030
2000
3000
0020
0030
0200
0300
,
0002
0003
0020
0030
0200
0300
0020
0030
0001
0000
0000
0000
1100
0000
0000
0000
,
0010
0000
0000
0000
0101
0000
0000
0000
0020
0030
2000
3000
0002
0003
2000
3000
,
0020
0030
0200
0300
0002
0003
0200
0300
0020
0030
2000
3000
0200
0300
2000
3000
,
0020
0030
2000
3000
0200
0300
2000
3000
0002
0003
0200
0300
0020
0030
2000
3000
,
0002
0003
0200
0300
0020
0030
2000
3000
0002
0000
0100
0000
0010
0000
1003
0000
,
0100
1010
0101
0110
,
0010
1000
0000
1000
0000
0001
0101
0000
,
0010
0011
1001
0101
,
0010
0000
0100
0001
1000
0000
0100
0001
0010
0000
0000
0000
0101
0000
0000
0000
,
0010
1010
1001
1100
,
0100
0000
0010
0000
0000
0000
0010
0000
0000
0000
0010
0001
1000
0000
0100
0000
,
0010
0000
0000
0000
1010
0000
0000
0000
0101
0000
0000
0000
0001
0000
0010
0100
,
2000
0001
3100
1000
0002
0000
0000
0000
,
0000
0000
1000
1000
,
1000
0000
1000
0003
0010
0100
0010
0100
,
0001
0000
0100
0000
0001
0000
0100
0000
0010
1000
0010
1000
0001
1000
0001
0000
,
0101
0000
0000
0000
0010
0000
0000
0000
1000
0010
0100
0000
0010
0000
1000
0000
,
1001
0000
1010
0000
0100
1000
0000
1000
,
0000
1000
0001
0010
0100
0000
1010
0000
,
0110
0000
0101
0000
0010
0100
0000
0001
,
0000
0000
0100
0000
1010
0000
0000
0000
0010
1000
0100
0000
0010
0000
0001
0000
,
0100
0000
0100
0001
0010
0100
0000
1000
,
0000
1000
0110
0000
1000
0000
0001
0000
,
0110
0000
0100
0020
0001
0031
0101
0000
,
0100
0010
0100
0010
1000
0000
0001
0000
1100
0000
0000
0000
1100
0000
0000
0000
,
0100
0010
0000
0001
0000
0010
0100
1000
,
0101
0110
1010
1001
,
1000
0100
0010
0000
1100
0000
0110
0000
,
1000
0100
0010
0000
0001
0000
0100
0000
0010
0000
0000
0000
1000
0000
0100
0000
,
1000
0010
0000
0010
0000
0010
0100
0010
,
1000
0000
0011
0000
0101
0000
1000
0001
,
0200
1000
0010
0301
0210
0302
2003
3200
,
0320
0230
0320
0032
2003
3200
0000
0000
,
0320
0000
0032
0203
0302
0003
2000
3020
,
0030
0000
0000
0000
2000
0000
0000
0000
3002
0000
0000
0000
0023
0000
0000
0000
0230
0000
0000
0000
2300
0000
0000
0000
0002
0003
0000
0000
0002
0003
0000
0000
,
0002
0003
0000
0000
0002
0003
0000
0000
0002
0003
0000
0000
3002
0003
0000
0000
0210
0000
0000
0000
0302
0000
0000
0000
2003
0000
0000
0000
3200
0000
0000
0000
,
2300
3002
0203
0302
0023
0230
0000
0000
,
0320
0000
0000
0000
0032
0000
2003
3000
0120
0000
0000
0000
2030
0000
3002
0000
,
0003
0000
2000
0000
3020
0000
0230
0000
0302
0000
0203
0000
0310
0000
0010
0010
,
1000
0001
0000
0100
0000
0010
1000
0010
0100
0000
0100
0000
0100
0000
0010
0001
,
1000
0100
0000
0100
0000
0010
0000
0001
0010
0000
0010
0000
0010
0000
0100
1000
,
0100
0010
0000
0010
0000
0001
0000
0001
1000
0100
1000
0000
0001
0000
0100
0010
,
0100
0001
0000
1000
0000
0100
0000
0100
0010
0000
0010
0000
0001
0000
0010
0100
,
1000
0000
0010
0000
0000
0000
0010
0000
0000
0000
0100
1000
0100
0000
0001
0000
0010
0000
0000
0000
0001
0000
0000
0000
0001
0000
0000
0000
0010
0000
0100
0000
,
0010
1000
0000
1000
0000
0001
0000
0001
0010
0000
0010
0000
0010
0000
0001
1000
,
0010
0100
0000
0100
0000
0010
0000
0010
1000
0100
1000
0000
1000
0000
0010
0100
,
0001
0010
0000
0010
0000
0001
0000
0001
1000
0000
1000
0000
1000
0000
0010
0100
,
0010
1000
0000
1000
0000
0100
0000
0100
0000
0000
0000
0000
0000
0000
0000
0000
;
