#TITLE:Dancing;
#SUBTITLE:;
#ARTIST:Omar, Zed Bias;
#TITLETRANSLIT:;
#SUBTITLETRANSLIT:;
#ARTISTTRANSLIT:;
#GENRE:;
#CREDIT:;
#MUSIC:dancing.ogg;
#BANNER:dancing-bn.png;
#BACKGROUND:dancing-bg.png;
#CDTITLE:;
#SAMPLESTART:57.563;
#SAMPLELENGTH:26.828;
#SELECTABLE:YES;
#OFFSET:1.820;
#BPMS:0.000=128.067
,159.729=128.000
,300.000=128.069
;
#STOPS:;
#DISPLAYBPM:128.067;
#BGCHANGES:1.820=dancing-mv.avi=1.000=1=0=0=StretchNoLoop==CrossFade==,
99999.000=-nosongbg-=1.000=0=0=0=StretchNoLoop====
;
#FGCHANGES:;

//--------------- dance-single - Lye ----------------
#NOTES:
     dance-single:
     Lye:
     Easy:
     4:
     0,0,0,0,0:
0000
0000
0000
0000
,
0000
0000
0000
0000
,
0000
0000
0000
0000
,
0000
0000
0000
0000
,
0000
0000
0000
0000
,
0010
0010
1000
0000
,
0001
0100
0100
0000
,
0010
0010
1000
0000
,
0100
1000
1000
0000
,
0010
0000
0100
0000
,
0001
0000
0001
0000
,
0010
0000
0100
0000
,
1000
0000
0001
0000
,
0010
0000
0001
0000
,
1000
0000
1000
0000
,
0010
0000
0100
0000
,
0001
0000
1000
0000
,
0002
0003
1000
0000
,
1000
0000
0010
0100
,
0001
0000
0010
0000
,
0100
0000
1000
0001
,
0100
0000
0010
0000
,
1000
0000
0010
0100
,
0001
0000
1000
0000
,
0100
0000
0020
0000
,
0032
0000
0103
0100
,
0020
0030
0000
0000
0000
0000
0000
0000
0000
0000
0000
0000
0000
0000
0000
0000
,
2000
0000
3100
0100
,
0020
0030
0000
0000
0000
0000
0000
0000
1000
0000
0000
0000
0000
0000
0000
0000
,
0020
0000
0130
0001
,
0002
0003
0000
0000
0000
0000
0000
0000
1000
0000
0000
0000
0000
0000
0000
0000
,
0200
0000
0310
1000
,
2000
3000
0000
0000
0000
0000
0000
0000
0020
0000
0000
0000
0000
0000
0000
0000
,
1030
0000
0001
0000
,
0100
0000
0100
0000
,
0010
0000
1000
0000
,
0100
0000
0010
0001
,
0001
0000
1000
0000
,
0010
0000
1000
0001
,
1000
0000
0010
0000
,
0100
0000
0000
0000
0002
0000
2000
3000
,
0003
0000
0000
0000
0000
0000
0020
0030
,
0000
0000
0000
0000
0000
0000
2000
3000
,
0000
0000
0000
0000
0000
0000
0200
0300
,
0000
0000
0000
0000
0000
0000
0020
0030
,
0000
0000
0000
0000
0000
0000
0002
0003
,
0000
0000
0000
0000
0000
0000
2000
3000
,
0000
0000
0000
0000
0000
0000
0020
0030
,
0000
0000
2000
0000
,
3001
0100
0001
0000
,
1000
0000
0100
0000
,
0010
0100
1000
0000
,
0010
0000
0010
2000
,
3001
0000
0100
0000
,
0010
0000
1000
1000
,
0100
0000
1000
0000
,
0010
0000
0100
0100
,
0001
0100
0010
0010
,
1000
1000
1000
1000
,
0010
0010
0100
0100
,
0001
0000
0010
0010
,
0100
0000
1000
0000
,
0001
0000
0100
0010
,
0010
0000
1000
0000
,
0001
0000
0200
0000
,
0320
0000
1030
1000
,
0002
0003
0000
0000
0000
0000
0000
0000
0100
0000
0000
0000
0000
0000
0000
0000
,
0020
0000
1030
1000
,
0200
0300
0000
0000
0000
0000
0000
0000
0010
0000
0000
0000
0000
0000
0000
0000
,
0002
0000
0103
0100
,
0020
0030
0000
0000
0000
0000
0000
0000
1000
0000
0000
0000
0000
0000
0000
0000
,
0002
0003
0100
0000
,
0010
1000
0002
2003
,
3000
0000
0000
0000
;

//--------------- dance-single - Lye ----------------
#NOTES:
     dance-single:
     Lye:
     Medium:
     6:
     0,0,0,0,0:
0000
0000
0000
0000
,
2000
3000
0000
0000
,
0020
0000
0000
0000
0030
0000
0000
0000
0000
0000
0000
1000
0000
0000
0000
0000
,
0002
0003
0000
0000
,
0200
0000
0000
0000
0300
0000
0000
0000
0000
0000
0000
0010
0000
0000
0000
0000
,
1100
0010
0001
0000
,
0001
0100
0010
0000
,
0010
0010
1000
0000
,
0100
1000
0010
0100
,
0001
0001
1000
1000
,
0010
0000
0010
0000
,
1000
0010
0100
0100
,
0001
0000
0000
0000
0001
1000
0010
0000
,
0100
0001
1000
1000
,
0100
0000
0100
0000
,
0010
0001
0100
0100
,
0010
0000
0000
0000
1000
0010
1000
0000
,
0012
1003
0100
0000
,
0010
1000
0100
1000
,
0001
0000
0001
0010
,
0100
1000
1000
0001
,
0100
0000
0010
1000
,
0001
0100
0010
0100
,
0001
0000
1000
0100
,
0100
1000
0020
0000
,
0230
0000
0301
0100
,
0020
0030
0000
0000
1000
0000
0000
0000
1000
0000
0000
0000
0100
0000
0000
0000
,
2000
0000
3010
0010
,
0200
0300
0000
0000
0000
0000
0000
0000
0001
0000
0000
0000
0100
0000
0000
0000
,
0002
0000
0103
0001
,
0002
0003
0000
0000
0000
0000
0000
0000
1000
0000
0000
0000
0010
0000
0000
0000
,
0200
0000
0310
1000
,
0200
0300
0000
0000
0000
0000
0000
0000
0020
0000
0000
0000
0000
0000
0000
0000
,
0031
0001
1000
0000
,
0100
0000
0100
0000
,
0010
0001
1000
0000
,
0010
0000
0000
0000
0010
1000
0001
0000
,
0100
0010
1000
0000
,
0001
0000
0000
0000
0001
0001
0001
0000
,
1000
0000
0010
0000
,
0100
0000
0100
0000
0002
0000
2003
3100
,
0000
0000
0000
0000
0010
0000
0001
0001
,
0000
0000
0000
0000
1000
0000
0100
0100
,
0000
0000
0000
0000
0010
0000
0100
0100
,
0000
0000
0000
0000
1000
0000
0001
0001
,
0000
0000
0000
0000
0010
0000
0100
0100
,
0000
0000
0000
0000
1000
0000
0010
0010
,
0000
0000
0000
0000
0100
0000
0001
0001
,
0000
0000
0000
0000
0010
0001
0100
0000
,
0010
1000
0010
0000
,
0100
0000
0001
0000
,
0100
0010
1000
0001
,
0010
0000
0100
0000
0010
0100
2000
3000
,
1000
1000
0100
0100
,
0010
0010
0001
0001
,
0100
0100
0010
0010
,
1000
0000
1000
0000
0100
1000
0100
0000
,
1010
0100
0001
0001
,
1000
1000
0010
0010
,
0100
0100
0001
0001
,
0100
0100
0010
0010
,
1000
1000
0100
0100
,
1000
1000
0010
0010
,
0100
0100
0001
0001
,
0100
0000
0001
0000
0100
0010
0100
0000
,
0020
0000
1030
1000
,
0002
0003
0000
0000
0100
0000
0010
0000
0100
0000
0000
0000
0001
0000
0000
0000
,
0020
0000
0130
0100
,
2000
3000
0000
0000
0010
0000
0100
0000
0010
0000
0000
0000
1000
0000
0000
0000
,
0200
0000
1300
0010
,
0200
0300
0000
0000
0010
0000
1000
0000
0001
0000
0000
0000
0100
0000
0000
0000
,
0002
0000
1003
0000
0100
0000
0010
0100
,
0010
1000
0002
0203
,
0300
0000
0000
0000
;

//--------------- dance-single - Lye ----------------
#NOTES:
     dance-single:
     Lye:
     Hard:
     11:
     0,0,0,0,0:
0000
0000
0000
0000
,
2000
3000
0000
0020
0000
0030
0000
0000
0000
0000
0000
0000
0000
0000
0000
0000
,
0200
0300
0000
0002
0000
0003
0000
0000
0000
0000
0000
1000
0000
0000
0000
0000
,
0002
0003
0000
0200
0000
0300
0000
0000
0000
0000
0000
0000
0000
0000
0000
0000
,
0002
0003
0000
0020
0000
0030
0000
0000
0001
0000
0000
0000
0010
0000
0000
0000
,
1100
0000
0010
1000
0001
0000
0100
0000
,
0001
0000
0100
0010
1000
0000
0001
0000
,
0100
0000
0010
0100
0001
0000
1000
0000
,
0010
0100
0001
0100
,
0001
0000
0000
1000
0000
0010
0100
0000
0001
1000
0000
1000
0001
0000
0100
0000
,
0010
0000
0010
0100
0010
0000
0010
1000
,
0001
0000
0000
1000
0000
0001
0100
0000
0010
1000
0000
1000
0100
0000
0010
0000
,
0001
0000
1000
0000
0001
1000
0010
0000
,
0100
0000
0000
0001
0000
1000
0010
0000
1000
0001
0000
0001
1000
0000
0010
0000
,
0100
0000
0100
0001
0100
0000
0100
0001
,
0010
0000
0000
0001
0000
1000
0010
0000
0100
0001
0000
0001
0100
0000
0010
0000
,
0100
0000
0001
0000
1000
0100
1000
1000
,
0012
0003
1000
0000
0100
0000
0010
0001
,
0010
0000
0001
0100
1000
0000
1000
0100
,
0001
0000
0010
0001
1000
0000
0010
0100
,
0001
0000
1000
0010
1000
0100
0010
0001
,
0100
0000
0010
1000
0010
0000
1000
0100
,
0010
0000
0100
1000
0001
0000
0100
0000
,
0010
0000
0000
0000
1000
0000
0010
0100
,
0001
0000
1000
0001
0020
0000
0000
0000
,
0230
0000
0000
0000
1300
0000
0001
1000
,
0020
0030
0000
0000
1000
0000
0001
0000
1000
0000
0000
0000
0100
0000
0010
0000
,
0002
0000
1000
0000
0103
0000
0010
0100
,
0020
0030
0000
0000
0001
0000
1000
0000
0010
0000
0010
0000
1000
0000
0010
0000
,
0200
0000
0001
0000
0301
0000
0001
0100
,
0002
0003
0000
0000
0100
0000
0010
0000
1000
0000
0000
0000
0001
0000
1000
0000
,
0200
0000
1000
0000
1300
0000
1000
0010
,
0200
0300
0000
0000
0001
0000
1000
0000
0010
0000
0100
0000
0001
0000
1000
0000
,
0001
0000
0000
1000
0000
0010
1000
0000
1000
0001
0000
0001
0100
0000
0010
0000
,
1000
0000
1000
0010
1000
0000
1000
0010
,
1000
0000
0000
0001
0000
0001
0010
0000
0100
1000
0000
1000
0010
0000
0100
0000
,
0001
0000
0001
0000
0010
0001
1000
0001
,
0100
0000
0000
0001
0000
0001
1000
0000
0100
0010
0000
0010
0100
0000
1000
0000
,
0001
0000
0100
0000
0001
0001
0001
1000
,
0100
0000
0000
0010
0000
0001
0100
0000
0010
1000
0000
1000
0010
0000
0100
0000
,
0001
1000
1000
0001
0002
0000
2003
3100
,
0000
0000
0000
0010
0000
0000
0001
0000
0010
0000
0100
0000
1000
0000
0001
0000
,
0000
0000
0000
0100
0000
0000
0010
0000
1000
0000
0010
0000
0100
0000
0001
0000
,
0000
0000
0000
1000
0000
0000
1000
0000
0001
0000
0001
0000
0100
0000
0010
0000
,
0000
0000
0000
1000
0000
0000
0100
0000
0010
0000
0001
0000
1000
0000
1000
0000
,
0000
0000
0000
0010
0000
0000
0100
0000
1000
0000
0100
0000
0001
0000
0010
0000
,
0000
0000
0000
0100
0000
0000
1000
0000
1000
0000
0001
0000
0100
0000
0010
0000
,
0000
0000
0000
1000
0000
0000
0100
0000
0010
0000
0001
0000
0100
0000
0010
0000
,
0000
0000
0000
0010
0000
0000
1000
0000
0010
0000
0100
0000
0001
0000
0100
0000
,
0001
0001
1000
1000
0010
0100
0101
0000
,
0100
0010
1000
0010
0100
0010
0101
0000
,
1000
1000
0010
0100
0001
0001
0010
0100
,
1000
0000
1000
0001
1000
0000
1000
0000
0010
0000
0100
0000
1020
0000
0030
0000
,
1000
0001
1000
0100
0100
0010
0001
0001
,
0010
0000
0100
0000
1000
0000
0010
0000
0100
0000
0001
1000
0000
0100
0000
0000
,
0100
1000
0000
1000
0010
0000
0010
0000
1000
0000
1000
0001
0000
0100
0000
0000
,
0100
0000
0010
0000
1000
0001
0000
0001
1000
0100
0000
0200
0000
0320
0030
0000
,
0011
0001
1000
0000
0101
0100
0001
0000
,
1010
0001
1000
0000
0011
1000
0010
0100
,
0001
0000
0001
1000
0000
0001
0000
0000
1000
0000
1000
0001
0000
1000
0000
0000
,
0100
0000
0010
0000
0001
0000
0001
0000
0100
0010
0000
0010
0100
0000
0000
0000
,
0010
0000
0100
0000
0100
0000
0001
0010
0000
0010
0100
0000
1000
0000
0001
0000
,
0100
0000
0001
0000
0001
0000
1000
0010
0000
0010
1000
0000
0101
0000
0000
0000
,
0100
0000
0010
0000
0010
0000
0100
0001
0000
0001
0100
0000
0010
0000
1000
0000
,
0001
0000
1000
0000
1000
0000
0001
0100
0000
0010
1000
0000
1100
0000
0100
0000
,
0020
0000
0000
0000
0000
0000
0000
0000
0031
0000
0000
0000
2000
0000
0000
0001
,
3100
0000
0000
0000
0100
0000
0010
0000
0200
0300
0000
0000
0001
0000
1000
0000
,
0020
0000
0030
0000
0010
0000
0000
0000
0100
0000
0000
0000
0100
0000
0000
0100
,
0001
0000
0010
0100
0010
0010
0001
1000
,
0100
0000
0000
0000
0010
0000
0000
0000
0010
0000
0000
0000
0001
0000
0000
0010
,
0200
0300
0000
0000
0010
0000
0001
0000
1000
0000
1000
0000
0100
0000
0010
0000
,
0002
0000
0013
0000
0100
0000
0010
0100
,
2000
3000
0000
0001
1000
0000
0010
0000
0200
0300
0000
0010
1000
0000
0001
0000
,
0102
0000
0003
0000
;

//--------------- dance-single - Lye ----------------
#NOTES:
     dance-single:
     Lye:
     Challenge:
     14:
     0,0,0,0,0:
0000
0000
0000
0000
,
2000
3000
0000
0020
0000
0030
0000
0000
0000
0000
0000
0000
0000
0000
0000
0000
,
0200
0300
0000
0002
0000
0003
0000
0000
0000
0000
0000
1000
0000
0000
0000
0000
,
0002
0003
0000
0200
0000
0300
0000
0000
0000
0000
0000
0000
0000
0000
0000
0000
,
0002
0003
0000
0020
0000
0030
0000
0000
0001
0000
0000
0000
0010
0000
0000
0000
,
1100
0000
0000
0000
0010
0000
1000
0000
0001
0000
0000
0001
0100
0000
0000
0000
,
0001
0000
0000
0000
0100
0000
0010
0000
1000
0000
0000
1000
0001
0000
0000
0000
,
0100
0000
0000
0000
0010
0000
0100
0000
0001
0000
0000
0001
1000
0000
0000
0000
,
0010
1000
0100
0010
,
0001
0000
0000
1000
0000
0010
0100
0000
0001
1000
0000
1000
0001
0000
0100
0000
,
0010
0000
0000
0010
0000
0000
0100
0000
0010
0000
0000
0010
0000
0000
1000
0000
,
0100
0000
0000
1000
0000
0001
0100
0000
0010
1000
0000
1000
0100
0000
0010
0000
,
0001
0000
0000
1000
0000
0000
0000
0000
0001
0100
0010
0000
1000
0000
0001
0000
,
0100
0000
0000
0001
0000
1000
0010
0000
1000
0001
0000
0001
1000
0000
0010
0000
,
0100
0000
0000
0100
0000
0000
0001
0000
0100
0000
0000
0100
0000
0000
0001
0000
,
0010
0000
0000
0001
0000
1000
0010
0000
0100
0001
0000
0001
0100
0000
0010
0000
,
0100
0000
0000
0001
0000
0000
0000
0000
1000
0100
1000
0000
0001
0000
0020
0000
,
0031
0000
0000
1000
0000
1000
0100
0000
0010
0001
0000
0001
0010
0000
0001
0000
,
1000
0000
0000
0010
0000
0000
0100
0000
0001
0000
0000
0001
0000
0000
0100
0000
,
0001
0000
0000
1000
0000
0010
0100
0000
0001
1000
0000
1000
0100
0000
0010
0000
,
0100
0000
0000
0100
0000
0000
0010
0000
0001
0100
0001
0000
0010
0000
0001
0000
,
0100
0000
0000
0010
0000
1000
0001
0000
0100
0010
0000
0010
0100
0000
0001
0000
,
1000
0000
0000
0100
0000
0000
1000
0000
0001
0000
0000
0100
0000
0000
0010
0000
,
1000
0000
0000
0100
0000
0010
0001
0000
0100
0001
0000
0001
0100
0000
0010
0000
,
1000
0000
0000
1000
0000
0000
0001
0000
0020
0000
0000
0000
0000
0000
0000
0000
,
0130
0000
0000
0000
1000
0000
0000
0000
0010
0000
0000
0000
0100
0000
0000
0001
,
0020
0030
0000
0000
0001
0000
0010
0000
0100
0000
0000
0000
0100
0000
0010
0000
,
0002
0000
0000
0000
1000
0000
0000
0000
0103
0000
0000
0000
0010
0000
0000
1000
,
0200
0300
0000
0000
1000
0000
0100
0000
0010
0000
0010
0000
0100
0000
1000
0000
,
0200
0000
0000
0000
1000
0000
0000
0000
1300
0000
0000
0000
0010
0000
0000
0100
,
0002
0003
0000
0000
0100
0000
0010
0000
1000
0000
0000
0000
0001
0000
1000
0000
,
0200
0000
0000
0000
1000
0000
0000
0000
1300
0000
0000
0000
1000
0000
0000
0010
,
0200
0300
0000
0000
0001
0000
1000
0000
0010
0100
0001
0100
0010
0100
0001
0100
,
0010
0000
0000
0100
0000
0100
0001
0000
1000
0010
0000
0010
0100
0000
0010
0000
,
1000
0000
0000
0010
0000
0000
0010
0000
0100
0000
0000
0100
0000
0000
0001
0000
,
1000
0000
0000
0001
0000
0001
0010
0000
0100
1000
0000
1000
0010
0000
0100
0000
,
0001
0000
0000
0001
0000
0000
0000
0000
0010
0001
0100
0000
0010
0000
1000
0000
,
0100
0000
0000
0010
0000
0100
0010
0000
0001
0100
0000
0100
0010
0000
0100
0000
,
0001
0000
0000
0100
0000
0000
0001
0000
1000
0000
1000
0000
1000
0000
0010
0000
,
0100
0000
0000
0010
0000
1000
0100
0000
0010
0001
0000
0001
0010
0000
0100
0000
,
1000
0000
0000
0010
0000
0000
0100
0000
0002
0000
0000
0000
2003
0000
3100
0000
,
0010
0000
0000
0001
0000
0001
0000
1000
0010
0000
0100
0000
0101
0000
1001
0000
,
0000
0000
0000
0100
0000
0010
0000
1000
0001
0000
0010
0000
0110
0000
0011
0000
,
0000
0000
0000
1000
0000
1000
0000
0010
1000
0000
0001
0000
0101
0000
1010
0000
,
0000
0000
0000
1000
0000
0100
0000
0010
0100
0000
1000
0000
1100
0000
0011
0000
,
0000
0000
0000
0010
0000
0001
0000
1000
0010
0000
0100
0000
0101
0000
1010
0000
,
0000
0000
0000
0001
0000
0001
0000
1000
0010
0000
0100
0000
1010
0000
1100
0000
,
0000
0000
0000
1000
0000
0010
0000
0100
0010
0000
1000
0000
1100
0000
0110
0000
,
0000
0000
0000
0010
0000
0001
0000
0001
0010
0000
1100
0000
0010
0000
1000
0000
,
0001
0100
0001
0010
0001
0100
0001
0010
0100
0000
1000
0100
1000
0001
0000
0000
,
0100
0010
1000
0000
0100
0010
0001
0010
0100
0000
1000
0010
0100
0001
0000
0000
,
1000
0000
1000
0100
0010
0000
0001
0000
0001
0000
0001
0010
0100
0000
1000
0000
,
0100
0000
0010
0100
1000
0010
1000
0100
0010
0000
0001
0100
0000
0001
0000
0000
,
0010
1000
0000
1000
0010
0100
0000
0100
0001
0000
1000
0010
0100
0010
0000
0100
,
0001
0000
0100
0000
0010
0000
1000
0100
0010
0000
0001
0010
0000
0001
0000
0000
,
0100
0001
0000
0001
0100
0000
0010
0100
0001
1000
0000
1000
0000
0100
0000
0000
,
0010
0000
0100
0000
1000
0001
0000
0010
0100
0010
0000
0002
0000
0100
0003
0000
,
1010
0000
0000
0000
0000
0000
0010
0000
0000
1000
0000
0000
0000
0000
0000
0001
0000
0000
0000
0000
0000
0000
0000
0000
1001
0000
0000
0000
0010
0000
0000
0000
0001
0000
0000
0000
0001
0000
0000
0000
0000
0000
0000
0000
0000
0000
0000
0000
,
0011
0000
0001
0000
0100
0000
0010
0000
0000
0000
0000
0000
0010
0000
0100
0000
0001
0000
0010
0000
0000
0001
0000
0000
,
1000
0000
0000
0000
0001
0000
0000
0000
0100
0000
0000
0000
0000
0000
0000
0001
0000
0000
0000
0000
0000
0000
0000
0000
0001
0000
0000
0000
1000
0000
0000
0000
0010
0000
0000
0000
0000
0000
0000
0100
0000
0000
0000
0000
0000
0000
0000
0000
,
0100
0000
0001
0100
0002
0000
0013
0000
0100
1000
0000
1000
0100
0000
0000
0000
,
0010
0000
0100
0001
1000
0000
0100
0010
0000
0010
0100
0000
1000
0000
0001
0000
,
1000
0000
0001
0010
0001
0000
0010
1000
0000
1000
0010
0000
0101
0000
0000
0000
,
0100
0000
0010
1000
0010
0000
0100
0001
0000
0001
0010
0000
0100
0000
1000
0100
,
0010
0000
0001
0010
0001
0000
0001
0100
0000
0010
1000
0000
1100
0000
0100
0000
,
0020
0000
0000
0000
0000
0000
0000
0000
0031
0000
0000
0000
2000
0000
0000
0001
,
3100
0000
0000
0000
0100
0000
0010
0000
0200
0300
0000
0000
0001
0000
1000
0000
,
0020
0000
0000
0000
0000
0000
0000
0000
0130
0000
0000
0000
0100
0000
0000
0100
,
0002
0003
0000
0000
0010
0000
0100
0000
0010
0000
0010
0000
0001
0000
1000
0000
,
0200
0000
0000
0000
0010
0000
0000
0000
0310
0000
0000
0000
0001
0000
0000
0010
,
0200
0300
0000
0000
0010
0000
0001
0000
1000
0000
0000
0000
0100
0000
0010
0000
,
0002
0000
0013
0000
0100
0000
1000
0100
,
0020
0030
0000
0001
1000
0000
0010
0000
0200
0000
0000
0310
1000
0000
0001
0000
,
0020
0000
0000
0000
0000
0000
0000
0030
0000
0000
0000
0000
0000
0000
0000
0000
;
