#TITLE:Con Altura;
#SUBTITLE:;
#ARTIST:Rosalia, J. Balvin, El Guincho;
#TITLETRANSLIT:;
#SUBTITLETRANSLIT:;
#ARTISTTRANSLIT:;
#GENRE:;
#CREDIT:;
#MUSIC:conaltura.ogg;
#BANNER:conaltura-bn.png;
#BACKGROUND:conaltura-bg.png;
#CDTITLE:;
#SAMPLESTART:53.312;
#SAMPLELENGTH:26.875;
#SELECTABLE:YES;
#OFFSET:0.566;
#BPMS:0.000=196.000;
#STOPS:;
#BGCHANGES:1.566=conaltura-mv.avi=1.000=1=0=0=StretchNoLoop==CrossFade==,
99999.000=-nosongbg-=1.000=0=0=0=StretchNoLoop====
;
#FGCHANGES:;

//--------------- dance-single - Lye ----------------
#NOTES:
     dance-single:
     Lye:
     Easy:
     5:
     0,0,0,0,0:
0000
0000
0000
0000
,
0000
0000
0000
0000
,
0000
0000
0000
0000
,
0000
0000
0100
0100
,
0001
0000
0010
0000
,
0000
0000
0100
1000
,
0010
0000
0100
0000
,
0000
0000
0010
0010
,
1000
0000
0001
0000
,
0000
0000
0010
0100
,
0010
0000
0100
0000
,
1001
0000
0001
0000
,
0100
0100
0010
0000
,
1000
0000
0100
0000
,
0010
0001
0010
0000
,
0100
0000
1000
0000
,
0010
0100
0001
0000
,
0010
0000
0100
0000
,
1000
1000
0010
0000
,
0100
0000
0001
0000
,
0100
0001
0010
0000
,
0100
0000
0010
0000
,
0100
1000
0001
0000
,
0100
0000
0010
0000
,
0100
0001
0100
0000
,
0010
0000
1000
0000
,
0100
1000
0010
0000
,
0110
0000
0000
0000
,
0000
0000
0000
0000
,
1001
0000
0100
0000
,
0010
0000
0100
0000
,
0001
0000
1000
0000
,
0100
0000
0010
0001
,
0001
0000
0100
0000
,
0010
0000
1000
0000
,
0200
0000
0300
0000
,
0020
0000
0030
0000
,
0002
0000
0003
0000
,
2000
0000
3000
0000
,
0020
0000
0030
0000
,
0200
0000
0300
0000
,
0002
0000
0003
0000
,
0020
0000
0030
0000
,
0110
0000
0000
0000
,
0000
1000
0001
0000
,
1001
0000
0000
0000
,
0000
0001
1000
0000
,
0100
0000
0010
0000
,
0100
0010
0010
0000
,
0001
0000
0100
0000
,
0001
0010
0010
0000
,
0100
0000
1000
0000
,
0010
0100
0100
0000
,
0001
0000
0010
0000
,
0100
0010
0010
0000
,
0001
0000
0001
0000
,
1000
1000
1000
0000
,
0010
0000
0100
0000
,
0001
0001
0001
0000
,
0100
0000
0001
0000
,
0100
0100
0100
0000
,
0010
0000
1000
0000
,
0010
0010
0010
0000
,
0110
0000
0000
0000
,
0000
0000
0000
0000
,
1001
0000
1000
0000
,
0001
0000
0001
0000
,
1001
0000
1000
0000
,
0010
0000
0100
0000
,
0002
0003
1000
0000
,
0100
0000
0010
0000
0020
0000
0000
0030
,
1001
1001
0000
0000
,
0000
0000
0100
0000
,
0001
0000
0010
0000
,
0100
1000
1000
0000
,
0010
0000
0100
0000
,
0010
0000
0000
0000
,
1000
0000
0001
0010
,
0010
0000
0000
0000
0200
0300
0000
0000
,
2000
0000
3000
0000
,
0002
0000
0003
0000
,
0200
0000
0300
0000
,
0020
0000
0030
0000
,
2000
0000
3000
0000
,
0002
0000
0003
0000
,
0020
0000
0030
0000
,
0002
0000
0003
0000
,
0110
0000
0100
0000
,
0000
0001
1000
0000
,
0110
0000
0010
0000
,
0000
1000
0001
0000
,
1000
0000
1000
0000
,
0010
0100
0001
0000
,
0010
0000
0010
0000
,
0100
1000
0001
0000
,
1000
0000
1000
0000
,
0001
0010
0001
0000
,
0100
0000
0100
0000
,
0010
1000
0100
0000
,
1000
0000
0010
0000
,
0100
0001
0001
0000
,
0010
0000
0100
0000
,
0010
0001
0001
0000
,
1000
0000
0010
0000
,
0100
0001
1000
0000
,
0100
0000
0010
0000
,
0001
0001
0100
0000
,
0020
0000
0030
0000
,
2000
0000
3001
0000
,
0001
0100
0200
0000
,
0300
0000
0000
0000
;

//--------------- dance-single - Lye ----------------
#NOTES:
     dance-single:
     Lye:
     Medium:
     8:
     0,0,0,0,0:
0000
0000
0000
0000
,
0000
0000
0000
0000
,
0000
0000
0000
0000
,
0000
0000
0001
0000
,
0100
0010
0010
0000
,
0000
0000
0010
0000
,
1000
0100
0010
0000
,
0000
0000
0001
0000
,
1000
0010
0100
0000
,
0000
0000
1000
0000
,
1000
0001
0100
0000
,
1001
0000
0100
0000
,
0001
0000
0010
0100
0010
0000
0000
0000
,
0100
0000
1000
0000
,
0010
0000
0010
1000
0001
0000
0000
0000
,
0100
0000
0010
0000
,
1000
0000
0100
0010
0001
0000
0000
0000
,
0100
0000
0010
0000
,
1000
0000
0001
0100
0010
0000
0000
0000
,
0010
0000
0100
0000
,
0001
0000
1000
0010
0100
0000
0000
0000
,
0010
0000
1000
0000
,
0001
0000
0001
0010
0100
0000
0000
0000
,
0100
0000
0010
0000
,
0001
0000
1000
0100
0010
0000
0000
0000
,
0100
0000
1000
0000
,
1000
0000
0001
0100
0010
0000
0000
0000
,
1001
0000
0000
0000
,
0000
0000
0000
0000
,
0120
0030
0000
0000
1000
0000
0001
0000
,
0100
0000
0010
1000
0010
0000
0000
0000
,
0100
0000
0001
0010
,
0001
0000
1000
0010
1000
0000
0100
0000
,
0100
0010
0001
0001
,
0100
0000
0010
1000
0010
0000
0100
0000
,
0102
0000
0013
0000
,
2010
0000
3100
0100
,
0021
0000
0031
0000
,
2001
0000
3100
0000
,
0120
0000
0031
0000
,
2010
0000
3100
0100
,
1002
0000
0013
0000
,
2100
0000
3010
0100
,
0110
0000
0000
0000
,
0000
0000
1000
0001
1000
0000
0000
0000
,
1001
0000
0000
0110
0000
0000
0000
0000
,
0000
0000
0001
1000
0001
0000
0000
0000
,
0100
0000
0100
0000
,
0010
0000
1000
0100
1000
0000
0000
0000
,
0001
0000
0001
0000
,
0100
0000
0010
1000
0010
0000
0000
0000
,
0100
0000
0001
0000
,
1000
0000
0100
0010
0100
0000
0000
0000
,
1000
0000
0001
0000
,
0100
0000
0010
1000
0010
0000
0000
0000
,
0100
0100
0001
0001
,
1000
0000
1000
0001
1000
0000
0000
0000
,
0010
0010
0100
0100
,
0001
0000
0001
1000
0001
0000
0000
0000
,
0100
0100
0010
0010
,
1000
0000
1000
0100
1000
0000
0000
0000
,
0010
0010
0100
0100
,
0001
0000
0001
0100
0001
0000
0000
0000
,
1001
0000
0000
0000
,
0000
0000
0000
0000
,
0110
0000
1000
1000
,
0001
0001
0100
0000
,
0101
0000
0010
1000
,
1000
0010
0100
0000
,
0011
0000
1000
1000
,
0010
0000
0100
0000
0002
0000
0000
0003
,
1010
1100
0000
0000
,
0000
1000
0001
0001
,
0100
0100
0010
0010
,
0100
0000
0100
0001
0010
0000
0000
0000
,
0100
0100
1000
1000
,
0001
0000
0000
0100
,
0100
0010
1000
1000
,
0001
0000
0200
0300
,
0020
0000
1000
0000
,
1030
0000
0000
0000
0200
0300
0020
0030
,
0002
0000
0100
0000
,
0103
0000
0010
0000
,
0200
0000
0001
0000
,
1300
0000
0000
0000
0200
0300
0020
0030
,
2000
0000
0100
0000
,
3001
0100
0001
0000
,
1010
0000
0000
0000
,
0000
0000
1000
0001
1000
0000
0000
0000
,
1100
0000
0000
0011
0000
0000
0000
0000
,
0000
0000
0100
0010
0100
0000
1000
0000
,
1000
0010
0100
0001
,
0001
0000
1000
0001
0100
0000
0000
0000
,
0010
0010
0100
0100
,
0001
0000
0010
0100
0010
0000
0000
0000
,
0100
0100
1000
1000
,
0001
0000
0100
0010
0100
0000
0000
0000
,
1000
0001
0100
0001
,
0010
0000
0100
1000
0100
0000
0000
0000
,
0110
0000
0001
0000
,
1010
0100
0001
0001
,
0110
0000
1000
0000
,
0001
0000
0100
0010
0100
0000
0000
0000
,
0001
0001
0100
0010
,
1000
0000
0100
0010
0001
0000
0000
0000
,
0100
0100
0010
1000
,
1000
0000
0010
1000
0010
0000
0000
0000
,
0110
0000
0001
1000
,
0000
0000
0000
1000
0001
0000
0000
0000
,
0100
0000
0010
1000
0200
0000
0000
0000
,
0300
0000
0000
0000
;

//--------------- dance-single - Lye ----------------
#NOTES:
     dance-single:
     Lye:
     Hard:
     11:
     0,0,0,0,0:
0000
0000
0000
0000
,
0000
0000
0000
0000
,
0000
0000
0000
0000
,
0000
0000
0001
0001
,
0100
0010
0010
0000
,
0000
0000
0010
0010
,
1000
0100
0010
0000
,
0000
0000
0001
1000
,
0001
0100
0010
0000
,
0000
0000
1000
0010
,
1000
0001
0100
0100
,
1001
0000
0000
0010
0100
0000
0010
0000
,
1000
0000
0001
0100
0010
0000
0000
0000
,
0100
0000
0000
0010
1000
0000
0010
0000
,
0100
0000
0001
0010
0100
0000
0000
0000
,
0100
0000
0000
1000
0010
0000
0100
0000
,
0001
0000
0100
0010
1000
0000
0000
0000
,
0100
0000
0000
1000
0010
0000
0100
0000
,
0001
0000
0001
0100
0010
0000
1000
0000
,
0010
0000
0000
0010
0100
0000
0001
0000
,
0001
0000
1000
0010
0100
0000
0000
0000
,
0010
0000
0000
0100
0001
0000
0010
0000
,
0100
0000
1000
0010
0100
0000
0000
0000
,
0100
0000
0000
0010
1000
0000
0100
0000
,
0010
0000
0001
0100
0010
0000
0000
0000
,
0100
0000
0000
0010
1000
0000
1000
0000
,
0100
0000
0010
0100
1000
0000
0001
0000
,
1001
0000
0000
0000
,
0000
0000
0000
0000
,
0120
0030
0000
1000
0001
0000
0001
0000
,
0100
0000
0010
1000
0010
0000
0000
0000
,
0100
0000
0000
0010
1000
0000
1000
0000
,
0001
0000
0100
0010
1000
0000
0100
1000
,
0001
0000
0000
0010
0100
0000
1000
0000
,
0010
0000
0000
0100
0001
0000
1000
0000
,
1010
0000
0000
1000
0010
0000
0100
0000
,
0101
0000
0000
0001
0010
0000
0100
0000
,
0011
0000
0000
1000
0010
0000
0100
0000
,
0101
0000
0000
0001
0100
0000
0010
0000
,
0110
0000
0000
1000
0001
0000
0010
0000
,
1100
0000
0000
1000
0010
0000
0100
0000
,
0101
0000
0000
0010
0100
0000
0001
0000
,
0011
0000
0000
1000
0010
0000
0100
0000
,
1010
0000
0000
0000
,
0000
0000
1000
0001
1000
0001
0000
0000
,
1001
0000
0000
0110
0000
0000
0000
0000
,
0000
0000
0001
1000
0001
1000
0001
1000
,
0100
0000
0000
0100
0010
0000
0010
0000
,
0001
0000
1000
0100
1000
0000
0000
0000
,
0001
0000
0000
0100
0001
0000
0100
0000
,
0010
0000
1000
0010
0100
0000
0000
0000
,
0100
0000
0000
0001
1000
0000
0100
0000
,
0010
0000
0001
0010
0001
0000
0000
0000
,
1000
0000
0000
0100
0010
0000
0001
0000
,
0010
0000
0100
0010
0001
0000
0000
0000
,
0010
0100
1000
0000
0001
0100
0001
0000
,
1000
0000
1000
0010
1000
0000
0000
0000
,
0010
0100
0010
0000
1000
0000
0100
0000
,
0010
0000
0001
0100
0001
0000
0000
0000
,
0100
0010
0100
0000
0010
0000
0010
0000
,
1000
0000
1000
0100
1000
0000
0000
0000
,
0010
0001
0010
0000
0100
0000
1000
0000
,
0010
0000
0100
0010
1000
0000
0000
0000
,
1001
0000
0000
0000
,
0000
0000
0000
0000
0002
0003
0000
0000
,
0110
0000
0000
0001
1000
0000
1000
0000
,
0100
0010
0100
0000
,
1010
0000
0000
0001
0010
0000
0100
0000
,
1000
0010
0100
0000
,
0101
0000
0000
1000
0010
0000
1000
0000
,
0010
0000
0100
0000
0002
0000
0000
0003
,
1010
1100
0000
0000
,
0000
0000
0000
0010
0001
0000
0001
0000
,
0100
0000
0000
0010
1000
0000
0010
0000
,
0100
0000
0100
0001
0010
0000
0100
0000
,
0100
1000
0100
0000
1000
0000
1000
0000
,
0001
0000
0000
0100
0010
0000
1000
0000
,
0100
0010
0100
0010
,
0001
0000
0000
0000
0100
0010
0000
0000
,
1000
0000
0000
0001
1000
0000
0010
0000
,
1000
0000
0100
0010
,
0001
0000
0000
0010
0100
0000
1000
0000
,
0100
0000
0000
0100
0010
0000
0001
0000
,
0100
0000
0000
0010
1000
0000
0100
0000
,
1000
0000
0000
0010
0100
0000
0001
0000
,
0010
0000
0000
0100
0010
0000
0001
0000
,
0100
0100
0010
1000
,
1010
0000
0000
0000
,
0000
0000
1000
0001
1000
0001
0000
0000
,
1100
0000
0000
0011
0000
0000
0000
0000
,
0000
0000
0100
0010
0100
0010
1000
0001
,
1000
0000
0000
0010
0100
0000
0001
0000
,
0001
0000
1000
0001
0100
0000
0010
0000
,
1000
0000
0000
1000
0100
0000
0100
0000
,
0010
0000
0001
0100
0010
0000
0000
0000
,
0100
0000
0000
0010
1000
0000
1000
0000
,
0001
0000
0010
0100
0010
0000
0000
0000
,
1000
0000
0000
0010
0100
0000
0001
0000
,
0010
0000
0100
1000
0100
0000
0000
1000
,
1010
0000
0010
0100
0001
0000
0001
0000
,
0101
0100
0010
1000
,
0110
0000
0000
0100
0001
0000
0001
0000
,
0010
0000
0100
0010
0100
0000
0000
0000
,
1000
0000
0000
0001
0100
0000
0010
0000
,
1000
0000
0100
0010
0001
0000
1000
1000
,
0100
0000
0000
0100
0010
0000
0001
0000
,
0100
0000
0010
1000
0010
0000
0000
0000
,
0101
0000
0000
0010
0001
0000
1000
0000
,
0010
0000
0000
1000
0001
0000
0010
0000
,
0100
0000
0010
0001
0200
0000
0000
0000
,
0300
0000
0000
0000
;

//--------------- dance-single - Lye ----------------
#NOTES:
     dance-single:
     Lye:
     Challenge:
     13:
     0,0,0,0,0:
0000
0000
0000
0000
,
0000
0000
0000
0000
,
0000
0000
0000
0000
,
0000
0000
0000
0000
0001
0000
0001
0100
,
0010
0000
0010
1000
0100
0000
0000
0000
,
0000
0000
0000
0000
0010
0000
0010
0001
,
1000
0000
1000
0010
0100
0000
0000
0000
,
0000
0000
0000
0000
0001
0000
0001
0100
,
0010
0000
0010
1000
0100
0000
0000
0000
,
0000
0000
0000
0000
1000
0000
1000
0100
,
0010
0000
0010
0100
1000
0000
0100
0010
,
0001
0001
1000
0010
0100
0001
0010
0100
,
1100
0000
0001
0100
0010
0000
0000
0000
,
0010
0010
1000
0010
0100
0001
0010
0100
,
0011
0000
0001
0010
0100
0000
0000
0000
,
1000
0100
0010
0100
1000
0010
0100
0001
,
1001
0000
0100
0010
1000
0000
0000
0000
,
0010
1000
0001
1000
0010
0100
0001
0010
,
0011
0000
0001
0100
0010
0000
1000
0001
,
0010
0100
1000
0010
0100
0001
0100
0010
,
0101
0000
1000
0010
0100
0000
0000
0000
,
0100
0010
1000
0100
0010
0001
0010
0100
,
1100
0000
1000
0010
0100
0000
0000
0000
,
0100
0010
1000
0010
1000
0100
0010
0001
,
0101
0000
0001
0100
0010
0000
0000
0000
,
0001
0100
0010
1000
0001
0010
0100
1000
,
0011
0000
0010
0100
1000
0000
0001
0000
,
1001
0000
0000
0000
,
0000
0000
0000
0000
,
0100
0010
0100
0000
0000
0000
0000
0000
0000
0000
0000
0000
1000
0000
0000
0000
0001
0000
0000
0000
0100
0000
0000
0000
0001
0000
0000
0000
0010
0000
0000
0000
,
0001
0000
0010
0001
0010
0000
0000
0001
,
0100
0000
0000
0010
1000
0000
1000
0010
,
0100
0010
0100
0001
0010
0000
0100
1000
,
0001
0000
0010
0100
0010
0100
1000
0001
,
0010
0000
0100
1000
0010
0000
1000
0000
,
1010
0000
0000
1000
0010
0000
0100
0000
,
0101
0000
0000
0001
0010
0000
0100
0010
,
0011
0000
0000
1000
0010
0000
0100
0000
,
0101
0000
0000
0001
0100
0000
0010
0000
,
0110
0000
0000
1000
0001
0000
0010
0000
,
1100
0000
0000
1000
0010
0000
0100
0010
,
1010
0000
0000
0010
0100
0000
0001
0000
,
0011
0000
0000
1000
0010
0000
0100
0000
,
1010
0000
0000
0001
0000
0000
0001
0000
,
0000
0000
1000
0001
1000
0001
0000
0000
,
1001
0000
0000
0110
0000
0000
1000
0000
,
0000
0000
0001
1000
0001
0100
0001
0010
,
0100
1000
0001
0100
0010
1000
0010
0100
,
1010
0000
1000
0100
1000
0000
0000
0000
,
0001
0100
0010
0100
0001
0010
0100
1000
,
0011
0000
1000
0010
0100
0000
0000
0000
,
0100
0010
1000
0001
1000
0100
0010
0001
,
1100
0000
0001
0010
0001
0000
0000
0000
,
1000
0010
1000
0010
0100
0001
0010
0100
,
0110
0000
0100
0010
0001
0000
0000
0100
,
0010
0100
0001
1000
0001
0100
0001
0010
,
0011
0000
1000
0010
1000
0000
0100
0000
,
0010
0100
0010
0001
0100
0010
1000
0001
,
0101
0000
0001
0100
0001
0000
0000
0000
,
0001
0010
0100
1000
0001
0010
0100
1000
,
0011
0000
1000
0100
1000
0000
0000
0000
,
0010
0001
0010
0100
1000
0010
0100
0001
,
0101
0000
0100
0010
1000
0000
1000
0000
,
1001
0000
0000
0000
,
0000
0000
0000
0000
0002
0003
0000
0000
,
0110
0000
0000
0001
1000
0001
1000
0000
,
0100
0010
0100
0000
0001
0000
0000
0000
,
1010
0000
0100
0001
0010
0001
0100
0010
,
1000
0100
0010
0000
0100
0000
0000
0000
,
1100
0000
0010
1000
0010
0100
0001
1000
,
0010
1000
0100
0000
0020
0000
0000
0030
,
0011
0000
0101
0000
0010
1000
0010
1000
,
0010
0000
0200
0300
0001
0100
0001
0010
,
0001
0100
0010
1000
0001
0010
0100
0010
,
0100
0001
0010
0001
0010
0000
0100
0000
,
0100
1000
0100
0000
1000
0001
1000
0010
,
0100
0000
0010
0000
0000
0001
1000
0100
,
1000
0010
0100
0001
0010
0001
0100
0001
,
0010
0000
0000
0100
0010
0100
0000
0000
,
1000
0000
0100
0010
0001
0000
0010
0000
,
0100
0000
1000
0000
0010
0000
0100
0100
,
0001
0000
1000
0010
0100
0000
0001
0000
,
0100
0010
1000
0010
,
0100
0000
0001
0010
0100
0000
0010
0000
,
0100
0000
0010
0000
0001
0000
0001
1000
,
0010
0000
0010
0100
0010
0000
1000
0000
,
0100
0100
0010
0001
,
0101
0000
0000
1000
0000
0000
1000
0000
,
0000
0000
1000
0001
1000
0001
0000
0000
,
1100
0000
0000
0011
0000
0000
0100
0000
,
0000
0000
0010
0100
0010
0100
0001
1000
,
0010
0100
0010
1000
0001
0100
0010
1000
,
0101
0000
0010
1000
0001
0000
0010
0000
,
0001
0100
0010
1000
0100
0010
0100
1000
,
1100
0000
0001
0100
0010
0000
1000
0000
,
0100
0010
0001
0010
0100
0010
0001
0100
,
0101
0000
0010
0100
1000
0000
0010
0000
,
1000
0010
0100
0010
0100
0001
0010
0100
,
0110
0000
0100
1000
0001
0000
0010
1000
,
1000
0010
0100
0001
1000
0010
1000
0100
,
1100
0000
0100
1000
0010
1000
0010
0100
,
0010
1000
0010
0100
0001
0010
0001
1000
,
1100
0000
0100
0010
0100
0000
1000
0000
,
1000
0100
0010
0001
1000
0100
0010
0001
,
0101
0000
0100
0010
1000
0000
0001
0001
,
0100
0010
1000
0100
0010
0001
0100
0010
,
1010
0000
0010
1000
0010
0000
1000
0000
,
0101
0000
0000
0010
0001
0000
1000
0000
,
0010
0000
0000
1000
0001
0000
0010
0000
,
0100
0000
0010
0001
0200
0000
0001
0000
,
0300
0000
0000
0000
;
