#TITLE:Be Your USA;
#SUBTITLE:;
#ARTIST:Easyfun, Iiris;
#TITLETRANSLIT:;
#SUBTITLETRANSLIT:;
#ARTISTTRANSLIT:;
#GENRE:;
#CREDIT:;
#MUSIC:be-your-usa.mp3;
#BANNER:be-your-usa-bn.png;
#BACKGROUND:be-your-usa-bg.png;
#CDTITLE:;
#SAMPLESTART:64.165;
#SAMPLELENGTH:20.042;
#SELECTABLE:YES;
#OFFSET:-0.030;
#BPMS:0.000=179.621
,288.000=89.811
,320.000=179.621
;
#STOPS:;
#BGCHANGES:-0.030=be-your-usa-mv.avi=1.000=1=0=1===CrossFade==,
99999.000=-nosongbg-=1.000=0=0=0=StretchNoLoop====
;
#FGCHANGES:;

//--------------- dance-single - Lye ----------------
#NOTES:
     dance-single:
     Lye:
     Easy:
     5:
     0,0,0,0,0:
0000
0000
0000
0000
,
0000
0000
0000
0000
,
0000
0000
0000
0000
,
0000
0000
0000
0000
,
0000
0000
0000
0000
,
0000
0000
0000
0000
,
0000
0000
0000
0000
,
0000
0000
0000
0000
,
0000
0000
1000
0000
,
0000
0000
0001
0000
,
0000
0000
0100
0000
,
0000
0000
0010
0000
,
0000
0000
1000
0000
,
0000
0000
0001
0000
,
1000
0000
0000
0010
0000
0000
1000
0000
,
0000
0001
0001
0000
,
2001
0000
0002
3003
,
0000
0000
0010
0000
,
1000
0000
0001
0000
,
0010
0000
0001
0000
,
0100
0000
0010
0000
,
1000
0000
1000
0000
,
0001
0000
0000
0010
0000
0000
0001
0000
,
0000
1000
1000
0000
,
2001
0000
0010
3000
,
0110
0000
0000
0000
,
0011
0000
0000
0000
,
1100
0000
0000
0000
,
1001
0000
0000
0000
,
0110
0000
0000
0000
,
1010
0000
0000
0000
,
1100
0000
0001
0000
,
0210
0000
0010
0300
,
1001
0000
0000
0000
,
1100
0000
0000
0000
,
0011
0000
0000
0000
,
1001
0000
0000
0000
,
1010
0000
0000
0000
,
1001
0000
0000
0000
,
0010
0000
0001
0000
,
0002
0000
0000
0000
,
2003
0000
0000
0000
,
3020
0000
0000
0000
,
0230
0000
0000
0000
,
0302
0000
0000
0000
,
0023
0000
0000
0000
,
0230
0000
0000
0000
,
0000
0000
0000
0300
,
0110
0000
0001
0000
,
1000
0000
0100
0000
,
0010
0000
0100
0000
,
0001
0000
0010
0000
,
0100
0000
1000
0000
,
0010
0000
1000
0000
,
0001
0000
0000
1000
0000
0000
0001
0000
,
0000
0100
0100
0000
,
0102
0000
0000
0000
,
1003
1000
0100
0100
,
0010
0000
0001
0000
,
1000
1000
0001
0001
,
0100
0000
0010
0000
,
0100
0100
0010
0010
,
1000
0000
0000
0100
0000
0000
0010
0000
,
0000
0001
0001
0000
,
1020
0000
0000
0030
,
0100
0000
0001
0000
,
0001
0000
0010
0010
,
0100
0100
1000
1000
,
0002
0000
0010
0013
,
0100
0100
0010
0010
,
1000
0000
0000
0100
0000
0000
0010
0000
,
0000
0000
0000
0000
,
0002
0000
0000
0003
2000
0000
0000
3000
,
0200
0000
0000
0300
2000
0000
0000
3000
,
0020
0000
0000
0030
2000
0000
0000
3000
,
0002
0000
0000
0003
0200
0000
0000
0300
,
0020
0000
0000
0030
0200
0000
0000
0300
,
2000
0000
0000
3000
0002
0000
0000
0003
,
2000
0000
0000
3000
0200
0000
0000
0300
,
0010
0000
0000
0010
0000
0000
0010
0000
0000
0000
0000
0000
0000
0000
0000
0000
,
2001
0000
0000
0000
0200
0000
0000
3300
,
0000
0000
0001
0000
,
0000
0000
1000
0000
,
0000
0000
0010
0000
,
0100
0000
0100
0000
,
0000
0000
0001
0000
,
1000
0000
1000
0000
,
1000
1000
0001
0010
,
0200
0000
0020
0330
,
1000
0000
1000
0000
,
0001
0000
0001
0010
,
0001
0000
0100
0000
,
0002
0000
2000
3003
,
0100
0000
1000
0000
,
0010
0000
0100
0001
,
1000
0000
0000
0001
0000
0000
1001
0000
;

//--------------- dance-single - Lye ----------------
#NOTES:
     dance-single:
     Lye:
     Medium:
     10:
     0,0,0,0,0:
0000
0000
0000
0000
,
0000
0000
0000
0000
,
0000
0000
0000
0000
,
0000
0000
0000
0000
,
0000
0000
0000
0000
,
0000
0000
0000
0000
,
0000
0000
0000
0000
,
0000
0000
0000
0000
,
1001
0000
1000
1000
,
0100
0001
0010
1000
,
0100
0000
0001
1000
,
0010
0100
0001
0010
,
0001
0000
1000
0100
,
0001
0010
0100
0010
,
0110
0000
0000
0101
0000
0000
1100
0000
,
0000
0010
0100
0010
,
0002
2000
0203
3020
,
0300
0031
0100
0001
,
1000
0000
0001
0001
,
0100
1000
0010
1000
,
1000
0000
0100
0010
,
0001
0100
0010
1000
,
1001
0000
0000
0011
0000
0000
1010
0000
,
0000
0001
0010
0001
,
2000
0000
3002
0020
,
0003
0130
0100
1000
,
1010
0000
0000
1001
0000
0000
1100
0000
,
0000
0010
0001
1000
,
0011
0000
0000
1001
0000
0000
0101
0000
,
0000
0010
0100
0010
,
1001
0000
0000
0110
0000
0000
1001
0000
,
0000
0001
0010
0001
,
2000
0000
0000
0010
0000
0000
3001
0000
,
0000
0010
0100
1000
,
0101
0000
0000
0011
0000
0000
0101
0000
,
0000
0010
0100
0001
,
1010
0000
0000
1100
0000
0000
1010
0000
,
0000
0010
0001
0100
,
1100
0000
0000
0101
0000
0000
1100
0000
,
0000
0001
1000
0001
,
0001
0000
0000
1000
0000
0000
0010
0000
,
0010
0000
0000
0100
0000
0000
1000
0000
,
1000
0000
0000
0001
0000
0000
0100
0000
,
0100
0000
0000
1000
0000
0000
0001
0000
,
0001
0000
0000
0010
0000
0000
0100
0000
,
0100
0000
0000
0001
0000
0000
1000
0000
,
2000
3000
0002
0003
,
0020
0000
0000
0030
,
1010
0000
0010
0001
,
0100
0010
1000
0100
,
0001
0000
0100
0010
,
0001
1000
0010
0100
,
0001
0000
0010
0100
,
0001
0010
0100
1000
,
1001
0000
0000
0110
0000
0000
1001
0000
,
0000
0001
0010
0001
,
0020
0230
2300
3002
,
0003
0100
0001
0010
,
0001
0000
0100
0010
,
1000
0001
0100
0010
,
2000
3020
0230
0302
,
0003
1000
0010
1000
,
0100
0000
0000
1000
0000
0000
0001
0000
,
0000
0001
0010
0001
,
0002
0023
0230
2300
,
3000
0001
0010
1000
,
0001
0000
0010
0001
,
1000
0010
0100
0001
,
0200
2300
3002
0023
,
0030
1000
0100
0001
,
1000
0000
0000
0010
0000
0000
0001
0000
,
0000
0001
1000
0100
,
0000
0001
0200
0010
,
2300
0100
3002
1000
,
0203
0010
0302
1000
,
0023
0000
0000
1000
0000
0000
1030
0000
0000
0000
0000
0000
0000
0000
0000
0000
,
2000
0001
3020
0001
,
0230
0010
0302
1000
,
0023
1000
2030
0001
,
3002
0000
0000
0100
0000
0000
0103
0000
0000
0000
0001
0000
0100
0000
1000
0000
,
0101
0000
0000
0110
0000
0000
1010
0000
,
0000
0001
0100
0001
,
1100
0000
0000
1001
0000
0000
0011
0000
,
0000
0100
1000
0100
,
0110
0000
0000
1001
0000
0000
0110
0000
,
0000
0001
0010
0001
,
1010
0000
0000
1100
0000
0000
1010
0000
,
0000
0001
0010
0001
,
0100
0010
1000
0001
,
1000
1000
0001
0001
,
0100
1100
0110
0011
,
1001
0000
0001
0010
,
0001
1000
0100
0010
,
0100
0100
0010
0010
,
1100
0011
0110
1001
,
0101
0000
0000
0110
0000
0000
1001
0000
;

//--------------- dance-single - Lye ----------------
#NOTES:
     dance-single:
     Lye:
     Hard:
     12:
     0,0,0,0,0:
0000
0000
0000
0000
,
0000
0000
0000
0000
,
0000
0000
0000
0000
,
0000
0000
0000
0000
,
0000
0000
0000
0000
,
0000
0000
0000
0000
,
0000
0000
0000
0000
,
0000
0000
0000
0000
,
1001
0000
0000
0100
1000
0000
0010
0000
,
0000
0010
0001
0000
0010
0000
1000
0000
,
0100
0000
0000
0001
1000
0000
0100
0000
,
0000
1000
0100
0000
0010
0001
0000
0100
,
0001
0000
0000
0010
1000
0000
0100
0000
,
0000
0001
0000
0000
1000
0000
0001
0000
,
1000
0000
1000
0100
0000
0010
0001
0000
,
1001
0000
0010
0001
0000
1000
0001
0000
,
0101
0000
0010
1000
0001
0000
0110
0000
,
0010
0001
1000
0000
0110
0000
0011
0000
,
1100
0000
0001
0010
0000
0010
0001
0000
,
0100
1000
0100
0000
0011
0000
1001
0000
,
1100
0000
0001
0000
0100
1000
0010
0100
,
0001
0101
1010
0100
,
1000
0000
0100
1000
0000
0001
0010
0000
,
1000
0000
0001
0010
0000
0100
0001
0000
,
1010
0000
0000
0110
0000
0000
0101
0000
,
0000
1000
0100
0000
0100
0000
1000
0000
,
1010
0000
0000
1001
0000
0000
1100
0000
,
0000
0001
0010
0000
0001
0000
1000
0000
,
0011
0000
0000
1001
0000
0000
0101
0000
,
0000
0100
0010
0000
1000
0000
0001
0000
,
1001
0000
0000
0110
0000
0000
1001
0000
,
0000
0010
0001
0010
0001
0010
0001
0000
,
1010
0000
0000
1100
0000
0000
0011
0000
,
0000
0100
0010
0000
0001
0000
0010
0000
,
0101
0000
0000
0011
0000
0000
1100
0000
,
0000
0001
0010
0000
0010
0000
0001
0000
,
1010
0000
0000
1100
0000
0000
1010
0000
,
0000
0001
0010
0000
0001
0000
0100
0000
,
1100
0000
0001
0100
0001
0010
1000
0000
,
0001
0010
0000
1000
0100
1000
0010
0001
,
0101
0000
0000
1000
0000
0000
0010
0000
,
0010
0000
0000
0001
0000
0000
0100
0000
,
0100
0000
0000
0001
0000
0000
1000
0000
,
1000
0000
0000
0010
0000
0000
0001
0000
,
0001
0000
0000
1000
0000
0000
0100
0000
,
0100
0000
0000
0001
0000
0000
1000
0000
,
1000
0000
0100
0000
0010
0000
0002
0000
0100
0003
1000
0000
,
0010
0001
0100
1000
0040
0000
0030
0000
,
1010
0000
0000
1000
0100
0000
0011
0000
,
0000
0100
0010
0000
1100
0000
0110
0000
,
0011
0000
0000
1000
0100
0000
1100
0000
,
0000
0001
1000
0000
0011
0000
0110
0000
,
1001
0000
0000
0100
1000
0000
0110
0000
,
0000
0001
0010
0000
0101
0000
1000
0000
,
1001
0000
0010
0001
0000
0010
0001
0000
,
0100
0010
1000
0000
1100
0000
0011
0000
,
0101
0000
0000
0010
1000
0000
0101
0000
,
0000
1000
0100
0010
0001
0000
0010
0000
,
1001
0000
0000
0001
0100
0000
0011
0000
,
0000
0001
0100
0010
1000
0000
0101
0000
,
1010
0000
0000
0100
0010
1000
0100
1000
,
0001
1010
1001
0101
,
1100
0000
0000
0110
0000
0000
1010
0000
,
0001
0010
0001
0000
0010
1000
0010
0000
,
0101
0000
0000
1010
0000
0000
0101
0000
,
0000
0010
0001
0000
0110
0000
1010
0000
,
0101
0000
0000
0001
0010
1000
0001
0000
,
1010
0101
0011
1100
,
0010
0000
1000
0010
0000
0010
1000
0000
,
0001
0100
1000
0000
0101
0000
0110
0000
,
1010
0000
0000
0110
0000
0000
1001
0000
,
0000
1000
0001
0010
1000
0100
0010
0001
,
2000
3001
0200
0010
,
2300
0100
3002
1000
,
0203
0010
0302
1000
,
0023
0000
0000
1000
0000
0000
1030
0000
0000
0100
0001
0010
1000
0100
0001
0010
,
2000
0001
3020
0001
,
0230
0010
0302
1000
,
0023
0001
2030
0001
,
3002
0000
0000
0100
0000
0000
0103
0000
0000
0000
1001
0000
0110
0000
1001
0000
,
0101
0000
0000
0110
0000
0000
1010
0000
,
0000
0010
0001
0000
0100
0000
0001
0000
,
1100
0000
0000
1001
0000
0000
0011
0000
,
0000
0100
0100
0000
0001
0000
0010
0000
,
0110
0000
0000
1001
0000
0000
0110
0000
,
0000
1000
0010
0000
0001
0000
0100
0000
,
1010
0000
1000
0100
0000
0100
1000
0000
,
0001
0010
0001
0000
1010
0000
0011
0000
,
1100
0000
0000
0011
0000
0000
1001
0000
,
1000
0100
1000
0000
0001
0100
0001
0000
,
0100
1100
0110
0011
,
1000
0001
0100
0000
0001
0000
0010
0000
,
0101
0000
1000
0010
0001
0000
0010
0000
,
0100
0001
0100
0000
0010
1000
0010
0000
,
1100
0011
0110
1001
,
0101
0000
0000
0110
0000
0000
1001
0000
;

//--------------- dance-single - Lye ----------------
#NOTES:
     dance-single:
     Lye:
     Challenge:
     13:
     0,0,0,0,0:
0000
0000
0000
0000
,
0000
0000
0000
0000
,
0000
0000
0000
0000
,
0000
0000
0000
0000
,
0000
0000
0000
0000
,
0000
0000
0000
0000
,
0000
0000
0000
0000
,
0000
0000
0000
0000
,
1001
0000
0000
0100
1000
0000
0010
0000
,
0000
0010
0001
0000
0010
0000
1000
0000
,
0100
0000
0000
0001
1000
0000
0100
0000
,
0000
1000
0100
0000
0010
0001
0000
0100
,
0001
0000
0000
0010
1000
0000
0100
0000
,
0000
0001
0000
0000
1000
0000
0001
0000
,
1000
0000
1000
0100
0000
0010
0001
0000
,
1001
0000
0010
0001
0000
1000
0001
0000
,
0101
0000
0010
1000
0001
0000
0110
0000
,
0010
0001
1000
0000
0110
0000
0011
0000
,
1100
0000
0001
0010
0000
0010
0001
0000
,
0100
1000
0100
0000
0011
0000
1001
0000
,
1100
0000
0001
0000
0100
1000
0010
0100
,
0001
0101
1010
0100
,
1000
0000
0100
1000
0000
0001
0010
0000
,
1000
0000
0001
0010
1000
0100
0001
0000
,
1010
0000
0000
0100
0110
0000
0101
0000
,
0000
1000
0100
0000
0100
0000
1000
0000
,
1010
0000
0000
1000
0011
0000
1100
0000
,
0000
0001
0010
0100
0001
0000
1000
0000
,
0011
0000
0000
1000
1001
0000
0101
0000
,
0000
0100
0010
0000
1100
0000
0001
0000
,
1001
0000
0000
0100
0011
0000
1001
0000
,
0000
0010
0001
0010
0001
0010
0001
0000
,
1010
0000
0000
0100
0110
0000
0011
0000
,
0000
0100
0010
0000
0001
0000
0010
0000
,
0101
0000
0000
0001
1010
0000
1100
0000
,
0000
0001
0010
0000
0010
0000
0001
0000
,
1010
0000
0000
0100
0101
0000
1010
0000
,
0000
0001
0010
0000
0001
0000
0100
0000
,
1100
0000
0001
0100
0001
0010
1000
0000
,
0001
0010
0001
1000
0100
1000
0010
0001
,
0101
0000
0000
1000
0000
0000
0010
0100
,
0010
0000
0000
0001
0000
0000
0100
0010
,
0100
0000
0000
0001
0000
0000
1000
0001
,
1000
0000
0000
0010
0000
0000
0001
1000
,
0001
0000
0000
1000
0000
0000
0100
0010
,
0100
0000
0000
0001
0000
0000
1000
0000
,
1000
0000
0100
0000
0010
0000
0002
0000
0100
0003
1000
0000
,
0010
0000
0001
0000
0100
0000
1000
0000
0010
0001
0010
0001
0010
0001
0100
0000
,
1010
0000
0000
1000
0100
0000
0011
0000
,
0000
0100
0010
0000
1100
0000
0110
0000
,
0011
0000
0000
1000
0100
0000
1100
0000
,
0000
0001
1000
0000
0011
0000
0110
0000
,
1001
0000
0000
0100
1000
0000
0110
0000
,
0000
0001
0010
0000
0101
0000
1000
0000
,
1001
0000
0010
0001
0000
0010
0001
0000
,
0100
0010
1000
0000
1100
0000
0011
0000
,
0101
0000
0000
0010
1000
0000
0101
0000
,
0000
1000
0100
0010
0001
0000
0010
0000
,
1001
0000
0000
0001
0100
0000
0011
0000
,
0000
0001
0100
0010
1000
0000
0101
0000
,
1010
0000
0000
0100
0010
1000
0100
1000
,
0001
1010
1001
0101
,
1100
0000
0000
0010
0011
0000
1010
0000
,
0001
0010
0001
0000
0010
1000
0010
0000
,
0101
0000
0000
0100
1100
0000
0101
0000
,
0000
0010
0001
0000
0110
0000
1010
0000
,
0101
0000
0000
0001
0010
1000
0001
0000
,
1010
0101
0011
1100
,
0010
0000
1000
0010
0100
0010
1000
0000
,
0001
0100
1000
0000
0101
0000
0110
0000
,
1010
0000
1000
0100
0000
0001
1000
0000
,
0000
1000
0001
0010
1000
0100
0010
0001
,
2000
0000
0000
0000
3001
0010
0001
1000
0200
0000
0001
0000
0310
0000
1000
0000
,
2000
0000
0000
0000
3100
0010
0100
0010
0002
0000
0100
0000
1003
0000
0010
0000
,
0200
0000
0000
0000
0310
1000
0100
1000
0002
0000
0010
0000
1003
0000
0100
0000
,
0020
0000
0000
1000
0000
0000
1030
0000
0000
0100
0001
0010
1000
0100
0001
0010
,
2000
0000
0000
0000
3001
0100
0010
0100
0020
0000
1000
0000
0031
0000
0010
0000
,
0200
0000
0000
0000
1300
0010
1000
0100
2000
0000
0010
0000
3001
0000
0100
0000
,
0020
0000
0000
0000
0130
0001
0100
0001
2000
0000
0010
0000
3001
0000
0100
0000
,
0002
0000
0000
0100
0000
0000
0103
0000
0000
0000
1001
0000
1100
0000
0011
0000
,
0101
0000
0000
0100
1100
0000
1010
0000
,
0000
0010
0001
0000
0100
0000
0001
0000
,
1100
0000
0000
0010
1001
0000
0011
0000
,
0000
1000
0100
0000
0001
0000
0010
0000
,
0110
0000
0000
1000
0101
0000
0110
0000
,
0000
1000
0010
0000
0001
0000
0100
0000
,
1010
0000
1000
0100
0000
0100
1000
0000
,
0001
0010
0001
0000
1010
0000
0011
0000
,
1100
0000
0000
0100
1010
0000
1001
0000
,
1000
0100
1000
0000
0001
0100
0001
0000
,
0100
1100
0110
0011
,
1000
0001
0100
0000
0001
0000
0010
0000
,
0101
0000
1000
0010
0001
0000
0010
0000
,
0100
0001
0100
0000
0010
1000
0010
0000
,
1100
0011
0110
1001
,
0101
0000
0000
0110
0000
0000
1001
0000
;
