#TITLE:Baby I'm Yours;
#SUBTITLE:;
#ARTIST:Breakbot, Irfane;
#TITLETRANSLIT:;
#SUBTITLETRANSLIT:;
#ARTISTTRANSLIT:;
#GENRE:;
#CREDIT:;
#MUSIC:baby-im-yours.ogg;
#BANNER:baby-im-yours-bn.png;
#BACKGROUND:baby-im-yours-bg.png;
#CDTITLE:;
#SAMPLESTART:32.841;
#SAMPLELENGTH:24.128;
#SELECTABLE:YES;
#OFFSET:0.538;
#BPMS:0.000=119.984;
#STOPS:;
#BGCHANGES:1.538=baby-im-yours-mv.avi=1.000=1=0=0=StretchNoLoop==CrossFade==,
99999.000=-nosongbg-=1.000=0=0=0=StretchNoLoop====
;
#FGCHANGES:;

//--------------- dance-single - Lye ----------------
#NOTES:
     dance-single:
     Lye:
     Easy:
     4:
     0,0,0,0,0:
0000
0000
0000
0000
,
0002
0003
0000
1000
,
0010
0000
0000
0000
,
0200
0301
0001
0000
,
2000
3010
0010
0000
,
0200
0300
0000
0001
,
0010
0000
0100
0000
,
0100
0010
0001
0000
,
1000
0010
0100
0000
,
1001
0100
1000
0000
,
0010
0000
0100
0000
,
1001
0100
0001
0000
,
1001
0100
1000
0000
,
0010
0000
0100
0000
,
0001
0010
0100
0000
,
1000
0000
0010
0000
,
1000
0000
0001
0000
,
0110
0000
1000
0000
,
0001
0010
0100
1000
,
0100
0000
1001
0000
,
1000
0100
0010
0001
,
0100
0000
0110
0000
,
0001
0100
0010
1000
,
0100
0000
0010
0000
,
0001
0000
1000
0010
,
1000
0000
0100
0000
,
0010
0000
0001
0000
,
0100
0100
0001
0000
,
0010
0010
0100
0000
,
1000
0000
0010
0000
,
0100
0000
0001
0000
,
1000
0010
0100
0000
,
0001
0010
0100
0000
,
1000
0000
0100
0000
,
1000
0000
0010
0000
,
0100
0100
0001
0000
,
1000
0010
0010
0000
,
0100
0000
0001
0000
,
1000
0000
0010
0000
,
1000
0100
1000
0000
,
0001
0100
0001
0000
,
1000
0000
0001
0000
,
1000
0010
0100
0001
,
0100
0000
0110
0000
,
0001
0100
0010
1000
,
0100
0000
1001
0000
,
0010
1000
0001
0100
,
0010
0000
1000
0000
,
0100
0000
0010
0010
,
0001
0000
1000
0000
,
0100
0010
0001
1000
,
0100
0000
1100
0000
,
0100
1000
0001
0010
,
0100
0000
0011
0000
,
0100
0010
1000
0001
,
0100
0000
0010
0000
,
1000
0000
0000
0000
;

//--------------- dance-single - Lye ----------------
#NOTES:
     dance-single:
     Lye:
     Medium:
     6:
     0,0,0,0,0:
0000
0000
0000
0000
,
0002
0003
0000
1000
,
0010
0000
0000
0000
,
0100
0010
1000
0000
1000
0000
0000
0000
,
0100
0010
0001
0000
0001
0000
0000
0000
,
0200
0000
0300
0000
0000
0000
1000
0001
,
0001
0000
0010
0000
,
0100
0010
0001
0000
,
1000
0000
0010
0000
0100
0000
0001
0010
,
1100
0000
0100
0010
0001
0000
0100
0000
,
0010
0000
1000
0000
,
1010
0100
0010
0000
,
0011
0100
0010
0000
,
0100
0010
1000
0000
0100
0000
0000
0000
,
0010
0100
0010
0000
0100
0000
0000
0000
,
1010
0000
0110
0000
,
1001
0000
0101
1000
,
0010
0000
0011
0000
,
0001
0000
0010
0000
0100
0000
1000
0010
,
0100
0000
0101
0000
,
1000
0000
0100
0000
0010
0000
0001
0010
,
0100
0000
1010
0000
,
0001
0000
0100
0000
0010
0000
1000
0001
,
0100
0000
0010
0000
,
1000
0000
0000
0000
1000
0000
0010
0100
,
0001
0010
0100
0010
,
0001
0000
0100
0000
,
0100
0010
1000
0000
0001
0000
0000
0000
,
0010
0100
1000
0000
0010
0000
0000
0000
,
0100
0000
0001
0000
,
0100
0000
0010
0000
,
1000
0000
0010
0100
0001
0000
0000
0000
,
0001
0000
0010
0100
1000
0000
0100
0000
,
1000
0000
1000
0001
0100
0000
0010
0000
,
0010
0000
1000
0000
,
0100
0000
0100
0010
0001
0000
0000
0000
,
1000
0000
0010
0100
0010
0000
0000
0000
,
0100
0000
0100
0010
1000
0000
0100
0000
,
0010
0001
0100
0000
0010
0000
0000
0000
,
1000
0000
0100
0010
0100
0000
0000
0000
,
0001
0000
0010
0100
0010
0000
1000
0001
,
1000
1000
0001
0000
,
1000
0000
0010
0000
0100
0000
0001
1000
,
0100
0000
0000
0000
0110
0000
0001
1000
,
0001
0000
0100
0000
0010
0000
1000
0001
,
0100
0000
0000
0000
0011
0000
0010
0100
,
0010
0000
0001
0000
0100
0000
0010
1000
,
0100
0000
0000
0000
1000
0001
0100
0000
,
0010
0000
0000
0000
0100
0000
0010
1000
,
0100
0000
1010
0000
,
0100
0000
0010
0000
1000
0000
0001
0010
,
0100
0000
1100
0000
,
0100
0000
1000
0000
0001
0000
0010
0100
,
0010
0000
0000
0000
0101
0000
0100
0010
,
0100
0010
1000
0001
,
0100
0000
0010
0000
,
1000
0000
0000
0000
;

//--------------- dance-single - Lye ----------------
#NOTES:
     dance-single:
     Lye:
     Hard:
     11:
     0,0,0,0,0:
0000
0000
0000
0000
,
0002
0023
0000
0000
0000
0030
0000
0000
0000
0000
0000
0000
0200
0300
0000
0002
,
0003
0000
0000
0000
0000
0000
2000
3000
,
0200
0300
0000
0020
0030
0000
0002
0000
0000
0003
0000
0000
0000
0000
0000
0000
,
0200
0300
0000
0002
0003
0000
2000
0000
0000
0000
0000
0000
0000
3000
0000
0000
,
0200
0000
0000
0000
0300
0000
0000
0000
0000
0000
0000
0000
0020
0030
0002
2003
,
0000
0000
0000
0000
3000
0000
0020
0030
,
0200
0300
0000
0020
0030
0000
2000
0000
0000
0000
0000
0000
3000
0000
0000
0000
,
0200
0300
0000
0020
0030
0000
0002
0003
0100
0010
0000
0010
0100
0000
0001
0000
,
1010
0000
0100
0000
0010
0000
0001
0000
1000
0000
0000
0000
0100
0000
0000
0010
,
0000
0001
0000
0000
0010
0000
0101
0000
,
0010
1000
0100
0010
0001
0000
0110
0000
,
0001
0100
0010
1000
0100
0000
0011
0000
,
0001
0000
0010
0000
0100
0000
0000
0010
0000
0000
0100
0000
0000
0000
1000
0000
,
1000
0000
0100
0000
0010
0000
0000
0100
0000
0000
0000
0000
0011
0000
0000
0000
,
0010
0000
0000
0100
0000
0000
1000
0000
0010
0000
0000
0000
0101
0000
0000
0000
,
0100
0000
0000
0001
0000
0000
0010
0000
0110
0000
0000
0100
1000
0000
0000
0000
,
0010
0000
0000
0100
0000
0000
0001
0000
0010
0000
0000
0000
0010
0000
0100
0000
,
2000
3020
0230
0302
,
1003
0000
0000
0010
0000
0000
1000
0000
0001
0000
0000
0000
0010
0000
0100
0000
,
2000
3200
0320
0230
,
1300
0000
0000
0010
0000
0000
0100
0000
0001
0000
0000
0000
0100
0000
0010
0000
,
0200
0302
0023
0230
,
1300
0010
1000
0000
0001
0010
0001
0200
,
0000
0000
0000
0000
0000
0300
0000
0000
0010
0000
0000
0100
0000
0000
0001
0000
,
1000
0000
0000
0000
0010
0000
0100
0000
0001
0000
0000
0000
0010
0000
0000
0100
,
0000
1000
0000
0000
0010
0000
1001
0000
,
0100
0010
0001
0010
0100
0000
1010
0000
,
0010
0100
0001
0100
0010
0000
0101
0000
,
0100
0000
0010
0000
1000
0000
0010
0000
0100
0000
0000
0000
0001
0000
0000
0100
,
0000
0000
0000
0000
0010
0000
0000
1000
0000
0000
0100
0000
0010
0000
0000
0000
,
0010
0000
0000
0100
0000
0000
0010
0000
0001
0000
0000
0000
0110
0000
0000
0000
,
0100
0000
0000
1000
0000
0000
0010
0000
1000
0000
0000
0001
0100
0000
0000
0000
,
1000
0000
0001
0000
0010
0000
0100
0000
1000
0000
0000
0000
0010
0000
0000
0100
,
0000
0010
0000
0000
1010
0000
0010
0000
,
0100
0001
0100
0010
1000
0000
0101
0000
,
0100
0010
1000
0001
0010
0000
1100
0000
,
0100
0000
0010
0000
0001
0000
0010
0000
0100
0000
0000
1000
0000
0000
0010
0000
,
0100
0000
0100
0010
1000
0000
0011
0000
,
0001
0000
0000
1000
0000
0000
0010
0000
0000
0000
0000
0000
0000
0000
0000
0000
,
0100
0000
0000
0001
0000
0000
1000
0000
0000
0000
0000
0000
0001
0000
0000
0000
,
1010
0000
0000
0100
0000
0000
0010
0000
0100
0000
0000
0000
0001
0000
0000
0000
,
0200
0320
2030
3200
,
0310
0000
0000
0001
0000
0000
0100
0000
0101
0000
0000
0000
1000
0000
1000
0000
,
0002
0203
0320
2030
,
3100
0000
0000
0010
0000
0000
0001
0000
1100
0000
0000
0000
0100
0000
0010
0000
,
0002
0203
0320
2030
,
3100
0100
0010
0001
0000
0001
0100
0020
,
0030
0000
1000
0000
0001
0000
0000
0000
0100
0000
0000
0001
0000
0000
0100
0000
,
0010
0000
0000
1000
0000
0000
0100
0000
0011
0000
0000
0000
0010
0000
0100
0000
,
0020
0230
2300
3002
,
0013
0000
0000
0100
0000
0000
1000
0000
1010
0000
0000
0000
0100
0000
0010
0000
,
2000
3002
0203
0320
,
1030
0000
0000
0100
0000
0000
1000
0000
0011
0000
0000
0000
0100
0000
0010
0000
,
2000
3020
2030
3002
,
0013
0100
0100
1000
0000
0010
0010
0200
,
0000
0000
0000
0300
0000
0000
0000
0000
;

//--------------- dance-single - Lye ----------------
#NOTES:
     dance-single:
     Lye:
     Challenge:
     13:
     0,0,0,0,0:
0000
0000
0000
0000
,
0001
0100
0020
0000
0000
0000
0000
0000
0000
0000
0030
0000
0000
0000
0000
0000
0000
0000
0000
0000
0000
0000
0000
0000
0200
0000
0300
0000
0000
0000
0002
0000
,
0003
0000
0000
0000
0000
0000
0000
0000
0000
0000
0000
0000
1000
0100
0010
0000
,
0200
0000
0300
0000
0000
0000
2000
0000
0000
3000
0000
0000
0020
0000
0030
0000
0000
0000
0000
0000
0000
0000
0000
0000
0000
0000
0000
0000
0000
0000
0010
0000
,
0200
0300
0000
0002
0003
0000
2000
0000
0000
0000
0000
0000
0000
3000
0000
0000
,
0200
0000
0000
0000
0300
0000
0000
0000
0000
0000
0000
0000
0020
0032
0203
0302
,
0000
0000
0000
0000
0000
0000
0000
0000
0003
0000
0000
0000
0001
0010
0100
0000
,
0200
0300
0000
0020
0030
0000
0002
0000
0000
0000
0000
0000
0003
0000
0000
0000
,
0200
0300
0000
0020
0030
0000
2000
3000
0100
0010
0000
0010
0100
0000
1000
0000
,
1100
0000
0100
0000
0010
0000
0001
0000
1000
0000
0000
0000
0100
0000
0100
0010
,
0000
0000
0001
0000
1000
0000
0001
0010
0100
1000
0000
0000
0101
0000
0000
0000
,
0010
0000
0001
1000
0000
1000
0001
0000
0100
0000
0000
0000
0110
0000
1000
0010
,
1000
0100
0010
0001
0100
0000
0011
0000
,
0001
0000
0010
0000
0100
0000
1000
0010
0000
0000
0100
0000
0000
0000
0010
0000
,
1000
0000
0100
0000
0010
0000
0001
1000
0000
0000
0100
0000
1010
0010
0100
0000
,
0001
0000
0000
0010
0000
0000
0100
0000
1100
0000
0000
0000
1010
0000
0000
0000
,
0100
0000
0000
0001
0000
0000
0010
0000
0110
0000
0000
1000
0010
0000
0000
0000
,
0010
0000
0000
0100
0000
0000
0001
0000
0011
0000
0001
0010
0100
0000
1000
0000
,
2000
0000
0000
0000
3020
0000
0000
0000
0230
0000
0000
0000
0302
0000
0000
0010
,
0003
0000
0000
0001
0000
0000
1000
0000
0101
0000
0001
0100
0000
0000
0001
0000
,
1002
0000
0000
0000
0203
0000
0000
0000
0320
0000
0000
0000
2030
0000
0000
0001
,
3000
0000
0000
0010
0000
0000
0001
0000
1100
0000
0100
1000
0010
0000
0100
0000
,
0001
0000
1000
0100
0010
0000
0001
0000
0010
0000
0100
0010
0100
0000
0010
0000
,
0001
0100
0100
0010
0000
0010
0010
2000
,
0000
0000
0000
0000
0000
3000
0000
0000
0000
0000
0000
0000
0010
0000
0100
0000
,
0001
0000
0000
0000
0010
0000
0100
0000
0100
0000
1000
0000
0010
0000
1000
0001
,
0000
0000
0100
0000
0000
0000
0010
1000
0010
0100
0000
0000
1001
0000
0000
0000
,
0100
0000
0010
0001
0000
0001
0010
0000
0001
0000
0000
0000
1010
0000
1000
0001
,
0010
0000
0100
0000
1000
0000
0010
0100
0000
0000
0001
0000
0101
0000
0000
0000
,
0100
0010
0100
0010
0000
0000
1000
0100
1000
0000
0000
0000
1000
0000
0001
0100
,
0000
0001
0000
0000
0010
0000
0001
0010
0001
0100
0000
0000
0100
0000
0000
0000
,
0010
0000
0000
1000
0000
0000
0100
0000
0010
0000
0000
0000
0011
0000
0001
0010
,
0001
0000
0000
0010
0000
0000
0100
0000
1000
0000
0000
0001
0100
0000
0010
0000
,
1000
0000
0001
0100
0010
0000
1000
0001
0100
0000
0100
0000
0010
0000
0100
0001
,
0000
0010
0000
0000
1100
0100
0010
0000
,
0001
0000
1000
0010
0100
0000
0010
0000
1000
0000
0000
0000
0101
0000
0000
0000
,
1000
0000
0001
0010
0000
0100
0010
0000
0001
0000
0000
0000
1100
0000
0000
0000
,
0100
0010
0100
1000
0100
0000
0010
0100
1000
0000
0010
0000
0100
0000
0100
0000
,
0010
0000
0000
1000
0000
0001
0000
0000
0010
0000
0000
0000
0011
0000
0000
0000
,
0100
0000
0000
0010
0000
0000
0001
0000
0000
0000
0000
0000
0000
0000
0000
0000
,
0001
0000
0000
0100
0000
0000
0010
0000
0100
0000
0000
0001
0100
0000
0001
0000
,
1000
0000
0000
0100
1000
0000
0010
0000
0100
0000
0001
0100
0001
0000
0010
0000
,
0200
0000
0320
0000
0230
0000
2300
0001
,
3100
0000
0000
0010
0000
0000
0001
0000
0101
0000
0100
0010
1000
0000
1000
0000
,
0002
0000
0203
0000
0320
0000
2030
0001
,
3100
0000
0000
0010
0000
0000
0001
0000
1100
0000
0010
1000
0100
0000
0010
0000
,
0002
0000
0000
0000
0203
0000
0000
0000
0320
0000
0000
0000
2030
0000
0000
0001
,
3100
0100
0010
0100
0000
0001
0100
0020
,
0030
0000
1000
0000
0001
0000
0000
0000
0100
0000
0000
0001
0010
0000
0100
0000
,
1000
0000
0000
0001
0000
0000
0100
0000
1010
0000
0100
0001
0010
0000
0100
0000
,
0020
0000
0000
0000
0230
0000
0000
0000
2300
0000
0000
0000
3002
0000
0000
0100
,
0013
0000
0000
1000
0000
0000
0010
0000
1100
0000
0100
0010
0001
0000
0010
0000
,
0100
0000
0000
1000
0010
0000
0010
0000
0100
0000
0000
0001
0010
0000
0001
0100
,
0010
0000
0000
0100
0000
0000
0001
0000
0101
0000
1000
0010
0100
0000
0010
0000
,
0200
0000
0000
0000
0320
0000
0000
0000
2030
0000
0000
0000
3002
0000
0000
0100
,
0013
1000
1000
0010
0000
0100
0100
0002
,
0000
0000
0000
0003
0000
0000
0000
0000
;
