#TITLE:Atomic;
#SUBTITLE:;
#ARTIST:She;
#TITLETRANSLIT:;
#SUBTITLETRANSLIT:;
#ARTISTTRANSLIT:;
#GENRE:;
#CREDIT:Lye;
#MUSIC:she - atomic sm edit.mp3;
#BANNER:atomic-bn.jpg;
#BACKGROUND:atomic-bg.jpg;
#CDTITLE:;
#SAMPLESTART:36.511;
#SAMPLELENGTH:14.279;
#SELECTABLE:YES;
#OFFSET:-0.567;
#BPMS:0.000=121.857
,57.000=60.929
,58.000=121.857
,63.000=60.929
,64.000=121.857
,124.000=243.714
,125.000=121.857
,132.500=243.714
,133.000=121.857
,149.500=60.929
,182.500=121.857
,218.000=243.714
,218.500=121.857
,225.500=243.714
,226.000=121.857
;
#STOPS:124.000=0.123
,124.500=0.123
,132.500=0.062
,132.750=0.062
,142.500=0.362
,218.000=0.123
,225.500=0.123
;
#DISPLAYBPM:61.000:122.000;
#BGCHANGES:;
#FGCHANGES:;

//--------------- dance-single - Lye ----------------
#NOTES:
     dance-single:
     Lye:
     Easy:
     6:
     0,0,0,0,0:
0000
0000
0000
0000
,
0000
0000
0000
0000
,
0000
0000
0000
0000
,
0000
0000
0000
0000
,
0002
0000
0000
0003
,
0200
0000
0000
0300
,
0020
0000
0000
0030
,
2000
0000
0000
3000
,
0200
0000
0000
0300
,
0020
0000
0000
0030
,
0200
0000
0000
0300
,
2000
0000
0000
3001
,
1002
0000
0000
0003
,
0020
0030
0000
0001
,
1000
0000
0000
0010
,
0200
0300
0001
0011
,
0000
0100
0110
0000
,
0000
0010
1010
0000
,
0000
0100
0101
0000
,
1001
0000
0110
0000
,
1000
0000
0010
0000
,
0100
0000
0001
0100
,
0001
1000
1000
0010
,
0100
0110
0100
0001
,
1000
1000
0010
0100
,
0010
2000
3100
0010
,
0001
0001
0100
0110
,
1000
0000
0100
0010
,
0001
0000
0100
0001
,
0100
0000
0010
0000
,
1000
0000
0001
0000
,
0200
0000
0000
0300
0000
0000
0000
0000
0010
0000
0000
0000
0000
0000
0000
0000
,
1000
0000
0100
0010
,
0002
0000
0000
0000
0003
0000
0000
0000
0100
0000
0000
0000
0200
0300
0000
0000
,
0020
0030
0000
0000
1000
0000
0000
0000
1000
0000
0000
0000
1010
0000
0000
0000
,
0100
0000
0001
0000
0002
0003
0000
1000
,
0000
0000
0000
0100
0000
0000
0000
0010
,
0000
0000
0000
0002
0023
0230
2300
3200
,
0320
0230
2300
3002
0023
0230
0320
0230
,
2300
3020
0230
0302
2003
3020
0230
0302
,
2003
3020
0230
0320
0230
0302
0023
0230
,
2300
3020
0230
0302
0000
1000
0000
0100
,
0003
0000
0010
0000
0000
0000
2000
3000
0000
0000
0200
0300
0000
0000
0020
0030
,
0000
0000
0200
0300
0000
0000
2000
3000
0010
0000
0010
0000
0010
0000
0000
0000
,
1000
1000
1000
0000
0010
0010
0010
2000
,
3200
0000
0000
0000
0000
0300
0000
0000
0000
0000
1001
0000
0000
0000
0010
0000
,
0000
0100
0000
1000
0000
0001
0000
0100
,
0000
0010
0000
1010
0000
1000
0000
1000
,
0000
0100
0000
0100
0000
0010
0000
0010
,
0000
0001
0000
0001
0000
0100
0000
0100
,
0000
0010
0000
0010
0000
1000
0000
1000
,
0000
0001
0000
1001
0000
0020
0030
0000
,
0000
0200
0000
0300
0000
2000
0000
0000
,
0000
0100
0000
0000
3000
0110
0000
1000
,
0000
0001
0000
0100
0000
0000
0000
1000
,
0000
0001
0000
0011
0000
0010
0000
0010
,
0000
0100
0000
0200
0300
0000
0000
0001
,
0000
1001
0000
0100
0000
0010
0000
1000
,
0000
1000
0000
0100
0000
0110
0000
0010
,
0000
0001
0000
0101
0000
0020
0000
0000
,
0000
1000
0000
0000
0000
2000
0000
0000
,
0000
0000
3030
0000
;

//--------------- dance-single - Lye ----------------
#NOTES:
     dance-single:
     Lye:
     Medium:
     9:
     0,0,0,0,0:
0000
0000
0000
0000
,
1000
0100
0010
0001
,
1000
0100
0010
0001
,
1000
0100
0010
0001
,
2000
0100
3010
0100
,
0002
0010
1003
0100
,
0020
1000
0031
0100
,
0200
1000
0310
0001
,
0020
1000
1030
0001
,
0200
0010
0301
1000
,
0002
0000
0100
0000
1003
0100
1000
0000
,
0002
0000
1000
1000
0003
0000
0001
0100
,
0101
0000
0010
0100
,
1010
0000
0000
1001
,
0011
2000
3001
0110
,
0000
0000
0001
1000
0010
0000
2020
0000
,
3030
0001
1100
0000
,
0010
0001
1000
0000
0011
0000
0200
0000
,
0000
0301
1010
0000
,
0101
0000
0120
0000
,
0000
0000
2000
0000
,
0000
3030
1010
0100
,
0001
0000
1000
0000
0001
0000
0010
0100
,
0100
0011
1001
0010
,
0001
0000
0010
0000
0100
0000
1000
0001
,
0001
2000
3001
0100
,
0001
0010
0100
1010
,
0001
0001
0000
0000
1100
0000
0100
0000
,
0010
0001
1000
0010
,
1000
0100
0000
0000
0011
0000
0010
0000
,
0100
1000
0000
0002
0000
0013
0000
1000
,
1000
0001
0101
0000
0010
0000
0200
0000
,
0000
0300
0011
0000
0100
0000
1000
0000
,
0010
0100
0010
2000
,
3200
0000
0310
0001
0010
0000
1100
0000
,
1000
0000
0010
0000
1000
0200
1300
0001
,
0000
0100
0000
0001
0001
0000
0100
0001
,
1000
0000
0001
0200
0001
0010
1000
0010
,
1300
0100
0010
0001
0100
0001
1000
0010
,
0100
0010
1000
0010
0100
0001
0010
0100
,
1000
0010
1000
0100
0010
0100
1000
0010
,
0100
0000
0001
0000
1000
0000
2001
0000
0000
0000
0010
3000
0000
0000
0001
0000
,
0000
1000
0000
0010
0000
1000
0000
0100
,
0000
0010
0000
0001
0000
0100
0000
1000
,
0000
0100
0000
0001
0000
0010
0000
0001
,
0000
0100
0000
0000
0000
1001
0000
0001
,
0000
0100
0000
0010
0000
1010
0000
0100
,
0000
0001
0000
1001
0000
1100
0000
0001
,
0000
0010
0000
0100
0000
1000
0000
0100
,
0000
0010
0000
0001
0000
0100
0000
0010
,
0000
1000
0000
1000
0000
0100
0000
1000
,
0000
0010
0000
0101
0001
0200
0300
0020
,
0000
0030
2000
0000
3000
0000
0020
0000
0030
0000
2000
0000
0000
0000
0000
0000
,
0000
0000
0000
3000
0000
1001
0000
0100
,
0000
0110
0000
0001
0000
0010
0000
0100
,
0000
1000
0000
1010
0000
0100
0000
0010
,
0000
1000
0000
0101
0000
0010
0000
1000
,
0000
0001
0000
0100
0000
0001
0000
0010
,
0000
0100
0000
1000
0000
0110
0000
0001
,
0000
0001
0000
1000
0000
0002
0000
0203
,
0000
0302
0000
0023
0000
0032
0000
0000
,
0000
2003
0000
0000
0000
3000
0000
0000
;

//--------------- dance-single - Lye ----------------
#NOTES:
     dance-single:
     Lye:
     Hard:
     12:
     0,0,0,0,0:
0000
0000
0000
0000
,
1000
0100
0010
0001
,
1000
0100
0010
0001
,
1000
0100
0010
0001
,
2000
0001
3001
0000
0010
0000
0001
0000
,
0200
1000
0300
2000
0000
3100
0001
0200
,
0000
0301
0001
0010
0100
0010
0100
1000
,
0002
0010
0013
0001
0100
0001
1000
0100
,
2000
0001
3010
0000
0100
0000
1000
0010
,
0200
0000
0301
0000
0010
0100
1000
0000
,
2000
0000
3010
0000
0100
1010
1000
0000
,
0020
0000
0100
0100
0030
0000
0001
0100
,
0101
0010
1000
0000
0100
0000
0010
0000
,
0011
0000
0002
0000
0000
0000
2003
0000
0000
0000
3001
0000
0010
0001
0000
0000
,
0011
0000
2000
0000
3001
0000
0110
0100
,
1000
0000
0001
0000
0001
0000
0100
0000
0010
0000
1000
0000
2020
0000
0000
3030
,
0001
0000
1000
0001
1001
0000
0100
0000
,
0010
1000
0001
0000
0011
0000
0200
0000
,
0001
0001
0301
0000
1010
0000
0001
0100
,
0110
0000
0000
0000
0001
0000
1000
0000
0010
0100
0010
0000
1000
0000
0001
0010
,
0000
0000
0000
0100
1000
0000
0001
0000
0100
0010
1000
0000
0001
0000
0010
0100
,
0000
0000
0000
1000
0100
0000
1000
0000
1010
0000
0100
0000
0001
0000
0000
0000
,
0011
0000
1100
0000
0101
0000
1010
0010
,
0100
0000
1001
0000
0011
0001
0100
0010
,
2000
0000
3001
0020
0000
0031
1000
0001
,
0001
0000
2010
0000
3001
0001
0100
0010
,
0001
0100
0010
1000
0001
0001
1100
0100
,
0010
0001
0011
0000
1100
0010
0010
1000
,
0001
0000
0100
0020
0000
2030
0000
3001
,
0010
0000
0100
0000
0000
0000
1000
0000
0011
0000
0000
0000
0010
0000
0001
0010
,
0000
0100
1000
0002
0000
0013
0010
0001
,
1010
1001
0101
0000
0010
0000
0200
0000
,
0000
0300
1010
0000
0100
0001
1000
0000
,
0100
0000
0010
0001
0100
0000
0000
0000
0010
0000
0000
0000
4000
0000
0000
0000
,
3400
0000
0310
0001
0010
0000
1100
0000
,
1000
0000
0001
0000
0010
0000
0000
0000
0001
0000
0200
0300
0011
0000
1001
0000
,
0000
0100
0010
0000
0001
0000
0100
0001
,
1000
0000
0001
0200
0001
0010
1000
0310
,
1000
0100
0010
0100
0010
0001
0100
0001
,
0100
0010
1000
0010
1000
1000
0001
0010
,
0001
0100
1000
0100
0010
1000
0001
0010
,
0100
1000
0010
2001
0000
0010
0000
0001
,
3000
0000
0100
0000
0000
0000
0001
0000
0000
0000
1000
1000
0000
0000
0010
0010
,
0000
0000
0100
0100
0000
0000
0001
0001
0100
0000
1000
0000
0010
0000
0100
0001
,
1000
0000
0100
0000
0010
0000
0001
0010
0100
0000
1000
0000
0001
0000
0100
0010
,
1000
0000
0010
0100
0000
0000
0001
0000
0000
0010
0000
0100
0000
0000
0000
0000
MMMM
0000
0000
0000
1001
0000
0000
0000
0001
0000
0000
0000
0001
0000
0000
0000
,
1000
0100
0000
0000
0010
0000
0000
0100
0000
1000
0001
0000
0010
0000
0100
0000
,
1000
0100
0000
0000
0010
0000
0101
0000
0010
0000
1000
0000
0010
0000
1000
0000
,
0100
1000
0000
0000
0100
0000
0000
1000
0000
1000
0010
0000
0100
0000
0100
0000
,
0001
0010
0000
0000
0001
0000
0000
0100
0000
0010
1000
0000
0010
0000
0100
0000
,
0010
1000
0000
0000
0001
0000
0000
0100
0000
0010
1000
0000
0100
0000
0100
0000
,
1000
0010
0000
0000
0100
0000
0110
0010
0000
1000
0100
0000
1000
0000
0010
0000
,
0100
0002
0003
0000
0002
0003
0000
0200
0300
0020
2030
0000
3002
0000
0203
0000
,
0320
2000
0030
3000
0020
0000
0030
2000
0000
3001
1001
0000
1000
0000
0100
0000
,
0000
0000
0110
0000
0000
0000
0001
1000
0010
0000
0010
0000
1000
0000
0100
0000
,
0010
0001
0000
0010
0001
0000
1010
0000
1000
0100
1000
0000
0001
0000
0110
0000
,
0000
1001
1000
0011
0000
1000
0100
0010
,
0100
1000
0000
0000
0001
0100
0010
0000
2000
3010
0100
0000
0010
0000
1010
0000
,
0000
1001
0000
0101
0010
0100
1000
0001
,
1000
0100
0000
0100
0010
0000
0011
0001
0000
0100
0002
0000
0000
0000
0203
0000
,
0000
0302
0000
0023
0000
0230
0000
0000
,
0000
0000
0000
0000
0000
0300
0000
0000
;

//--------------- dance-single - Lye ----------------
#NOTES:
     dance-single:
     Lye:
     Challenge:
     15:
     0,0,0,0,0:
0000
0000
0000
0000
,
0010
0100
0001
0100
1000
0100
0001
1000
,
0010
0100
0001
0100
1000
0100
0001
1000
,
0010
0100
0001
0100
1000
0100
0001
1000
,
0020
1000
0100
0000
1030
0000
0001
0000
,
0001
2000
0000
3200
0000
0310
0001
0020
,
0000
0031
1000
0100
0010
0001
0100
0010
,
2000
0010
3100
0010
1000
0001
1000
0200
,
0000
0310
0002
0000
2003
0000
3001
0010
,
0002
0000
1003
0000
0100
0010
0001
0000
,
2000
0000
0010
0000
3010
0110
0100
0000
,
0002
0000
1000
1000
0003
0000
0100
0100
,
1100
1000
0010
0000
0100
0000
0001
0000
,
1010
0000
0002
0000
0000
0000
2003
0000
0000
0000
3001
0000
0010
0001
0000
0000
,
0011
0000
0000
0000
0200
0000
0001
0010
0301
0000
0000
0000
0110
0000
0100
0000
,
1000
0000
0001
0000
0001
0000
0100
0000
0010
0000
1000
0000
2001
0000
0020
3030
,
0100
0000
0001
1000
1001
0000
0100
0000
,
0010
0000
0001
0000
1000
0100
0000
0000
1010
0000
0000
0000
2000
0000
0000
0000
,
3010
0100
0001
0100
0010
0000
1000
0100
,
0110
0000
0000
0000
0001
0000
1000
0000
0011
0001
1000
0000
0100
0000
1000
0001
,
0000
0000
0000
0010
1000
0000
0001
0000
0100
0001
0010
0000
0001
0000
0010
0100
,
0000
0000
0000
1000
0100
0000
0010
0000
0110
0100
0001
0000
0001
0000
1000
0000
,
0011
0000
0001
0000
1000
0000
0001
0000
0101
0000
0002
0000
1000
0000
0010
0003
,
0100
0000
1000
0000
1001
0000
0000
0000
0010
1000
0001
0000
0010
0000
1000
0000
,
0002
1000
0013
2000
0000
3100
1000
0001
,
0001
0000
0100
0000
2010
0000
0000
0000
3001
0100
0001
0000
0100
0000
0010
0000
,
1000
0010
1000
0001
1000
0020
0100
0031
,
1000
0000
1000
0000
0011
0000
0001
0100
0010
0000
1000
0000
0010
0000
1000
0000
,
0110
0000
0000
0000
0100
0000
0021
0000
0001
0000
0032
0000
0000
0000
1003
0100
,
0010
0000
0100
0000
1000
0000
0010
0100
0101
0000
1000
0000
0010
0000
0100
0001
,
0000
0000
0100
0000
0010
0100
0001
0010
0100
0000
1000
0000
0010
0000
1000
0000
,
1010
0000
1001
0000
0101
0000
0000
0000
0010
0000
1000
0001
0200
0000
0001
0000
,
0002
0000
0303
0000
0011
0001
0100
0010
0100
0000
0001
0000
1000
0000
0100
0000
,
0010
0000
0001
0100
0101
0000
0100
0001
1000
0000
0010
0000
4000
0000
0100
0000
,
3400
0010
0301
0001
0010
0001
1100
0001
,
1000
0000
0001
0000
0010
0100
0001
1000
0010
0000
0102
0003
0011
0000
1001
0000
,
0000
0000
0100
0001
0010
0100
1000
0000
0100
0000
0010
0000
0001
0000
0100
0000
,
0010
0000
0100
0000
0001
1000
0200
0000
1000
0000
0010
0000
1000
1300
0020
0230
,
0301
2000
3000
0020
0130
0020
1030
0200
0310
0001
0000
1000
0010
0100
0002
2003
,
3010
0200
0300
0002
1003
0020
0130
0002
0103
0010
0000
0100
0001
0010
0200
2300
,
3010
0020
0030
2000
3100
0020
0130
2000
3001
0010
0000
0010
0001
0100
0020
2030
,
3001
0000
0020
0000
0030
0000
0020
0000
0131
0000
0002
0000
2013
0000
0010
0000
3001
0000
0001
0100
0000
0000
1000
0000
0001
0000
1000
0100
0010
0000
0001
0000
,
1000
0000
0010
0100
0000
0000
0100
0000
0001
0000
1000
0100
1000
0000
0010
0000
0100
0000
0001
0010
0000
0000
0100
0000
1000
0000
0010
0100
0010
0000
0010
0000
,
1000
0000
0001
0010
0000
0000
0001
0000
0100
0000
0010
1000
0100
0000
0010
0000
0100
0000
0010
0001
0000
0000
0100
0000
0010
0000
1000
0001
0100
0000
0010
0000
,
1000
0000
0010
0100
0000
0000
0001
0000
1000
0000
0001
0100
0010
0000
1000
0000
0001
0000
0010
0100
0000
0000
1000
0000
0100
1000
0000
0001
0100
0000
0010
0000
,
1000
0000
0010
0100
0000
0000
1000
0000
0000
0010
0000
0100
0000
0000
0000
0000
MMMM
0000
0000
0000
1001
0000
1000
0000
0010
0000
0000
0000
0100
0000
0000
0000
,
0010
1000
0000
1000
0001
0000
0000
1000
0000
0010
0100
0000
0001
0000
0100
0000
,
0010
1000
0000
0010
1000
0000
1010
0000
0001
0000
1000
0010
0100
0000
1000
0000
,
0010
0001
0000
1000
0100
0000
0000
1000
0000
0001
0100
0000
0010
0000
1000
0000
,
1000
0010
0100
0010
1000
0000
0000
0100
0000
0010
0001
0000
1000
0000
0010
0000
,
0100
0010
0000
0010
0100
0000
0000
0001
0000
0010
0100
0000
1000
0000
0100
0000
,
1000
0010
0100
0001
0100
0000
0110
0010
0000
1000
0001
0000
0010
0000
0001
0000
,
0100
0020
0030
0000
2000
3000
0002
0023
0030
0200
2300
0000
3002
0000
0023
0000
,
0032
0200
0003
0300
0002
0000
0003
0020
0030
0100
1001
0000
1000
0000
0001
0000
,
0100
0001
0000
0001
1000
0000
0010
1000
0010
0000
0100
0000
0001
0000
0100
0000
,
0010
1000
0000
0001
0010
0000
1100
0000
1000
0100
1000
0000
0001
0000
0010
0000
,
0001
1000
0010
0100
0010
0000
2000
3000
0100
0000
1000
0001
0010
0000
0100
0000
,
1000
0001
0100
0010
0100
0001
2000
3000
0002
0013
0001
0000
1000
0000
1010
0000
,
0010
0000
1001
0000
0100
0000
0101
0000
1000
0001
1000
0000
0010
1000
0001
0000
,
1000
0100
0000
0001
0010
0000
1100
1000
0000
1000
0002
0000
0100
0000
0023
0000
,
0000
2030
0000
3002
0000
0203
0000
0000
,
0000
0000
0000
0000
0000
0300
0000
0000
;
