#TITLE:All Love;
#SUBTITLE:;
#ARTIST:King Sis;
#TITLETRANSLIT:;
#SUBTITLETRANSLIT:;
#ARTISTTRANSLIT:;
#GENRE:;
#CREDIT:;
#MUSIC:all-love.ogg;
#BANNER:all-love-bn.png;
#BACKGROUND:all-love-bg.png;
#CDTITLE:;
#SAMPLESTART:47.301;
#SAMPLELENGTH:24.590;
#SELECTABLE:YES;
#OFFSET:0.896;
#BPMS:0.000=183.000;
#STOPS:;
#BGCHANGES:1.896=all-love-mv.avi=1.000=1=0=0=StretchNoLoop==CrossFade==,
99999.000=-nosongbg-=1.000=0=0=0=StretchNoLoop====
;
#FGCHANGES:;

//--------------- dance-single - Lye ----------------
#NOTES:
     dance-single:
     Lye:
     Easy:
     4:
     0,0,0,0,0:
0000
0000
0000
0000
,
0000
0000
0000
0000
,
0000
0000
0000
0000
,
0000
0000
0000
0000
,
0000
0000
0000
0000
,
0000
0000
0000
0000
,
0000
0000
0000
0000
,
0000
0000
0000
0000
,
0000
0000
0000
0000
,
1000
0000
0000
0000
,
0010
0000
0000
0000
,
0001
0000
0000
0000
,
0100
0000
0000
0000
,
0010
0000
0000
0000
,
1000
0000
0000
0000
,
1000
0000
0000
0000
,
0001
0000
0000
0000
,
1001
0000
0000
0000
,
0001
0000
0000
0000
,
0100
0000
0000
0000
,
0010
0000
0001
0000
,
1000
0000
0000
0000
,
0010
0000
0000
0000
,
0100
0000
0000
0000
,
0010
0000
1000
0000
,
0100
0000
0000
0000
,
0010
0000
0000
0000
,
1000
0000
0000
0000
,
0001
0000
0000
0000
,
0010
0000
0000
0000
,
0100
0000
0000
0000
,
1000
0000
1000
0000
,
0001
0000
0001
0000
,
0200
0000
0300
0000
,
0002
0000
0003
0000
,
0010
0000
1000
0000
,
0200
0000
0300
0000
,
1000
0000
0001
0000
,
0020
0000
0030
0000
,
0100
0000
0000
0000
,
0001
0000
0000
0000
,
0110
0000
0000
0000
,
1001
0000
0000
0000
,
1000
0000
0001
0000
,
0001
0000
0000
0000
,
1000
0000
0000
0000
,
0010
0000
0000
0000
,
0100
0000
1000
0000
,
0001
0000
0100
0000
,
0000
0000
0000
0000
,
1000
0000
0000
0000
,
0001
0000
0000
0000
,
0010
0000
0000
0000
,
0100
0000
0000
0000
,
0001
0000
0000
0000
,
0010
0000
0000
0000
,
1000
0000
1000
0000
,
0002
0000
1003
0000
,
0001
0000
0001
0000
,
2000
0000
3001
0000
,
0010
0000
0010
0000
,
0200
0000
0310
0000
,
0100
0000
0100
0000
,
0200
0000
0300
0020
,
0000
0000
0000
1030
,
0000
0000
0000
0000
,
0001
0000
0000
0000
,
1001
0000
0100
0000
,
1000
0000
0000
0000
,
1001
0000
0100
0000
,
0001
0000
0000
0000
,
0110
0000
0000
0000
,
1001
0000
0100
0000
,
0010
0000
0010
0000
,
2000
0000
3000
0000
,
0110
0000
0000
0000
,
0001
0000
0000
0000
,
1000
0000
0000
0000
,
0100
0000
0000
0000
,
0010
0000
0001
0000
,
0010
0000
1000
0000
,
0002
0000
0000
0000
,
1003
0000
0000
0000
,
2000
0000
0000
0000
,
3001
0000
0000
0000
,
0020
0000
0000
0000
,
1030
0000
0000
0000
,
0100
0000
0001
0000
,
0001
0000
0001
0000
,
1000
0000
0000
0000
,
0001
0000
0000
0000
,
0110
0000
0010
0000
,
0100
0000
0000
0000
,
1001
0000
0000
0000
,
0100
0000
0000
0000
,
1000
0000
0002
0000
,
0003
0000
0100
0000
,
0000
0001
0000
0000
,
1000
0000
0000
0000
,
0100
0000
0000
0000
,
0010
0000
0000
0000
,
0000
0000
0000
0000
,
0001
0000
0000
0000
,
0100
0000
0000
0000
,
0010
0000
0000
0000
,
0000
0000
0000
0000
,
0100
0000
0000
0000
,
0010
0000
0000
0000
,
0001
0000
0000
0000
,
1000
0000
0000
0000
,
0010
0000
0000
0000
,
0001
0000
0000
0000
;

//--------------- dance-single - Lye ----------------
#NOTES:
     dance-single:
     Lye:
     Medium:
     6:
     0,0,0,0,0:
0000
0000
0000
0000
,
0000
0000
0000
0000
,
0000
0000
0000
0000
,
0000
0000
0000
0000
,
0000
0000
0000
0000
,
0000
0000
0000
0000
,
0000
0000
0002
0000
,
0003
0000
0000
0000
,
0000
0000
0010
1000
,
0010
0000
0100
0000
,
0010
0000
1000
0000
,
0001
0000
0010
0100
,
0100
0000
0000
0000
,
0010
0000
0010
0000
,
1000
0000
0100
1000
,
1000
0000
0100
0000
,
0001
0000
0000
0000
,
1001
0000
1000
0000
,
0010
0000
0100
0001
,
0000
0000
0010
0000
,
0020
0000
1030
1100
,
0101
0000
0010
0000
,
0010
0000
2000
0000
,
3100
0000
0010
0000
,
0010
0010
1000
0000
,
0100
0000
0001
1000
,
0000
0000
1100
0000
,
1000
0000
0010
0100
,
0000
0000
0101
0000
,
0010
0000
0100
1000
,
0000
0000
0110
0000
,
0001
0000
1000
0000
,
0001
0000
1000
0010
,
0020
0000
0030
1000
,
2000
0000
3000
0000
,
0010
0000
1000
1000
,
0200
0000
0310
0000
,
0001
0000
0001
0001
,
0200
0000
0300
0000
,
1000
0000
0100
0000
,
0001
0000
0010
0010
,
0110
0000
1000
0000
,
1001
0000
0100
0100
,
1000
0000
0001
0000
,
0001
0000
1000
2000
,
0000
0002
3003
0010
,
0000
0000
0001
0002
,
0000
2000
0003
0000
,
3001
0000
0100
0100
,
0000
0001
2000
3000
,
1000
0000
0002
0003
,
0001
0000
0020
0030
,
0010
0000
1000
0000
,
0000
0000
0200
0300
,
0100
0000
0002
0003
,
0001
0000
2000
3010
,
1000
0010
1000
0010
,
0102
0000
1003
0000
,
0010
0001
0010
0001
,
2100
0000
3001
0000
,
0010
0100
0010
0100
,
0020
0000
1030
0000
,
0100
0010
1000
0010
,
0200
0002
0303
0020
,
0000
0000
0000
1030
,
0000
0000
0001
0100
,
0001
0000
0010
0000
,
1001
0000
1000
0100
,
1000
0000
0010
0000
,
1001
0000
1000
0100
,
0001
0010
1000
0000
,
0110
0000
0001
1000
,
1000
0010
0100
0001
,
0010
0000
0010
0000
,
2000
0000
3000
0000
,
0110
0000
0001
0000
,
0001
0000
2000
0000
,
3001
0000
0010
0000
,
0100
0000
0020
0000
,
1030
0100
0100
0000
,
0001
0100
0100
0010
,
0002
0000
1000
0000
,
1003
0000
0010
0000
,
2000
0000
0001
0000
,
3001
0000
0100
0000
,
0020
0000
0100
0000
,
1030
0000
0001
0000
,
0100
0100
0001
0000
,
0100
0000
0010
0010
,
1000
0000
0010
0010
,
0001
0000
1000
0001
,
0110
0000
0010
0000
,
0100
0000
1000
0000
,
1010
0000
0010
0000
,
0100
0000
0001
0000
,
0011
0000
2000
3200
,
0302
0003
0010
0000
,
0000
0110
0010
0000
,
1100
0000
0010
0000
,
0101
0000
0010
0000
,
1001
0000
0100
0000
,
0010
0000
1000
0000
,
0110
0000
0100
0000
,
1010
0000
0100
0000
,
0011
0000
1000
0000
,
0001
0000
0010
1000
,
0000
1000
0010
0000
,
0100
0000
1000
0001
,
0001
0000
0110
0000
,
1000
0000
0100
0000
,
0001
0001
0010
0000
,
0001
0000
2000
3002
,
0003
0000
0000
0000
;

//--------------- dance-single - Lye ----------------
#NOTES:
     dance-single:
     Lye:
     Hard:
     11:
     0,0,0,0,0:
0000
0000
0000
0000
,
0000
0000
0000
0000
,
0000
0000
0000
0000
,
0000
0000
0000
0000
,
0000
0000
0000
0000
,
0000
0000
0000
0000
,
0000
0000
0002
0000
,
0003
0000
0000
0000
,
0000
0000
0010
1000
,
0010
0000
0000
1000
0100
0000
0001
0000
,
0010
0000
0000
0001
1000
0000
1000
0000
,
0001
0010
0100
1000
,
0100
0100
0001
2000
,
3000
0010
0000
0000
0010
0100
0001
0000
,
1000
0010
0100
1000
,
1000
0000
0000
0010
0100
0000
0010
0000
,
1000
0001
1000
0000
,
1001
0001
0000
0000
1000
0000
0010
0000
,
0000
0100
0001
1000
,
0101
0000
0000
0000
0010
0000
1000
0001
,
0020
0000
1030
1100
,
0101
0001
0000
0001
0100
0001
0010
0000
,
0010
1000
2000
0000
,
3100
0100
0001
0010
,
1000
0001
0000
0100
1000
0000
0010
0000
,
0100
1000
0100
1000
0001
0000
1000
0100
,
0000
0100
1000
0000
0011
0000
0000
0000
,
1000
0000
0000
0100
0010
0000
0100
0000
,
0001
0000
0101
0000
,
1000
0010
0000
0010
0100
0000
1000
0001
,
0000
0010
1000
0000
0110
0000
0001
0000
,
0001
0000
0100
0010
0100
0000
0000
0000
,
1000
0000
0100
0010
0100
0000
0010
0000
,
0020
0000
1000
1000
0030
0000
1000
0000
,
2000
0000
0001
0001
3000
0000
0010
0000
,
0010
0000
0100
0000
1000
0001
1000
0000
,
0200
0000
0010
0010
0300
0000
1000
0000
,
0001
0100
0001
0000
0010
0000
1000
0000
,
0200
0000
1000
1000
0300
0000
0001
0010
,
0001
0000
1000
0000
0100
0000
0001
0011
,
0000
0000
0100
1000
0010
0000
0001
0000
,
0110
0000
1000
0001
,
1001
0000
0000
0000
0100
0010
0100
0000
,
1000
0100
0001
0010
,
0101
0000
0000
0100
1000
0001
2000
0000
,
0000
0002
3003
0010
,
0000
0000
0000
0100
0001
1000
0002
0000
,
0000
2000
0003
0000
,
3001
0000
0000
0000
0100
0010
0100
0000
,
0000
0001
2000
3000
,
1000
0000
0002
0003
,
0001
0000
0020
0030
,
0010
0000
1000
0000
,
0000
0000
0200
0300
,
0100
0000
0002
0003
,
0001
0000
0000
0000
2000
0000
3010
0100
,
0010
1000
0010
0100
0010
1000
0010
0100
,
0102
0000
1003
0010
,
0010
0001
0010
0100
0010
0001
0010
0100
,
2100
0000
3001
0010
,
0010
1000
0100
1000
0010
1000
0100
1000
,
0010
0001
0020
0000
1030
0000
1000
0000
,
0100
0001
0010
0001
1000
0001
0010
0001
,
0200
0002
0303
0020
,
0200
0000
0030
1300
,
0000
0000
0000
0001
0010
0000
0001
1000
,
0001
0100
1000
0000
,
1001
0000
0000
0010
1000
0000
0100
1000
,
0100
0000
0011
0000
,
1001
0000
0000
0000
1000
0100
1000
0000
,
0001
0010
2000
3000
,
0110
0000
1000
0000
0001
0000
0010
0100
,
1000
0000
0010
0001
0100
0000
0001
0000
,
0010
0100
0000
0001
0000
0000
0100
0000
,
0000
0000
0001
0100
1010
0000
0000
0000
,
0110
0000
0000
0000
0001
0000
1000
0100
,
0000
0001
1000
0000
2010
0000
0000
0002
,
3003
0000
0000
0010
0100
0000
1000
0200
,
0000
0300
0001
0000
0020
0000
0000
0000
,
1030
0000
0100
0010
0100
0000
0000
0000
,
0001
0000
0100
0010
0100
0000
0010
0000
,
0002
0000
1000
1000
0003
0000
1000
0010
,
2000
0000
0001
0001
3000
0000
0100
0000
,
0020
0000
0031
0100
0001
0000
1000
0100
,
2000
0000
0010
0010
3000
0000
0100
0000
,
0010
0001
0010
0000
0200
0000
1300
0010
,
1000
0000
0100
0002
0000
0003
0100
1000
,
0100
0100
0001
0010
,
0100
0000
1000
0100
1000
0000
0010
0000
,
0010
0000
0000
0000
0001
0100
0010
0000
,
0010
0000
0000
0000
1000
0100
0001
0000
,
0011
0000
0100
1000
0010
0000
0001
0000
,
0101
0000
0000
0000
0010
0001
0100
0000
,
1000
0010
0000
0010
1000
0000
0101
0000
,
0000
0000
0010
0000
0001
0100
0010
0000
,
1000
0001
0000
0001
2000
0000
3200
0000
,
0302
0000
0023
0000
0130
1000
0100
0000
,
0000
0000
0110
0000
0020
0000
0030
1000
,
0100
0000
0000
0000
0020
0000
0030
0001
,
0100
0000
0000
0000
0020
0000
0000
1030
,
0100
0000
0110
0000
,
0010
0001
0000
0001
1000
0000
0100
0000
,
0110
0000
0100
1000
,
1010
0000
0100
0001
,
0011
0000
0000
0000
1001
1000
0000
1000
,
0002
0000
0020
2003
,
3030
0000
0001
0000
1010
0000
0000
1000
,
0100
0000
0001
0000
1000
0000
0001
0100
,
0001
0000
1000
0000
0110
0000
0000
0001
,
1000
0001
0000
0001
0100
0000
1010
0000
,
0001
0000
1100
0000
0101
0000
0000
1000
,
0001
0000
2000
3002
,
0003
0000
0000
0200
,
0300
0000
0000
0000
;

//--------------- dance-single - Lye ----------------
#NOTES:
     dance-single:
     Lye:
     Challenge:
     14:
     0,0,0,0,0:
0000
0000
0000
0000
,
2000
3200
0320
0032
0003
0000
2000
3020
,
0230
0302
0003
0000
0000
0000
0000
0000
,
0002
0003
0000
2000
3000
0000
0020
0030
,
0000
0000
0000
0000
,
0002
0023
2030
3200
0300
0000
0020
0032
,
2003
0000
0000
3200
0000
0000
0300
0000
0000
0000
0000
0000
0002
0000
0003
0000
0010
0000
0200
0000
0000
0300
0000
0000
,
2000
3000
0000
0200
0300
0000
0002
0003
,
0000
0000
0000
0000
0010
0000
1000
1000
,
0010
0000
0010
1000
0100
0001
0001
0000
,
0010
0000
0000
0001
1000
0000
2000
3000
,
0002
0003
0010
0000
0100
0000
1000
0000
,
0100
0000
0100
0100
0001
0010
2000
0000
,
3000
0010
0000
0000
0010
0100
0001
0000
,
1010
0000
0010
0001
0010
0000
1100
0000
,
1001
0000
0000
0010
0100
0100
0010
0000
,
1000
0000
0000
0000
0000
0000
0001
0000
0000
0010
0000
0000
0001
0000
0000
0100
0000
0000
1000
0000
0010
0000
0100
0000
,
0101
0001
0100
0000
0010
1000
0010
0100
,
0020
0000
0000
0130
1000
0010
0100
0000
0000
1010
0000
0000
,
0210
0300
0000
1002
0013
0100
2000
3001
,
0010
0100
2000
0000
3001
0100
1100
0000
,
0101
0001
0000
1000
0100
0010
0001
0000
,
0010
0000
0001
0000
0100
0000
1000
0000
0000
0000
0000
0000
1000
0000
0000
0002
0000
0000
0000
0000
0000
0000
0000
0000
,
0103
1000
0100
0020
1030
0002
0013
0000
,
1000
0001
0000
0100
1000
0000
0022
0033
,
0100
1000
0100
1000
0001
0000
1000
0100
,
0000
0100
1000
0000
0101
0000
0000
0000
,
2000
3000
0010
0200
0310
0000
0002
1003
,
0000
1000
0001
0000
0102
0000
0000
0100
,
1003
1000
0000
0010
0110
0000
1000
0001
,
0000
0010
1000
0000
0110
0000
0001
1000
,
0001
1000
0100
0010
1200
0300
0001
0000
,
1000
0001
0100
0010
0101
0000
1020
0130
,
0020
0000
1000
1000
0030
0000
1000
0001
,
2000
0000
0001
0001
3000
0000
0100
0000
,
0020
0030
0100
0002
0013
0001
2000
3100
,
0020
0000
0100
0100
0030
0000
1000
0000
,
0001
0100
0001
0000
0010
0001
1000
0010
,
0200
0000
1000
1000
0300
0000
0001
0010
,
0001
0100
1000
0010
0100
0000
0001
0011
,
0000
0000
0100
1000
0010
0000
0101
0000
,
0110
0000
0000
1001
0010
0100
0101
0000
,
0001
0000
0000
0000
0100
0010
0100
0000
,
2010
3000
0100
0010
0001
0000
0010
0000
,
0101
0000
0000
0100
1000
0001
2000
0000
,
0010
0001
0000
0002
3003
0000
0010
0100
,
0000
0001
0000
0100
0001
1000
0002
0000
,
0103
0000
2000
0010
0000
0001
0000
0010
,
3000
0100
0000
0001
0100
0010
1100
0000
,
0000
0000
0011
0000
2000
0000
3000
0100
,
1000
0001
0000
0000
0002
0000
0003
0010
,
0001
1000
0000
0000
0020
0000
0030
0001
,
0010
0100
0000
0000
1000
0000
0100
0000
,
0001
0000
0000
0000
0200
0000
0300
1000
,
0100
0001
0000
0000
0002
0000
0003
0100
,
0001
1000
0000
0000
2000
0000
3010
0100
,
0010
1000
0010
0100
0010
1000
0010
0100
,
0100
0001
0000
0001
1100
0000
0011
0000
,
0010
0001
0010
0100
0010
0001
0010
0100
,
1000
0100
0000
1000
1010
0000
0101
0000
,
0010
1000
0100
1000
0010
1000
0100
1000
,
0010
0001
0020
0000
2030
3000
0200
0300
,
0010
0100
0010
1000
0000
0001
0010
0001
,
0200
0301
0000
0020
,
0130
0001
0100
0002
0000
0000
0013
0000
0000
1100
0000
0000
,
0000
0000
0000
0001
0010
0100
0001
1000
,
0001
0000
0100
0010
0200
0300
0000
0000
,
1001
0000
0000
0010
1000
0010
0100
1000
,
0100
0000
0001
0010
0210
0000
0300
0001
,
1001
0100
0000
0100
1000
0100
1000
0010
,
0001
0000
0000
0000
0000
0000
0010
0000
0000
0100
0000
0000
2000
0000
3200
0000
0302
0000
2003
0000
0000
3000
0000
0000
,
0101
0100
0010
1000
0001
0000
0010
0100
,
2000
3000
0010
0001
1100
0000
0101
0000
,
0010
0100
0000
0001
1000
0000
0100
0010
,
0000
1000
0001
0100
1010
0000
0000
0000
,
0110
0000
0001
1000
0001
0000
1000
0100
,
0000
0001
1000
0000
2010
0000
0000
0002
,
3013
0100
0000
0010
0100
0000
1000
0200
,
0000
1300
0001
0000
0020
0000
0031
1000
,
1100
0000
0100
0010
0101
0000
1010
0000
,
0001
0100
1010
0010
0100
0101
0010
1000
,
0001
0000
0100
0000
0010
0000
0200
0000
0000
0302
0000
0000
0013
0000
0000
0000
0000
0000
1000
0000
0000
0010
0000
0000
,
2000
0000
0001
0001
3000
0000
0100
0000
,
0020
0000
0031
0200
0301
0010
2000
3100
,
2000
0000
0010
0010
3000
0000
0100
0000
,
0020
0032
0023
0030
0200
0000
2300
3020
,
1030
0000
0100
0002
0000
0003
0100
1000
,
0200
0301
0100
2000
3001
0000
1010
0002
,
0003
0001
1000
0100
1000
0000
0110
0000
,
0011
0000
0000
0010
0001
0100
1010
0000
,
0101
0000
0000
0000
1000
0100
0001
0000
,
0110
0000
0100
1000
0011
0000
1001
0000
,
0101
0000
0000
0100
0010
0001
0100
0000
,
1000
0010
0000
0010
1000
0000
0101
0001
,
0000
0001
0010
0000
0001
0100
0010
0000
,
1000
0001
0020
0001
2030
0000
3200
0010
,
0302
0000
0023
0000
0230
1000
0301
0000
,
1000
0001
0000
1000
0020
0000
0130
1000
,
0100
0000
0101
0000
0120
0000
0030
0001
,
0100
0000
1001
0000
0120
0000
0000
1030
,
0100
0000
0000
0000
0110
0001
0000
0001
,
0010
0001
0000
0001
1000
0000
0100
1000
,
1010
0000
0000
0000
0100
0000
1000
0100
,
1010
0000
0000
1000
0100
0000
0001
0100
,
0011
0000
0100
0000
1001
1000
0000
1000
,
0001
0002
0000
0000
0020
0003
0200
0000
,
0330
0000
0001
0100
1010
0000
0000
1000
,
0100
0000
0001
0000
1000
0000
0001
0100
,
0001
0010
1000
0000
0110
0000
0100
0001
,
1000
0001
0000
0001
0100
0000
1010
0000
,
0001
0000
1100
0000
0101
0000
0000
1000
,
1001
0000
2000
3002
,
0003
0000
0000
0200
,
0300
0000
0000
0000
;

//--------------- dance-single - Lye ----------------
#NOTES:
     dance-single:
     Lye:
     Edit:
     17:
     0,0,0,0,0:
0000
0000
0000
0000
,
2000
3200
0320
0032
0003
0000
2000
3020
,
0230
0302
0003
0000
0000
0000
0000
0000
,
0002
0003
0000
2000
3000
0000
0020
0030
,
0000
0000
0000
0000
,
0002
0023
2030
3200
0300
0000
0020
0032
,
2003
0000
0000
3200
0000
0000
0300
0000
0000
0000
0000
0000
0002
0000
0003
0000
0010
0000
0200
0000
0000
0300
0000
0000
,
2000
3000
0000
0200
0300
0000
0002
0003
,
0000
0000
0000
0000
0010
0000
1000
1000
,
0010
0001
0010
1000
0001
0010
0001
0100
,
0010
0000
0010
0000
0001
1000
0001
0000
1000
0000
0100
0000
2000
0000
3000
0000
,
0002
0000
0003
0000
0010
0100
0010
0000
0100
0000
0001
0000
1000
0000
0001
0000
,
0100
1000
0100
0100
0001
0010
2000
0000
,
3001
0010
0000
0010
0100
0010
0001
0000
,
1000
0000
1000
0000
0010
0100
0001
0000
0100
0000
0000
0000
1010
0000
0000
0000
,
0011
0000
0000
0000
0100
1000
0010
0000
0100
0000
0100
0000
0010
0000
0010
0000
,
2000
0000
0000
0000
0000
0000
3001
0000
0000
0010
0000
0000
0001
0000
0000
0100
0000
0000
1000
0000
0010
0000
0100
0000
,
0101
0000
1001
0000
0100
0000
0011
1000
0010
0000
0001
0000
1010
0000
1000
0000
,
0020
0000
0000
0030
0000
0000
1010
0000
1000
0000
0010
0000
0100
0000
0000
0001
0000
0000
1010
0000
0000
0000
0000
0000
,
0210
0000
0300
0000
0001
0100
0002
0000
0013
0000
0110
0000
2100
0000
3001
0000
,
0010
0000
0100
0000
2000
0000
0000
0000
3011
0000
0100
1000
0100
0000
0010
0000
,
0101
1001
0000
1100
0001
0010
0101
0000
,
0010
0000
0000
0000
0001
0000
0000
0000
0100
0000
0000
0000
1000
0000
0000
0001
0000
0000
0010
0000
0000
0000
0000
0000
1000
0000
0000
0000
0000
0000
0002
0000
0000
0000
0000
0000
0000
0000
0000
0000
0000
0000
0100
0000
0000
0000
0000
0000
,
1103
0000
0010
0000
0100
0001
0020
0000
1130
0000
0002
0000
0113
0000
0000
0000
,
1000
0000
0001
0000
1010
0000
0100
0000
1000
0000
0101
0000
0001
0100
0010
0000
,
0100
1000
0100
1000
0001
0000
1000
0100
,
0000
0000
0100
0000
1000
0100
1000
0000
0101
0000
0001
0000
0100
0000
0000
0000
,
2000
0000
3000
0000
0010
1000
0200
0000
0310
0000
0010
0000
0002
0000
1003
0000
,
0000
0100
1000
0000
0001
0000
1000
0000
0010
0000
0100
1000
0100
0000
0100
0000
,
1100
0000
1010
0000
0000
0100
0010
0000
0110
0000
0000
0000
1100
0000
0001
0000
,
0000
0000
0010
0000
1000
0100
1000
0000
0110
0000
0000
0000
0001
0000
1010
0000
,
0101
0000
0010
0000
0100
1000
0100
0000
1200
0000
0300
0000
0011
0000
0000
0000
,
1000
0000
0001
0000
0100
0000
0010
0000
0001
0000
0000
0000
1000
0010
0100
0000
,
0020
0000
0000
0000
1000
0000
1000
0000
0030
0000
0000
0001
1000
0000
0001
0000
,
2000
0000
0001
0001
3000
0000
0100
0000
,
0020
0000
0030
0000
0100
1000
0002
0000
0013
0000
0001
0000
2000
0000
3100
0000
,
0020
0000
0000
0000
0100
0000
0100
0000
0030
0000
1000
0010
1000
0000
0100
0000
,
0001
0100
0001
0000
0010
0001
1000
0010
,
0200
0000
0300
0000
1000
0001
1000
0000
0010
0000
0000
0000
0001
0000
0010
0000
,
0001
0000
0100
0000
1000
0001
0010
0000
0100
0000
0000
0000
0001
0000
0001
0000
,
0000
1000
0100
1000
0010
1000
0001
0000
,
0110
0000
0000
1001
0010
0100
0101
0000
,
0001
0000
0000
0000
1000
0100
1000
0000
0100
0000
0010
0000
0100
0000
0000
0000
,
2010
0000
3000
0000
0100
0001
0010
0000
1001
0000
0100
0000
0011
0000
1000
0000
,
0100
0000
0000
0000
0000
0000
0100
0000
1000
0000
0011
0000
1000
0100
1000
0000
,
0120
1032
0003
0102
0023
0030
0020
0230
,
0300
0000
0002
0000
0103
1000
0100
0000
0011
0000
1000
0000
0002
0000
1000
0000
,
0103
0000
0010
0100
2000
0000
0010
0000
0001
0000
0001
0000
0000
0000
0010
0000
,
3000
0100
0010
0001
0100
0010
2100
3000
,
0000
0000
0011
0000
2000
0001
3010
0100
,
1000
0000
0001
0000
0100
0010
1000
0000
0002
0000
1000
0000
0103
0000
0010
0000
,
0001
0000
1000
0000
0001
0100
0001
0000
0020
0000
0100
0000
1030
0000
0001
0000
,
0010
0000
0100
0000
0000
0000
0000
0000
1000
0000
0100
0000
0100
0001
0100
0000
,
0001
0010
0010
0010
0200
0001
0301
1000
,
0100
0000
0001
0000
0010
0100
0001
0000
0002
0000
1000
0000
1003
0000
0100
0000
,
0001
0000
1000
0000
0010
0100
0001
0000
2000
0000
0000
0000
3010
0000
0100
0000
,
0010
1000
0010
0100
0010
1000
0010
0100
,
1100
0011
0000
1010
0101
0000
1001
0000
,
0010
0000
0001
1000
0010
0000
0100
0000
0010
0000
0001
0000
0010
0000
0100
0000
,
0011
0000
0100
0010
0001
0000
1000
0000
1010
0000
0000
0000
0101
0000
0000
0000
,
0010
0000
1000
0000
0100
0000
1000
0000
0010
0000
1100
0001
0100
0000
1000
0000
,
0110
0101
0020
0030
2100
3000
0201
0300
,
0010
0000
0100
0000
0010
0001
1000
0000
0000
0000
0001
0000
0010
0000
0001
0000
,
0201
0000
0300
1000
0002
0000
0003
0000
0000
0000
0000
0000
0020
0000
0000
0000
,
0130
0000
0000
0000
0001
0000
0000
0000
0100
0000
0000
0000
0002
0000
0000
0000
0000
0000
0000
0000
0000
0000
0000
0000
0113
0000
0000
0000
0000
0000
0001
0000
0000
0100
0000
0000
0001
0000
0000
0000
0000
0000
0000
0000
0000
0000
0000
0000
,
2000
0000
3000
0001
0010
0100
0001
1000
,
0001
0000
0000
0000
0100
0010
0100
0000
0200
0000
0301
0000
0001
0000
0000
0000
,
1001
0000
0000
0000
0001
0100
0010
0000
1000
0000
0010
0000
0100
0000
1000
0000
,
0100
0000
0000
0000
0001
0000
0010
0000
0110
0000
0001
0100
0001
0000
0001
0000
,
1001
1100
0000
0101
1000
0100
1000
0010
,
0001
0000
0000
0000
0000
0000
0000
0000
0000
0000
0000
0000
0010
0000
0000
1000
0000
0000
0100
0000
0000
0000
0000
0000
2000
0000
0000
0000
3200
0000
0000
0000
0302
0000
0000
0000
2003
0000
0000
0000
0000
0000
3000
0000
0000
0000
0000
0000
,
0101
0000
0100
0000
0010
0001
1000
0000
0011
0000
0100
0000
1010
0000
0001
0000
,
2000
3000
0010
0001
1100
0000
0101
1000
,
0010
0000
0100
0000
0010
0000
0001
0000
1000
0000
0000
0000
0100
0000
0010
0001
,
0000
0001
1000
0000
0001
0000
0100
0000
1010
0000
1000
0000
0100
0000
0000
0000
,
0110
0000
0001
1000
0001
0000
1000
0000
0101
0000
0010
0000
1001
0000
0100
0000
,
0000
0000
0001
0000
1000
0000
0001
0000
1010
0000
0001
0100
0001
0000
0001
0000
,
1100
0011
0001
0010
1000
0000
1010
0200
,
0001
1300
0101
0001
0120
0000
0031
1000
,
1100
0000
0001
0000
0100
0001
0010
0000
0101
0000
0100
0000
1010
0000
0000
0000
,
0001
0000
0100
0000
1010
0000
0010
0000
0100
0000
0101
0000
0010
0001
1000
0000
,
0001
0000
0100
0000
0010
0000
0200
0000
0000
0302
0000
0000
0013
0000
0000
1000
0000
0000
1000
0000
0000
0010
0000
0000
,
2000
0000
3000
0000
0001
0010
0001
0000
0010
0000
0001
0000
0200
0000
0300
0000
,
0020
0000
0030
0000
0001
1000
0200
0000
0301
0000
0010
0000
2000
0000
3100
0000
,
0002
0000
0000
0000
0010
0000
0013
0000
1100
0000
0000
0000
0100
0010
1000
0000
,
0020
0032
0023
0030
0200
0000
2300
3020
,
1030
0000
0000
0000
0100
1000
0002
0000
1000
0000
0003
0000
0100
0000
1000
0000
,
0200
0301
0100
2000
3001
0000
1010
0002
,
0003
0000
0001
0000
1000
0000
0100
0000
1000
0000
0001
1000
0110
0000
0010
0000
,
0011
0000
0000
0010
0001
0100
1010
0000
,
0101
0000
0000
0000
1000
0001
0100
0000
1000
0000
0100
0000
0001
0000
0000
0000
,
0110
0000
0100
1000
0011
0100
1001
0010
,
0102
0003
2000
3000
0000
0000
0100
0000
0010
0000
0001
0000
0100
1000
0100
0000
,
1100
0010
0100
0011
1000
0000
0101
0001
,
2000
3000
0001
0000
0020
1030
0001
0000
0001
0000
0100
0000
0010
0000
0000
0000
,
1001
0000
0001
0100
0020
0000
0001
0000
2130
0000
0000
0001
3200
0000
0010
0000
,
0302
0000
1023
0000
1230
1000
0302
0003
,
1010
1001
0000
1100
0021
0000
1130
1000
,
0100
0000
0001
0000
0101
1000
0001
0000
0120
0000
0000
0000
1030
0000
0001
0000
,
0100
0000
0001
0000
1001
0100
0010
0000
0120
0000
0000
0000
0031
0000
1000
0000
,
0100
0001
0000
0000
0010
0011
0000
0001
,
1010
0101
0000
0001
0101
0000
0110
1000
,
1010
0000
0001
0000
0001
1000
0010
0000
1100
0000
0000
0000
1000
0000
0101
0000
,
0011
0000
0001
0100
0001
0000
1000
0000
0101
0000
0100
0000
0011
0000
0100
0000
,
0001
0000
0001
0000
1100
0000
0000
0000
1001
0000
1010
0001
0010
0000
1000
0000
,
0011
0102
0000
2000
0000
0013
0011
0001
,
3010
0000
0001
0000
0001
1000
0100
0000
1000
0000
0001
0000
0001
0000
1000
0000
,
0110
0000
0001
0000
0001
0100
0001
0000
1010
0000
0000
0000
0101
0000
0100
0000
,
0001
0010
1000
0000
0100
0101
0100
0001
,
1100
0011
0000
0001
0100
1000
1010
0001
,
0001
0100
1100
0000
0101
0001
0001
1010
,
1001
0000
0000
0000
0001
0010
0001
0000
2000
0000
0000
0000
3002
0000
0000
0000
,
0003
0000
1000
0200
,
0300
0000
0000
0000
;
