#TITLE:360;
#SUBTITLE:;
#ARTIST:Charli XCX;
#TITLETRANSLIT:;
#SUBTITLETRANSLIT:;
#ARTISTTRANSLIT:;
#GENRE:;
#CREDIT:;
#MUSIC:360.ogg;
#BANNER:360-bn.png;
#BACKGROUND:360-bg.png;
#CDTITLE:;
#SAMPLESTART:41.091;
#SAMPLELENGTH:24.250;
#SELECTABLE:YES;
#OFFSET:1.909;
#BPMS:0.000=120.000;
#STOPS:;
#BGCHANGES:3.409=360.avi=1.000=1=0=0=StretchNoLoop==CrossFade==,
99999.000=-nosongbg-=1.000=0=0=0=StretchNoLoop====
;
#FGCHANGES:;

//--------------- dance-single - Lye ----------------
#NOTES:
     dance-single:
     Lye:
     Easy:
     3:
     0,0,0,0,0:
0000
0000
0000
0000
,
0000
0000
0000
0000
,
0000
0000
0000
0000
,
0000
0000
0000
0000
,
0000
0000
0000
0000
,
0000
0000
0000
0002
,
1003
1000
0100
0000
,
0010
0001
0100
0000
,
0100
0100
0010
0000
,
1000
0000
0200
0000
0000
0300
0000
0000
,
1000
0001
0010
0000
,
0010
0100
1000
0000
,
0000
0100
0010
0100
,
1000
0010
0100
0002
,
0003
0000
0200
0300
,
0010
0000
0100
0010
,
1000
0000
0020
0030
,
0100
0000
0010
0100
,
0001
0000
2000
3000
,
0100
0000
0010
0001
,
0100
0000
0020
0030
,
1000
1001
0000
0000
,
0010
1000
0001
0000
,
0100
0001
0010
0000
,
0010
0100
1000
0100
,
0010
0000
0002
0003
,
0100
0010
1000
0000
,
0001
0010
0100
0000
,
0100
1000
0010
0100
,
0010
0000
2000
3000
,
0001
0000
0000
0010
,
0110
0000
0000
1000
,
1001
0000
0000
0100
,
0110
0000
0000
0000
0000
0000
0020
0030
,
1000
0010
0100
0000
,
0100
0001
0010
0000
,
0100
1000
0001
0010
,
0100
1000
0010
0000
,
0100
0001
0100
0000
,
0001
1001
0000
0000
,
0010
0100
1000
0000
,
0010
0100
0001
0000
,
0000
0000
0200
0300
,
0010
0000
1000
1000
,
0100
0000
0020
0030
,
0001
0000
0100
0010
,
1000
0000
0200
0300
,
1000
0000
0010
1000
,
0001
0000
0000
0000
0200
0000
0000
0300
,
0010
0110
0000
0000
,
0100
0010
1000
0000
,
0100
0010
0001
0000
,
1000
0010
0010
0100
,
0001
0000
0200
0300
,
0001
0001
1000
0000
,
0010
0100
0001
0000
,
0010
0100
1000
0010
,
0100
0000
0002
0003
,
0100
0000
0000
1000
,
1001
0000
0000
0010
,
0110
0000
0000
0001
,
1001
0000
2000
3000
,
0010
0000
0000
0100
,
0110
0000
0000
0001
,
0101
0000
0000
0010
,
1010
0000
2000
3000
,
0100
0000
0000
0000
;

//--------------- dance-single - Lye ----------------
#NOTES:
     dance-single:
     Lye:
     Medium:
     8:
     0,0,0,0,0:
0000
0000
0000
0000
,
0000
0000
0000
0000
,
0000
0000
0000
0000
,
0000
0000
0000
0000
,
0000
0000
0000
0000
,
0000
0000
0000
0002
,
1003
1000
0010
0000
0100
0000
0001
0000
,
0010
0100
1000
0001
,
0100
1000
0100
0000
0001
0000
0010
0000
,
0200
0000
0000
0000
1300
0000
0002
0000
0000
0000
0000
0003
0002
0000
0003
0000
,
0010
0100
0010
0000
0001
0000
1000
0000
,
0100
0100
0010
0000
0001
0100
0001
0000
,
0000
1000
1000
0000
0010
0000
0010
0000
,
0100
0000
0001
0010
0001
0000
2000
0000
,
3000
0000
0000
0010
0200
0000
0300
0001
,
0000
0000
0000
0100
0100
0000
0010
0000
,
1000
0000
0000
0001
0020
0000
0030
0001
,
0000
0000
1000
0000
0010
0000
0100
0010
,
1000
0000
0000
0001
0200
0000
0300
0100
,
0000
0000
0000
0010
0010
0000
2000
3000
,
0000
0000
0000
0100
0020
0030
0000
0002
,
0003
0101
0000
0000
,
1010
0000
0000
0000
0010
0000
0000
1000
0000
0000
0100
0000
0010
0000
0001
0000
,
0100
0000
0000
0000
0001
0000
0000
1000
0000
0000
0010
0000
0100
0000
0001
0000
,
0010
0000
0100
1000
1000
0000
0010
0000
,
0100
0000
0000
0000
0000
0000
0100
0000
0002
0000
0000
0000
0023
0030
0200
0300
,
0020
0030
0000
0000
1000
0000
0000
0000
0100
0000
0000
0000
0001
0000
0100
0000
,
1000
0000
0100
0100
0100
0000
0010
0001
,
0010
0000
0100
1000
0001
0000
0100
0000
,
0010
0000
0000
0000
0000
0000
1000
0000
0020
0000
0000
0000
0230
0300
0002
0003
,
0020
0030
0000
0000
0000
0000
0000
0000
0000
0000
0000
0000
0001
0000
0100
0000
,
0000
0000
0000
0000
0000
0000
1000
0100
,
0000
0000
0000
0000
0000
0000
0100
0010
,
0000
0000
0000
0000
0000
0000
0020
0030
,
0001
0100
0010
0000
1000
0000
1000
0000
,
0100
0010
0100
0000
1000
0001
0010
0000
,
0100
0010
0001
0000
0100
0000
0010
0000
,
1000
0001
0100
0010
1000
0000
1100
0000
,
0001
0000
0001
0000
0100
0010
0100
0000
,
0001
1001
0000
0000
,
0010
0010
0010
0000
0100
1000
0100
0000
,
0010
0001
0100
0010
,
0000
0000
0000
0100
0200
0000
0000
0301
,
0000
0000
0000
0010
0200
0000
0000
1300
,
0000
0000
0000
0100
2000
0000
0000
3001
,
0000
0000
0000
0000
0000
0000
0100
0000
0100
0000
0000
0000
0020
0030
2000
3000
,
0200
0300
0000
0000
0000
0000
0010
0000
0002
0000
0000
0000
0000
0000
0103
0000
,
0000
0000
0000
0010
2000
0000
0100
3100
,
0000
0000
0000
1000
0002
0000
0000
0103
,
0000
0010
0000
0000
,
1000
0000
0000
0000
0000
0100
0010
0000
,
0100
0000
0000
0000
0000
0010
0001
0000
,
1000
0000
0000
0000
0000
0010
0010
0000
,
1000
0000
0000
0000
0000
0000
0001
0000
0200
0000
0000
0000
0320
0030
2000
3000
,
0002
0003
0000
0000
0001
0000
0000
0100
0000
0000
0010
0000
0100
0000
0001
0000
,
0010
0000
0100
0100
0100
0000
1000
0100
,
0010
0000
0001
0000
1000
0000
0010
1000
,
0001
0000
0000
0000
0000
0000
0010
0000
0200
0000
0000
0000
0320
0030
0002
0003
,
2000
3000
0000
0000
0000
0000
0000
0000
0000
0000
0000
0000
1000
0000
1000
0000
,
0000
0000
0000
0000
0000
0000
0010
0010
,
0000
0000
0000
0000
0000
0000
0100
0100
,
0000
0000
0000
0000
0000
0000
0001
0000
2000
0000
0000
0000
3020
0030
0200
0300
,
0002
0003
0000
0000
0000
0000
0000
0000
0000
0000
0000
0000
0010
0000
0010
0000
,
0000
0000
0000
0000
0000
0000
0001
0100
,
0000
0000
0000
0000
0000
0000
0010
0010
,
0000
0000
0000
0000
0000
0000
1000
0000
0002
0000
0000
0000
0203
0300
0020
0030
,
2000
3000
0000
0000
0000
0000
0000
0000
;

//--------------- dance-single - Lye ----------------
#NOTES:
     dance-single:
     Lye:
     Hard:
     12:
     0,0,0,0,0:
0000
0000
0000
0000
,
0000
0000
0000
0000
,
0000
0000
0000
0000
,
0000
0000
0000
0000
,
0000
0000
0000
0000
,
0000
0000
0000
0002
,
1003
1000
0010
0100
0010
1000
0100
0010
,
0001
0001
0100
0010
1000
1000
0001
0010
,
0100
1000
1000
0010
0100
0001
0010
0100
,
2000
0000
0000
0000
3001
0000
0020
0000
0000
0000
0000
0030
0020
0000
0030
0000
,
0010
0001
0001
0100
0010
1000
1000
0100
,
0010
0100
1000
0010
0100
0001
0100
0010
,
0000
1000
1000
0100
0010
0001
0001
0001
,
0100
0100
0010
1000
0010
0000
0200
0000
,
0300
0000
0000
0010
2000
0000
3000
0001
,
0100
0000
0000
0000
0000
0000
0100
0010
0100
0000
0010
0000
0000
0000
1000
0000
,
1000
0100
0010
0001
0020
0000
0030
0001
,
0000
0000
0000
0000
1000
0000
1000
0100
0010
0000
0001
0000
0100
0000
0010
0000
,
1000
0000
0001
0001
0200
0000
0300
0010
,
1000
0000
0000
0000
0000
0000
0100
1000
0100
0000
0010
0000
0002
0003
0002
0003
,
0000
0000
0100
0100
0020
0030
1000
0002
,
0003
0010
0110
0000
0000
1000
0001
0100
,
0101
0000
0000
0000
0010
0000
0010
1000
0000
0000
0100
0000
1000
0000
0001
0000
,
0100
0000
0000
0000
0001
0000
0010
0100
0000
0000
0010
0000
0001
0000
0100
0000
,
0010
0000
0000
0000
1000
0000
0100
0010
0001
0000
0100
0000
0010
0000
1000
0001
,
0100
0000
0000
0000
0010
0000
0100
0000
0002
0000
0000
0000
0023
0030
0200
0300
,
2000
3000
0000
0000
1000
0000
0010
0010
0000
0000
0100
0010
0100
0000
0010
0000
,
1000
0000
0000
0000
1000
0000
0100
0000
0010
0000
0001
0100
0001
0000
0100
0000
,
0010
0000
0000
0000
0100
0000
0010
1000
0100
0000
0010
0000
0100
0000
1000
0010
,
0100
0000
0000
0000
0001
0000
1000
0000
0020
0000
0000
0000
0230
0300
0002
0003
,
0020
0030
0000
0000
0001
0000
1000
0010
0000
0010
1000
0000
0001
0000
0100
0000
,
0000
0000
0010
0000
1000
0000
0001
0100
0000
0001
0010
0000
0100
0000
1000
0000
,
0000
0000
0010
0000
0100
0000
0001
0100
0000
0100
0010
0000
1000
0000
0100
0000
,
0000
0000
0100
0000
0010
0000
0001
0100
0000
0100
0010
0000
2000
0000
3000
0000
,
0001
0100
0100
0010
1000
0100
1000
0010
,
0100
0001
0001
0010
0100
1000
0010
0010
,
0100
0010
1000
0100
0010
0001
0010
0100
,
0010
0100
0001
0010
1100
0000
1001
0000
,
0001
0001
0100
0010
0100
0001
1000
0100
,
0010
0001
0101
0000
0000
0000
0000
0000
,
0010
0010
1000
0100
1000
0001
0100
0010
,
1000
0100
1000
0001
0100
0001
0010
0100
,
0000
0000
0000
1000
0200
0000
0000
1300
,
0010
0000
0000
0000
0000
0000
0010
0100
0001
0000
0010
0000
0000
0000
0001
0000
,
1000
0010
0100
0001
0020
0000
0030
0001
,
0100
0000
0000
0000
0010
0000
0100
0001
1000
0000
0100
0000
0010
0000
0001
0000
,
0100
0000
0000
0010
2000
0000
0000
3001
,
0100
0000
0000
0000
0000
0000
0010
0100
0001
0000
0001
0000
0020
0030
0020
0030
,
0000
0100
1000
1000
0002
0000
0000
0103
,
0110
0000
1010
0000
0000
0010
0001
0100
,
1000
0000
0000
0000
0010
0000
0010
1000
0000
0000
0100
0000
0010
0000
0100
0000
,
1000
0000
0000
0000
0010
0000
0100
0001
0000
0000
0010
0000
0001
0000
0100
0000
,
0010
0000
0000
0000
0100
0000
0010
1000
0100
0000
0100
0000
0010
0000
0001
0100
,
0010
0000
0000
0000
0010
0000
1000
0000
0200
0000
0000
0000
2300
3000
0200
0300
,
0020
0030
0000
0000
0001
0000
0100
0010
0000
0000
1000
0100
0010
0000
0010
0000
,
0001
0000
0000
0000
0100
0000
0100
0000
0100
0000
0010
0100
0001
0000
0010
0000
,
0100
0000
0000
0000
0001
0000
0100
0010
1000
0000
0010
0000
0100
0000
0001
0010
,
0001
0000
0000
0000
0100
0000
0001
0000
2000
0000
0000
0000
3020
0030
0200
0300
,
0002
0003
0000
0000
0100
0000
0010
1000
0000
1000
0001
0000
0010
0000
0100
0000
,
0000
0000
1000
0000
1000
0000
0010
0100
0000
0100
0001
0000
0010
0000
0001
0000
,
0000
0000
0100
0000
0010
0000
1000
0001
0000
0001
0010
0000
0100
0000
1000
0000
,
0000
0000
0100
0000
0010
0000
0100
0000
2000
0000
0000
3000
0020
0030
0200
0300
,
0002
0003
1000
0000
0100
0000
0100
0010
0000
0010
0001
0000
0100
0010
0100
0000
,
0001
0000
0010
0000
0100
0000
1000
0001
0000
0001
0010
0000
0100
1000
0010
0000
,
0000
0000
0100
0000
0001
0000
0100
0010
0000
0010
1000
0000
0100
0010
0100
0000
,
1000
0000
0010
0000
0100
0000
0100
0000
0002
0000
0000
0000
0023
0030
0200
0300
,
2000
3000
0000
0000
0000
0000
0000
0000
;

//--------------- dance-single - Lye ----------------
#NOTES:
     dance-single:
     Lye:
     Challenge:
     15:
     0,0,0,0,0:
0000
0000
0000
0000
,
0000
0000
0000
0000
,
0000
0000
0000
0000
,
0000
0000
0000
0000
,
0000
0000
0000
0000
,
0000
0000
0000
0020
,
1030
0000
0001
0000
0100
0000
0100
0001
0000
0001
0010
0000
0100
0000
1000
0000
,
0010
0000
0100
0000
0001
0000
1000
0010
0000
0010
1000
0000
0100
0000
0010
0000
,
0100
0000
1000
0000
1000
0000
0010
0100
0000
0100
0001
0000
0010
0000
0100
0000
,
2000
0000
0000
0000
3001
0000
0020
0030
0020
0030
0001
0000
0020
0030
0020
0030
,
0001
0000
0010
0100
1000
0000
0010
0000
1000
0000
0100
0000
0011
0000
0100
0000
,
0010
0000
1000
0000
1000
0000
0010
0100
0001
0000
0001
0000
0100
0000
0010
0000
,
0000
0000
1000
0000
0010
0000
1000
0100
0000
0100
0010
0000
0001
0000
0001
0000
,
0100
0000
0100
0000
0010
0000
1000
0001
0000
0001
0100
0000
0020
0030
0020
0030
,
0020
0030
0000
0000
0100
0000
0001
0010
0000
0100
1000
0000
0010
0000
0100
0000
,
0001
0000
0100
0000
0001
0000
0100
0010
0100
0010
1000
0000
M00M
0000
0001
0000
,
0100
0000
0010
0000
1000
0000
1000
0100
0000
0100
0010
0000
0001
0000
0100
0000
,
0001
0000
0001
0000
0100
0000
0010
0100
0001
0000
1000
0100
0010
0000
0001
0000
,
0010
0100
1000
0000
0001
0000
0001
0100
0000
0100
0010
0000
0000
0000
0010
0000
,
1000
0000
0100
0000
0010
0000
0100
1000
0100
0010
0001
0000
0200
0300
0200
0300
,
0000
1010
1001
0101
0021
0030
0100
1000
,
0000
0000
0010
0000
0100
0000
0100
0010
0000
0000
0010
0000
0001
0000
0100
0000
,
1000
0000
0000
0000
0010
0100
0010
0100
0001
0010
0100
1000
0001
0100
0002
0003
,
0200
0300
0000
0000
0010
1000
0010
0100
0001
0010
0001
1000
0100
0010
0200
0300
,
2000
3000
0000
0000
1000
0000
0001
0010
0100
0000
0010
0000
0001
0000
0100
0010
,
1000
0000
1000
0000
0010
0000
0100
0001
0000
0001
0010
0000
0200
0300
2000
3000
,
0002
0003
0000
0000
1000
0100
0010
0001
0100
0010
0100
0010
1000
0100
0020
0030
,
0002
0003
0000
0000
1010
0000
0110
0000
0101
0000
1000
0100
0010
0000
0100
0000
,
1000
0000
0001
0000
0100
0000
0010
1000
0100
0000
0010
0000
0001
0000
1000
0010
,
0100
0000
0001
0000
0001
0000
1000
0010
0000
0010
1000
0000
0200
0300
0020
0030
,
0002
0003
0000
0000
0001
0000
0100
0010
0000
1000
0010
0000
0100
0010
1000
0000
,
0000
0000
0100
0000
0010
0000
0001
0100
0000
0010
1000
0000
0100
0010
0001
0000
,
0000
0000
0010
0000
0100
0000
0001
0100
0000
0100
0010
0000
1000
0010
0100
0000
,
0000
0000
0100
0000
0010
0000
1000
0100
0000
0100
0010
0000
0002
0000
0003
0000
,
0100
0000
0010
0000
1000
0000
0010
1000
0000
1000
0100
0000
1000
0000
0010
0000
,
0100
0000
0001
0000
0001
0000
0010
0001
0000
0001
1000
0000
0010
0000
0010
0000
,
0100
0000
0110
0000
1010
0000
0100
0010
0001
0000
0001
0000
0010
0000
0100
0000
,
0110
0000
0100
0000
1100
0000
1000
0010
0000
0100
0010
0000
1000
0001
0000
0010
,
0100
0000
1000
0000
0100
0000
0010
0100
0000
0010
0001
0000
1000
0000
0010
0000
,
0100
0000
0001
0000
0202
0000
0000
0000
0000
0000
0000
0303
0L0L
0000
1000
0000
,
0010
0000
0100
0000
0100
0000
0001
0100
0000
0100
0010
0000
1000
0000
0010
0000
,
1010
0101
0011
1100
0010
0001
0110
0101
,
0000
0000
0000
0000
0010
0000
1000
0001
0000
0001
0100
0000
0010
0000
1000
0000
,
0100
0000
0010
0000
0100
0000
1000
0100
0010
0001
0100
0000
MMMM
0000
0001
0000
,
1000
0000
0010
0000
0100
0000
0001
0100
0000
0100
0010
0000
1000
0000
0100
0000
,
1000
0000
0010
0000
0001
0000
0010
0001
0000
0010
0100
0000
2000
3000
0020
0030
,
0200
0300
0000
0000
0001
0000
0010
0100
0000
0100
1000
0000
0010
0000
0001
0000
,
0100
0000
0010
0000
1000
0000
0010
0100
0001
0010
0100
0000
0020
0030
0020
0030
,
0000
0000
0001
0000
1000
0000
0010
0100
0000
0100
0001
0000
0010
0000
0100
0000
,
1100
0000
0010
0000
1010
0000
0100
0001
0000
0000
1000
0000
0100
0000
0001
0000
,
0010
0000
0000
0000
0010
0001
0010
0100
1000
0010
0100
0001
0010
0100
2000
3000
,
0020
0030
0000
0000
0010
0100
0001
1000
0010
0100
0001
0010
0100
1000
0200
0300
,
0020
0030
0100
0000
1000
0000
0010
0100
0000
0100
0001
0000
1000
0000
0001
0100
,
0010
0000
1000
0000
0100
0000
0010
0001
0000
1000
0100
0000
0020
0030
0200
0300
,
2000
3000
0000
0000
0010
0100
0001
1000
0010
0100
0001
1000
0100
0010
0002
0003
,
0200
0300
0000
0000
1100
0000
0110
0000
1100
0000
0010
0100
0001
0000
0001
0000
,
0010
0000
0100
0000
0100
0000
1000
0010
0000
0100
0001
0000
0010
0000
0100
0010
,
0001
0000
0100
0000
0100
0000
0001
1000
0000
1000
0010
0000
0020
0030
0200
0300
,
0002
0003
0000
0000
0010
0000
0100
1000
0000
1000
0010
0000
0010
0100
0001
0000
,
0000
0000
0010
0000
0100
0000
1000
0100
0000
0100
0010
0000
0001
0100
0010
0000
,
0000
0000
0100
0000
0010
0000
1000
0010
0000
0100
0001
0000
0010
0100
1000
0000
,
0000
0000
0100
0000
0010
0000
0001
0100
0000
0100
0001
0000
0020
0030
0002
0003
,
0200
0300
0010
0000
0100
0000
0001
0010
0000
0100
1000
0000
0100
0010
0100
0000
,
0010
0000
0001
0000
1000
0000
1000
0100
0000
0010
0001
0000
0100
0010
1000
0000
,
0000
0000
0010
0000
0100
0000
0001
0100
0000
0100
0010
0000
1000
0100
0010
0000
,
0001
0000
0010
0001
0100
0000
0100
0010
0000
0010
1000
0000
0002
0003
0200
0300
,
0020
0030
0000
0000
0000
0000
0000
0000
;
