#TITLE:1 Night;
#SUBTITLE:;
#ARTIST:Mura Masa, Charli XCX;
#TITLETRANSLIT:;
#SUBTITLETRANSLIT:;
#ARTISTTRANSLIT:;
#GENRE:;
#CREDIT:;
#MUSIC:1night.ogg;
#BANNER:1night-bn.png;
#BACKGROUND:1night-bg.png;
#CDTITLE:;
#SAMPLESTART:42.168;
#SAMPLELENGTH:28.404;
#SELECTABLE:YES;
#OFFSET:1.632;
#BPMS:0.000=113.014
,208.000=226.028
,210.000=113.014
;
#STOPS:80.000=1.062;
#DISPLAYBPM:113.014;
#BGCHANGES:2.490=1night-mv.avi=1.000=1=0=0=StretchNoLoop==CrossFade==,
99999.000=-nosongbg-=1.000=0=0=0=StretchNoLoop====
;
#FGCHANGES:;

//--------------- dance-single - Lye ----------------
#NOTES:
     dance-single:
     Lye:
     Easy:
     2:
     0,0,0,0,0:
0000
0000
0000
0000
,
0001
0000
0010
0000
,
0010
0000
0000
0000
,
1000
0000
0100
0000
,
0100
0000
0000
0000
,
2000
0000
0000
0000
,
0000
0000
3000
0000
,
0020
0000
0000
0000
,
0000
0000
0030
0000
,
0020
0000
0000
0000
,
0000
0000
0030
0000
,
0200
0000
0000
0000
,
0000
0000
0300
0000
,
0001
0000
1000
0000
,
0010
0000
0000
0000
,
1000
0000
0001
0000
,
0020
0000
0030
0001
,
0010
0000
0100
0000
,
0100
0000
0000
0000
,
0010
0000
0001
1000
,
0100
0000
1000
0000
,
0001
0000
1000
1000
,
0100
0000
0001
0001
,
0100
0000
1000
1000
,
0010
0000
0100
0000
,
0001
0000
1000
0010
,
1000
0000
0001
0010
,
0001
0000
1001
0000
,
0110
0000
0000
1000
,
0001
0000
0010
0100
,
0010
0000
0001
0000
,
0100
0000
0010
1000
,
0010
0000
0100
0000
,
0010
0000
1000
1000
,
0100
0000
0010
0000
,
0001
0000
0100
0100
,
0010
0000
2000
0000
,
0000
0000
0000
0000
,
3000
0000
0200
0000
,
0000
0000
0000
0000
,
0000
0300
0000
0000
2000
0000
0000
0000
,
0000
0000
0000
0000
,
3000
0000
0020
0000
,
0000
0000
0000
0000
,
0030
0000
0100
0000
,
0001
0000
1000
0000
,
0000
0000
0010
0000
,
1000
0000
0001
0000
,
0000
0000
0000
0000
,
0100
0000
0010
0000
,
1000
0000
0000
0000
,
0010
0100
0010
0100
,
0002
0000
0003
0001
,
0001
1000
0000
0010
,
0000
0000
0000
1000
,
0000
0000
0000
0001
,
0000
0000
0000
0010
,
0010
0100
0000
1000
,
0000
0001
0000
0010
,
0000
0100
0000
0110
,
0000
1001
0000
0000
,
1000
0010
0000
0010
,
1000
0001
0000
0010
,
0000
0100
0000
0010
,
0001
0100
0000
0000
,
0010
1000
0000
0001
,
0000
1000
0000
0010
,
0010
0100
0000
0001
,
0000
1000
0000
0000
;

//--------------- dance-single - Lye ----------------
#NOTES:
     dance-single:
     Lye:
     Medium:
     5:
     0,0,0,0,0:
0000
0000
0000
0000
,
0001
0000
0010
0000
,
0100
0000
0000
0000
,
1000
0000
0010
0000
,
0100
0000
0000
0000
,
0200
0000
0001
0001
,
0000
0000
0000
0001
0300
0000
0000
0000
,
0020
0000
1000
1000
,
1000
0000
0030
0000
,
0002
0000
1000
1000
,
0000
0000
0000
0100
0003
0000
0200
0300
,
0200
0000
0010
0001
,
0001
0000
0300
0000
,
0001
0000
1000
0000
,
0010
0000
0000
0000
0100
0100
0100
0000
,
0010
0000
1000
0001
,
0020
0000
0000
0000
0030
0000
0001
0001
,
0000
0000
0000
0000
0100
0000
0000
0010
,
0000
0000
1000
0000
1000
1000
1000
0000
,
0010
0000
0100
0001
,
0010
0000
0010
0010
,
0100
0000
0100
0000
0010
0000
0000
1000
,
0000
0000
0100
0000
0010
0000
0000
0001
,
0000
0000
0010
0000
0100
0000
0000
1000
,
0000
0000
0100
0000
,
0010
0000
0001
0000
0010
0000
0000
0100
,
0000
0000
0001
0000
0010
0000
0000
0100
,
0000
0000
0000
0000
1010
0000
0000
0010
,
0200
0000
0301
1000
,
0001
0000
0000
0000
0010
0000
0000
0100
,
0000
1000
0010
0010
,
0100
0000
0000
0000
0001
0000
0000
0100
,
0000
0100
0100
0000
0010
0000
0000
0000
,
0010
0000
1000
0000
0001
0000
0000
0100
,
0000
0000
0010
0010
,
1000
0000
0100
0000
0010
0000
0000
0001
,
0000
0100
0020
0000
,
1000
0000
1000
0000
0000
0000
0000
0100
,
0030
0000
0010
0010
0200
0000
0000
0000
,
0001
0001
0001
0000
,
0000
0300
0000
0000
2000
0000
0000
0000
,
0010
0000
0010
0000
0000
0000
0000
0001
,
3000
1000
1000
0000
0020
0000
0000
0000
,
1000
0100
0100
0000
,
0030
0100
0001
0100
0000
0000
0000
0000
,
0010
0000
1000
0000
1000
0000
0000
0010
,
0000
0000
2000
3000
0020
0030
0000
0000
,
1000
0000
1000
0000
0010
0100
0001
0020
,
0000
0031
0000
0000
,
0100
0010
0010
1000
,
0001
0100
0001
0000
0000
0000
0000
0000
,
0010
0001
1000
0100
,
0020
0000
0030
0001
,
0001
1000
0010
0010
,
0000
0100
0000
0000
0001
0000
0010
0000
,
0000
0100
0000
0000
0001
0000
0010
0000
,
0000
0100
0000
0000
0000
0000
1000
0000
,
0010
0100
0010
1000
,
0000
0100
0000
0000
0010
0000
1000
0000
,
0000
0100
0000
0000
0010
0000
0011
0000
,
1001
0102
0000
1003
,
1000
0010
0000
0010
,
1000
0000
0001
0001
0001
0000
0010
0000
,
0010
0100
1000
0010
,
0000
0100
0000
0001
0001
0000
1000
0000
,
0010
1000
0100
0010
,
0000
0001
0000
0100
0100
0000
0001
0000
,
0010
0100
1000
0001
,
0000
1000
0000
0010
0010
0000
0000
0000
;

//--------------- dance-single - Lye ----------------
#NOTES:
     dance-single:
     Lye:
     Hard:
     11:
     0,0,0,0,0:
0000
0000
0000
0000
,
0001
0000
0000
0001
0000
0000
0000
0000
0010
0000
0000
0000
0000
0000
0000
0000
,
0100
0000
0000
1000
0000
0000
1000
0000
0000
0000
0000
0000
0000
0000
0000
0000
,
1000
0000
0000
1000
0000
0000
0000
0000
0010
0000
0000
0000
0000
0000
0000
0000
,
0100
0000
0000
0001
0000
0000
0000
0000
0000
0000
0000
0000
0000
0000
0000
0000
,
0200
0000
0000
0001
0000
0000
0300
0000
0001
0000
0000
0001
0000
0000
0200
0000
,
0000
0010
0000
0000
0001
0000
0001
0000
0000
0000
0300
0000
0020
0000
0030
0000
,
0020
0000
0000
0000
0000
0000
0030
0000
1000
0100
1000
0000
0100
0000
0010
0000
,
0200
0000
0000
0010
0000
0000
0010
0000
0300
0000
0000
0000
0000
0000
0000
0000
,
0002
0000
0000
1000
0000
0000
1000
0003
0010
0000
0000
1000
0000
0000
0001
0000
,
0000
0100
0000
0000
0010
0000
2000
0000
0000
3000
0000
0000
0200
0000
0320
0000
,
0230
0000
0000
0000
0000
0000
0300
0000
1000
0010
0100
0000
0001
0000
0100
0000
,
0020
0000
0030
0000
,
0002
0000
0000
0100
0000
0000
0000
0000
1003
0000
0000
0010
0000
0000
0100
0000
,
0000
0010
0000
0000
1000
0000
1000
0000
0100
0000
0100
0000
0100
0000
0000
0000
,
0010
0000
0000
0001
0000
0000
0000
0000
1000
0100
0010
0000
0001
0000
0000
0000
,
0020
0000
0000
0001
0000
0000
0000
0000
0030
0000
0001
0000
0100
0000
0100
0000
,
0020
0000
0000
1000
0000
0000
0030
0000
0100
0000
0000
0100
0000
0000
0010
0000
,
0000
1000
0000
0000
1000
0000
0001
0000
0100
0000
0100
0000
0200
0000
0320
0000
,
0000
0000
0000
0030
0000
0000
0000
0000
0100
0000
0100
0001
0100
0000
0010
0000
,
1000
0000
1000
0100
1000
0000
0010
0000
0010
0000
0000
0000
0000
0000
0001
0000
,
1000
0000
0000
0000
0100
0000
0000
0000
0010
0000
0000
0100
0000
0000
1000
0000
,
0000
0000
0000
0000
0100
0000
0000
0000
0010
0000
0000
0100
0000
0000
1000
0000
,
0000
0000
0000
0000
0100
0000
0000
0000
0010
0000
0000
0100
0000
0000
1000
0000
,
0000
0000
0100
0010
0100
0000
0001
0000
0100
0000
0000
0000
0000
0000
0010
0000
,
1000
0000
0000
0000
0001
0000
0000
0000
0100
0000
0000
0010
0000
0000
1000
0000
,
0000
0000
0000
0000
0001
0000
0000
0000
0100
0000
0000
0010
0000
0000
1000
0000
,
0000
0000
0001
0100
0001
0010
0001
0000
1100
0000
0000
0011
0000
0000
0010
0000
,
0200
0000
0000
0000
0000
0000
0000
0000
1300
0000
0000
0001
1000
0000
0100
0000
,
0010
0000
0000
0000
0001
0000
0100
0000
0010
0000
0000
1000
0000
0000
0100
0000
,
0000
0000
1000
0000
1000
0000
0000
0000
0010
0000
0000
0100
0010
0000
0100
0000
,
0001
0000
0000
0000
0100
0000
0000
0000
0010
0000
0000
0100
0000
0000
0001
0000
,
0000
0000
0100
0000
0100
0000
0000
0000
0010
0000
0000
1000
0010
0000
0100
0000
,
0001
0000
0000
0000
1000
0000
0100
0000
0010
0000
0000
0001
0000
0000
0100
0000
,
0000
0000
0010
0000
0010
0000
0000
0000
0010
0000
0000
0100
0001
0000
0010
0000
,
0100
0000
0000
0000
0100
0000
0010
0000
0001
0000
0000
1000
0000
0000
0100
0000
,
0000
0000
0000
0000
1000
0100
1000
0000
0020
0000
0000
0000
0000
0000
0030
0000
,
1000
0000
0000
0010
0000
0000
0100
0000
0000
0001
0000
0000
0010
0000
0001
0000
,
0000
0010
0010
0000
0200
0000
0000
0300
,
1000
0000
0100
0000
1000
0000
0010
0000
0100
0000
0000
0001
0000
0000
0001
0000
,
0000
0000
0100
0000
0100
0000
0000
0000
0020
0000
0000
1000
0000
0000
0130
0000
,
1000
0000
0000
0010
0000
0000
0100
0000
0000
0001
0000
0000
0010
0000
0001
0000
,
0000
1000
1000
0000
0020
0000
0000
0030
,
1000
0100
1000
0000
0010
0000
0100
0000
0001
0000
0000
1000
0000
0000
0001
0000
,
0000
0000
0100
0000
0010
0000
0100
0000
0010
0000
0000
1000
0000
0000
0100
0000
,
0010
0000
0000
0001
0000
0000
1000
0000
0000
0010
0000
0000
0100
0000
0010
0000
,
1000
1000
1000
0000
0002
0000
0000
0003
,
1000
0000
0010
1000
0100
0000
0000
0010
0001
0000
0001
0000
0100
0000
0020
0000
,
0000
0000
1000
0000
1030
0000
0000
0000
0100
0000
0000
0010
0100
0000
1000
0000
,
0001
0000
0000
0010
0000
0000
0001
0000
0000
1000
0000
0000
0100
0000
1000
0000
,
0001
0000
0100
0000
0002
0000
0000
0000
0000
0000
0000
0000
0000
0003
0000
0000
,
0011
0101
1010
1100
,
0002
0000
0000
0000
0000
0000
0000
0000
0000
0000
0003
0000
0010
0000
0000
0001
,
1000
0000
0100
0000
0010
0000
0000
0000
0001
0000
0100
0000
0010
0000
0000
1000
,
0000
0000
0100
0000
0000
0000
0000
0000
0001
0000
0100
0000
0010
0000
0000
1000
,
0000
0000
0100
0000
0000
0000
0000
0000
0001
0000
0100
0000
0010
0000
0000
1000
,
0000
0000
0100
0000
0000
0000
0000
0000
0100
0000
0000
0000
0010
0000
0000
0001
,
0010
0000
0100
0000
0010
0000
0000
0000
0001
0000
0100
0000
0010
0000
0000
0100
,
0000
0000
0001
0000
0000
0000
0000
0000
0001
0000
0100
0000
0010
0000
0000
0100
,
0000
0000
0000
0001
0000
0000
0000
0000
0000
0000
0000
0000
0001
0000
0000
0100
0000
0000
0010
0000
1000
0000
0010
0000
,
0100
0000
0001
0000
0012
0000
0000
0000
0000
0000
0000
0000
1003
0000
0000
0010
,
1000
0000
0010
0000
0100
0000
0000
0000
0001
0000
0010
0000
0100
0000
0000
1000
,
0000
0000
0010
0000
0100
0000
0001
0000
0001
0000
0000
0000
0010
0000
0000
0100
,
0010
0000
0001
0000
0100
0000
0000
0000
0010
0000
1000
0000
0010
0000
0000
0100
,
0000
0000
0001
0000
0000
0000
1000
0000
1000
0000
0000
0000
0100
0000
0000
0010
,
0100
0000
1000
0000
0010
0000
0000
0000
0010
0000
0100
0000
0001
0000
0000
1000
,
0000
0000
0010
0000
0000
0000
0100
0000
0100
0000
0000
0000
0001
0000
0000
0100
,
0010
0000
1000
0000
0100
0000
0000
0000
0010
0000
0001
0000
0001
0000
0000
0100
,
0000
0000
0010
0000
0000
0000
1000
0000
1000
0100
0010
0000
0000
0000
0000
0000
;

//--------------- dance-single - Lye ----------------
#NOTES:
     dance-single:
     Lye:
     Challenge:
     13:
     0,0,0,0,0:
0000
0000
0000
0000
,
0001
0000
0000
0001
0000
0000
0100
0000
0010
0000
0000
0000
0000
0000
0000
0000
,
0100
0000
0000
0001
0000
0000
0010
0000
0000
0000
0000
0000
0000
0000
0000
0000
,
1000
0000
0000
1000
0000
0000
0010
0000
0100
0000
0000
0000
0001
0000
0000
0000
,
1000
0000
0000
0010
0000
0000
0000
0000
0000
0000
0000
0000
0000
0000
0000
0000
,
0100
0000
0000
0001
0000
0000
1000
0000
0001
0000
0000
0001
0000
0000
0100
0000
,
0000
0010
0000
0000
1000
0000
0002
0000
0000
0003
0000
0000
0010
0000
0010
0000
,
0000
0000
0000
0000
0000
0000
0100
0000
1000
0100
1000
0100
0010
0000
0001
0000
,
0200
0000
0000
0010
0000
0000
0010
0000
0300
0000
0000
0000
0000
0000
0000
0000
,
0002
0000
0000
1000
0000
0000
1003
0000
0010
0000
0000
0100
0000
0000
0001
0000
,
0000
0100
0000
0000
0010
0000
2000
0000
0000
3000
0000
0000
0100
0000
0100
0000
,
0002
0000
0000
1000
0000
0000
0013
0000
0010
0001
0010
0001
1000
0000
0100
0000
,
0020
0000
0000
0001
0000
0000
0001
0000
0030
0000
0000
0000
0000
0000
0000
0000
,
0001
0000
0000
0100
0000
0000
0010
0000
1000
0000
0000
0010
0100
0000
0001
0000
,
0000
0010
0000
0001
1000
0000
1000
0000
0100
0000
0100
0000
0100
0000
0000
0000
,
0010
0000
0000
0001
0000
0000
0100
0000
0010
0100
0010
1000
0100
0000
0000
0100
,
0010
0001
0100
1000
0000
1000
0100
0100
,
0020
0000
0000
1000
0000
0000
0130
0000
0100
0000
0000
0001
1000
0000
0010
0000
,
0000
1000
0000
0001
1000
0000
0001
0000
0100
0000
0100
0000
0010
0000
0020
0000
,
0000
0000
0000
0030
0000
0000
0010
0000
0100
0010
0100
0001
0100
0000
0010
0000
,
1000
0000
1000
0100
1000
0000
0010
0000
0010
0000
0000
0100
0001
0000
0001
0000
,
1000
0000
0000
0000
0100
1000
0100
0000
0010
0000
0001
1000
0000
1000
0100
0000
,
0000
0000
0100
0010
0100
1000
0100
0000
0010
0000
0001
1000
0000
1000
0100
0000
,
0000
0000
0100
0010
0100
1000
0100
0000
0010
0000
0001
1000
0000
1000
0100
0000
,
1000
0000
0100
0010
0100
1000
0010
0000
0100
0000
0000
0001
0100
0000
0010
0000
,
1000
0000
0000
0000
0001
0010
0001
0000
0100
0000
0010
1000
0000
1000
0010
0000
,
0000
0000
0010
0100
0001
0010
0100
0000
0100
0000
0010
1000
0000
1000
0010
0000
,
0000
0000
0001
0100
0001
0010
0001
0000
1100
0000
0000
0011
0000
0000
1010
0000
,
0101
0000
0000
0010
1000
0100
1000
0000
1000
0000
0000
0001
1000
0000
0100
0000
,
0010
0000
0000
0000
0001
0000
0100
0000
0010
0000
0000
1000
0000
0000
0100
0000
,
0000
0000
1000
0000
1000
0000
0000
0000
0010
0000
0000
0100
0010
0000
0100
0000
,
0001
0000
0000
0000
0100
0000
0000
0000
0010
0000
0000
0100
0000
0000
0001
0000
,
0000
0000
0100
0000
0100
0000
0000
0000
0010
0000
0000
1000
0010
0000
0100
0000
,
0001
0000
0000
0000
1000
0000
0100
0000
0010
0000
0000
0001
0000
0000
0100
0000
,
0000
0000
0010
0000
0010
0000
0000
0000
0010
0000
0000
0100
0001
0000
0010
0000
,
0100
0000
0000
0000
0100
0000
0010
0000
0001
0000
0000
1000
0000
0000
0100
0000
,
0000
0000
0000
0000
0000
0000
0100
1000
0100
0000
1000
0000
0100
0000
0000
0000
0020
0000
0000
0000
0000
0000
0001
0000
0000
0000
0000
0000
0031
0000
0000
0000
,
1000
0000
0000
0010
0100
0000
0100
0000
0000
0001
0000
0100
0010
0000
1000
0000
,
0000
0000
0010
0000
0010
0000
0000
0000
0200
0000
0000
0001
0000
0000
0310
0000
,
0100
0010
1000
0000
0001
0000
0010
0000
0100
0000
0000
1000
0000
0000
0001
0000
,
0000
0000
0100
0000
0100
0000
0000
0000
0020
0000
0000
1000
0000
0000
0130
0000
,
1000
0000
0000
0010
1000
0000
0100
0000
0000
1000
0000
0001
0010
0000
0100
0000
,
0000
0000
1000
0000
1000
0000
0000
0000
0020
0000
0000
0100
0000
0000
0130
0000
,
0001
0100
0010
0000
1000
0000
0010
0000
0100
0000
0100
0001
0000
0000
0001
0000
,
0000
0000
0100
0000
0010
0000
0100
0000
0020
0000
0000
1000
0000
0000
0130
0000
,
0010
0000
0000
0001
0100
0000
0010
0000
0000
1000
0000
1000
0100
0000
0010
0000
,
0001
0000
0001
0000
0001
0000
0000
0000
0020
0000
0000
0001
0000
0000
0130
0000
,
1000
0100
0010
0001
0100
0000
0000
0010
1000
0000
0001
0000
0100
0000
0010
0000
,
1000
0000
1000
0000
1000
0000
0000
0000
0100
0000
0000
0010
0100
0000
1000
0000
,
0001
0000
0000
0100
0010
0000
1000
0000
0000
1000
0000
0010
0100
0000
0001
0000
,
1000
0000
0100
0000
2000
0000
0020
0000
0000
0000
0000
0000
0000
3030
0000
0000
,
0011
0101
1100
1010
,
0200
0000
0000
0000
0000
0000
0000
0000
0000
0000
0300
0000
0001
0000
0000
1000
,
0001
0000
0100
0000
0010
0000
0000
0000
0010
1000
0100
0000
0010
0000
0010
0001
,
0000
0001
0100
0000
0000
0000
0010
0100
0010
1000
0100
0000
0010
0000
0010
0001
,
0000
0001
0100
0000
0000
0000
0010
0100
0010
1000
0100
0000
0010
0000
0010
0001
,
0000
0001
0100
0000
0000
0000
0100
1000
0100
0010
0001
0000
0100
0000
0000
0010
,
1000
0000
0100
0000
0010
0000
0000
0000
0001
1000
0010
0000
0100
0000
0010
0100
,
0000
0100
0001
0000
0000
0000
0001
1000
0001
1000
0010
0000
0100
0000
0010
0100
,
0000
0000
0000
0100
0000
0000
0001
0000
0000
0000
0000
0000
0000
0000
0000
0000
0000
0000
0001
0000
0000
1000
0000
0000
0001
0000
0000
1000
0000
0000
0010
0000
0000
0000
0000
0000
0100
0000
0000
0000
0010
0000
0000
0000
1000
0000
0000
0000
,
0010
0000
0100
0000
0101
0000
1000
0100
0010
0001
0100
0000
1010
0000
0000
0010
,
1000
0000
0010
0000
0100
0000
0000
0000
0001
0000
0010
0000
0100
0000
0000
1000
,
0000
0000
0010
0000
0100
0000
0001
0000
0001
0000
0000
0000
0010
0000
0000
0100
,
0010
0000
0001
0000
0100
0000
0000
0000
0010
0000
1000
0000
0010
0000
0000
0100
,
0000
0000
0001
0000
1000
0000
1000
0000
1000
0000
0000
0000
0100
0000
0000
0010
,
0100
0000
1000
0000
0010
0000
0000
0100
0001
0000
0100
0000
0010
0000
0000
1000
,
0000
0000
0010
0000
0100
0000
0100
0000
0100
0000
0000
0000
0001
0000
0000
0100
,
0010
0000
1000
0000
0100
0000
0010
0001
0100
0001
0100
0000
0010
0000
0010
1000
,
0000
0000
1000
0000
0010
0000
0000
0000
0100
0000
0000
0000
0001
0000
0000
1000
0010
0000
0100
0000
0001
0000
0000
0000
0000
0000
0000
0000
0000
0000
0000
0000
;
