#TITLE:SO DEEP (PERFECT SPHERE REMIX);
#SUBTITLE:("GROOVE RADAR" Special);
#ARTIST:SILVERTEAR;
#TITLETRANSLIT:SO DEEP (PERFECT SPHERE REMIX);
#SUBTITLETRANSLIT:("GROOVE RADAR" Special);
#ARTISTTRANSLIT:;
#GENRE:Trance;
#CREDIT:;
#MENUCOLOR:#09FC02;
#METERTYPE:DDR;
#BANNER:SO DEEP (PERFECT SPHERE REMIX) (GROOVE RADAR Special)-bn.png;
#BACKGROUND:SO DEEP (PERFECT SPHERE REMIX) (GROOVE RADAR Special)-bg.png;
#LYRICSPATH:;
#CDTITLE:./CDTITLES/Dancemania The Best of World Trance -FANTASIA-.png;
#MUSIC:SO DEEP (PERFECT SPHERE REMIX).mp3;
#OFFSET:-0.054;
#SAMPLESTART:6.890;
#SAMPLELENGTH:12.000;
#SELECTABLE:YES;
#LISTSORT:;
#BPMS:0.000=140.000;
#STOPS:;
#BGCHANGES:;
#ATTACKS:;

//---------------dance-single - Groove Radar Special----------------
#NOTES:
     dance-single:
     Groove Radar Special:
     Challenge:
     9:
     1.000,1.000,1.000,1.000,1.000: // measure 1
0000
0000
0000
0000
,  // measure 2
0000
0000
0000
0000
,  // measure 3
0000
0000
0000
0000
,  // measure 4
0000
0000
0000
0000
,  // measure 5
1000
0001
0000
0100
0010
0000
0100
0010
0000
0001
1000
0000
0010
1000
0100
0000
,  // measure 6
1000
0010
0000
0100
0010
0000
0100
0001
0000
0010
1100
0000
0011
0000
1100
0000
,  // measure 7
1000
0010
0000
0100
0001
0000
0100
1000
0000
0100
0011
0000
1100
0000
0011
0000
,  // measure 8
0100
1000
0000
0100
1000
0000
0010
0100
0000
0001
1000
0000
0011
0000
1100
0000
,  // measure 9
0100
1000
0000
0010
0100
0000
0001
0100
0000
0010
1000
0000
1100
0000
0011
0000
,  // measure 10
1000
0100
0000
0010
1000
0000
0001
0010
0000
1000
0001
0000
0110
0000
0110
0000
,  // measure 11
1000
0010
0000
0100
0001
0000
0100
1000
0000
0010
0100
0000
0011
0000
1100
0000
,  // measure 12
1000
0010
0000
0100
0010
0000
0001
0100
0000
1000
0010
0000
0011
0000
1100
0000
,  // measure 13
1000
0100
0000
0010
0100
0000
0001
1000
0000
0100
1000
0000
0011
0000
1100
0000
,  // measure 14
0100
0010
0000
0100
0010
0000
1000
0001
0000
0001
1100
0000
0011
0000
1100
0000
,  // measure 15
1000
0010
0000
0100
0001
0000
0100
1000
0000
0010
1000
0000
1001
0000
1001
0000
,  // measure 16
0010
0100
0000
0001
1000
0000
0100
1000
0000
0001
0100
0000
0011
0000
1100
0000
,  // measure 17
0100
0010
0000
0100
0010
0000
0001
1000
0000
0100
0001
0000
1100
0000
0011
0000
,  // measure 18
0001
0100
0000
1000
0001
0000
0010
0100
0000
1000
0001
0000
0110
0000
0110
0000
,  // measure 19
1000
0010
0000
0100
0001
0000
0100
1000
0000
0010
1000
0000
0011
0000
1100
0000
,  // measure 20
0100
0010
0000
1000
0001
0000
1000
0100
0000
1000
0010
0000
0011
0000
1100
0000
,  // measure 21
1000
0010
0000
0100
0001
0000
0100
1000
0000
0010
0100
0000
0010
1000
0001
0000
,  // measure 22
1000
0010
0000
0100
0001
0000
1000
0100
0000
1000
0010
0000
0011
0000
1100
0000
,  // measure 23
0100
0010
0000
0001
1000
0000
1000
0100
0000
1000
0010
0000
0011
0000
1100
0000
,  // measure 24
1000
0001
0000
0010
0001
0000
0100
1000
0000
0010
0100
0000
0011
0000
1100
0000
,  // measure 25
0100
0010
0000
1000
0001
0000
1000
0100
0000
1000
0010
0000
0011
0000
1100
0000
,  // measure 26
1000
0010
0000
0100
0010
0000
0001
0100
0000
1000
0001
0000
0011
0000
1100
0000
,  // measure 27
1000
0010
0000
0100
0001
0000
0100
1000
0000
0010
0100
0000
0011
0000
0011
0000
,  // measure 28
1000
0010
0000
0100
0010
0000
0001
1000
0000
0100
1000
0000
0011
0000
0011
0000
,  // measure 29
1000
0100
0000
0010
0001
0000
0010
0100
0000
1000
0001
0000
0110
0000
0110
0000
,  // measure 30
1000
0010
0000
0100
0001
0000
0100
1000
0000
0100
0101
0000
1100
0000
0101
0000
,  // measure 31
0010
0100
0000
0001
1000
0000
0100
1000
0000
0010
0100
0000
0011
0000
1100
0000
,  // measure 32
1000
0100
0000
0010
0100
0000
0001
0100
0000
1000
0100
0000
0011
0000
1100
0000
,  // measure 33
0100
1000
0000
0010
0100
0000
0001
1000
0000
0100
1000
0000
0011
0000
1100
0000
,  // measure 34
0100
0010
0000
1000
0001
0000
1000
0100
0000
1000
0010
0000
0011
0000
0011
0000
,  // measure 35
1000
0100
0000
0010
0100
0000
0001
1000
0000
0001
0100
0000
0011
0000
1100
0000
,  // measure 36
0100
1000
0000
0010
0100
0000
0001
0100
0000
1000
0010
0000
0011
0000
1100
0000
,  // measure 37
0000
2000
3000
0200
0320
0030
0002
0003
2000
3200
0300
2000
3002
0003
0220
0330
,  // measure 38
0000
2000
3000
0200
0320
0030
0202
0303
2000
3200
2300
3000
0022
0033
2200
3300
,  // measure 39
0000
0002
0003
0020
0230
0300
2200
3300
0002
2003
3000
0200
0320
0030
2002
3003
,  // measure 40
0000
2000
3000
0002
0203
0300
2002
3003
2000
3002
2003
3000
0220
0330
0220
0330
,  // measure 41
1001
2000
3000
0200
0320
0030
2002
3003
0002
0023
0030
2000
3200
0300
2002
3003
,  // measure 42
0110
2000
3000
0002
0023
0030
2002
3003
2000
3002
0023
0030
2002
3003
2002
3003
,  // measure 43
0011
2000
3000
0002
0203
0300
2002
3003
0020
0230
0300
2000
3002
0003
0220
0330
,  // measure 44
0011
2000
3000
0002
0203
0300
0220
0330
0002
0023
0230
0300
2200
3300
0022
0033
,  // measure 45
1100
0020
0030
0002
0023
0030
2200
3300
0002
2003
3000
0200
0320
0030
0202
0303
,  // measure 46
0110
0002
0003
0200
2300
3000
0220
0330
2000
3002
0023
0030
2200
3300
0022
0033
,  // measure 47
1100
0020
0030
0200
2300
3000
0220
0330
0002
2003
3000
0200
0320
0030
2002
3003
,  // measure 48
1100
0200
0300
0020
0032
0003
2200
3300
0002
2003
3002
0003
0220
0330
2002
3003
,  // measure 49
1000
0200
0310
0002
0203
1300
0020
0130
0002
2003
3100
0020
0032
0103
0002
1003
,  // measure 50
0010
0200
0301
2000
3020
0031
2000
3100
2000
3020
0230
0301
2000
3010
2000
3001
,  // measure 51
1000
0200
0310
0002
2003
3100
2000
3010
0200
0302
1003
0200
0320
0031
0200
0301
,  // measure 52
1000
0020
0130
0002
2003
3100
0020
0031
0200
0302
0203
1300
0002
0013
0200
0301
,  // measure 53
2002
3003
0000
0000
0000
0000
0000
0000
;
