#TITLE:Raibon;
#SUBTITLE:;
#ARTIST:Noizenecio;
#TITLETRANSLIT:;
#SUBTITLETRANSLIT:;
#ARTISTTRANSLIT:;
#GENRE:Hardcore;
#CREDIT:;
#MENUCOLOR:;
#METERTYPE:DDR X;
#BANNER:Raibon-bn.png;
#BACKGROUND:Raibon-bg.png;
#LYRICSPATH:;
#CDTITLE:cdtitle.PNG;
#MUSIC:Raibon.ogg;
#OFFSET:-0.457;
#SAMPLESTART:81.285;
#SAMPLELENGTH:13.000;
#SELECTABLE:YES;
#LISTSORT:;
#BPMS:0.000=190.000;
#STOPS:440.000=0.935
;
#BGCHANGES:;
#ATTACKS:;

//---------------dance-single - Heavy----------------
#NOTES:
     dance-single:
     Heavy:
     Hard:
     13:
     0.594,0.795,0.136,0.020,0.044:
0000
0000
0000
0000
,
0000
0000
0000
0000
,
0000
0000
0000
0000
,
0000
0000
0000
0000
,
0000
0000
0000
0000
,
0000
0000
0000
0000
,
0000
0000
0000
0000
,
0000
0000
0000
0000
,
1000
0100
0010
0001
,
1000
0001
0100
0010
,
1000
0100
0010
0100
,
1000
0001
0100
0010
,
1000
0100
0010
0100
1000
0001
0100
0001
,
1000
0100
0010
0100
1000
0001
0100
0010
,
1000
0100
0010
0001
0010
1000
0010
0001
,
1000
0000
0000
1000
0000
0000
1000
0000
0101
0000
0000
0000
0101
0000
0000
0000
,
1000
0010
1000
0000
0100
0001
0100
0000
,
0100
0010
0100
0000
1000
0010
1000
0000
,
0100
0001
0100
0000
0001
0100
0010
0000
,
0100
0000
1000
0000
0010
0000
0000
0000
0100
0000
0000
0010
0001
0000
0000
0000
,
1000
0010
0100
0000
0001
1000
0001
0000
,
0100
0010
0100
0000
1000
0100
1000
0000
,
0010
0100
0001
0000
0001
0100
0010
0100
,
1000
0000
0000
0010
0100
0000
0010
0000
0001
0000
0010
0000
0002
0000
0000
0003
,
1000
0010
0001
0000
1000
0010
0100
0000
,
0001
1000
0100
0000
0010
0100
0001
0000
,
1000
0000
0100
0000
0001
0000
0000
0000
1000
0000
0000
0010
0001
0000
0000
0000
,
1000
0000
0010
0000
0100
0000
0000
0000
0001
0000
0000
0010
0100
0000
0001
0000
,
1000
0001
1000
0000
0100
0010
0001
0000
,
1000
0100
1000
0000
0001
1000
0010
0000
,
1000
0000
0100
0000
1000
0000
0000
0000
0001
0000
0000
0010
0100
0000
0001
0000
,
1000
0001
0010
0001
,
1000
0000
0010
0000
1000
0010
0100
0000
,
0001
0000
0100
1000
0010
0000
0000
1000
,
0010
0100
0001
0000
0100
1000
0010
0100
,
0010
0000
0001
0100
0001
0000
0100
0010
,
1000
0010
0100
0000
0010
1000
0001
1000
,
0100
0000
1000
0010
0100
0000
0000
1000
,
0100
0001
0100
0000
1000
0010
0100
0010
,
0001
0000
0001
0000
0001
0100
0000
0010
,
0100
0000
1000
0000
0010
1000
0010
0000
,
0100
0000
0001
0100
0001
0000
0010
1000
,
0100
1000
0010
0100
0001
0000
0100
0001
,
0100
0000
1000
0100
1000
0000
0010
0100
,
0010
0001
0100
0001
0101
0000
0001
0100
,
0101
0000
0100
1000
1010
0000
0000
1000
,
0001
0100
0001
0100
0001
0000
0000
1000
,
0010
0100
0010
1000
0001
0000
0000
0000
,
1000
0000
1000
0000
0000
0100
0000
0100
,
0000
0010
0000
0000
0001
0000
0010
0000
,
0001
0000
0100
0000
0000
1000
0010
1000
,
0000
0000
0100
0001
0100
0010
0100
0000
,
1000
0000
0100
0000
0000
0010
0000
0001
,
0000
0010
0000
0000
1000
0000
1000
0000
,
0001
0000
0001
0000
0000
0001
0100
0001
,
0000
0000
0100
1000
0010
0100
0010
0010
,
1000
0001
0100
0000
0001
0100
0010
0000
,
0100
0000
1000
0010
1000
0000
0001
1000
,
0100
0001
0100
0000
0010
1000
0100
1000
,
0010
0000
0100
0001
0100
0010
0100
0000
,
1000
0010
0100
0000
0001
1000
0100
1000
,
0100
0010
0100
0000
0001
0100
0001
0000
,
1100
0000
1010
0000
0000
0011
0010
0011
,
0000
0000
1010
1010
,
1000
0001
0100
0000
0100
0010
0000
0010
,
1000
0001
0100
0000
0010
0000
1000
0000
,
0001
0100
0001
0000
0100
1000
0010
0100
,
0010
0000
0001
0100
1000
0001
1000
0100
,
0010
0000
0100
0000
0100
0010
0000
0001
,
0010
0001
0100
0000
1000
0010
1000
0000
,
0100
0000
0001
0000
0100
0001
0100
1000
,
0010
0000
0100
0010
0100
0001
0100
1000
,
0010
0000
0100
0000
0100
0010
0000
0100
,
0010
0001
0100
0000
1000
0000
1000
0000
,
0100
0001
0100
0000
0001
0100
1000
0010
,
0100
0000
0100
1000
0100
1000
0010
0100
,
0001
0000
0001
0000
0100
1000
0000
1000
,
0110
0000
0001
1010
0000
0100
0101
0000
,
1000
0000
0100
0000
0011
1000
0100
1000
,
0110
0000
0001
1000
0100
0010
0100
0010
,
1000
0000
0100
0000
0001
0100
0000
0001
,
1000
0100
1000
0000
0010
0100
0010
0000
,
0001
0100
0001
0000
0100
1000
0010
0001
,
0100
0000
0100
1000
0001
0100
0010
0000
,
0010
0000
0010
0000
0100
0001
0000
0001
,
0100
0010
0100
0000
1000
0001
1000
0000
,
0100
0000
0010
0000
0001
0100
0001
0100
,
1000
0000
0100
0010
0100
0001
0100
0000
,
1000
0000
0100
0000
0010
0001
0000
0001
,
0100
1000
0010
0000
0100
0010
0100
0000
,
1000
0001
1000
0000
0100
1000
0010
0001
,
0010
0000
0001
0100
1000
0010
0001
0000
,
0100
0000
0010
0000
0001
0100
0000
0100
,
1000
0001
0100
0000
0100
0010
0100
0000
,
1000
0000
0001
0000
0001
0010
0100
1000
,
1010
0000
1000
0100
0001
0010
1000
0000
,
1000
0010
1000
0000
0100
0000
0010
0000
,
0001
0010
0100
1000
,
0001
0100
0010
1000
,
0001
0000
0000
0000
0100
0000
0000
0000
0010
0000
0000
0010
0000
0000
0000
0000
,
1000
0001
0100
0000
1000
0000
0010
0000
,
0100
0001
0100
0010
,
1000
0000
0001
0000
0100
0000
0010
0100
,
1000
0000
0000
0001
0000
0000
0010
0000
1000
0000
0010
0000
0100
0000
0000
0000
,
1000
0001
0100
0000
1000
0000
0010
0000
,
0100
0001
0100
0010
,
1000
0001
0100
0010
,
0100
0000
0010
0000
0001
0000
0100
0010
,
1000
0010
1000
0010
0100
0001
0100
0001
,
1000
0000
0100
0000
0010
0000
0100
0000
1000
0001
0100
0001
1000
0100
0001
0100
,
1000
0000
0000
0000
0010
0000
0000
0010
0000
0000
0010
0000
1001
0000
0000
0000
,
1001
2002
3003
0000
;

//---------------dance-single - Standard----------------
#NOTES:
     dance-single:
     Standard:
     Medium:
     10:
     0.475,0.606,0.102,0.020,0.020:
0000
0000
0000
0000
,
0000
0000
0000
0000
,
0000
0000
0000
0000
,
0000
0000
0000
0000
,
0000
0000
0000
0000
,
0000
0000
0000
0000
,
0000
0000
0000
0000
,
0000
0000
0000
0000
,
1000
0100
0010
0100
,
1000
0001
0100
0010
,
1000
0100
0010
0100
,
1000
0001
0100
0010
,
1000
0100
1000
0100
,
0010
0001
0010
0001
,
1000
0100
0010
0001
0010
0100
1000
0100
,
0001
0000
0000
1000
0000
0000
0001
0000
1010
0000
0000
0000
0101
0000
0000
0000
,
1000
0100
0010
0100
,
1000
0001
0100
0010
,
1000
0100
0010
0001
,
0100
0010
0100
0010
,
1000
0100
0001
0100
,
0010
0100
1000
0001
,
0100
0000
0010
0000
0100
0000
0010
0001
,
0010
0000
0000
0100
0000
0000
0010
0000
1000
0000
0001
0000
2000
0000
3000
0000
,
1000
0100
0010
0100
,
1000
0001
0100
0010
,
0001
0010
0100
1000
,
0001
0000
0100
0000
0010
0000
0100
0010
,
1000
0100
0010
0100
,
1000
0001
0100
0001
,
0100
0010
0100
1000
,
0010
0010
0100
0100
,
1000
0000
0010
0000
0100
0001
0100
0000
,
0100
0000
0010
0100
0010
0000
1000
0000
,
0100
0000
0010
0000
0001
0000
0100
0001
,
0100
0000
1000
0010
1000
0000
0100
0000
,
0001
0000
0100
0000
0010
0000
1000
0100
,
1000
0000
0001
0100
0001
0000
0100
0000
,
0010
0000
1000
0000
0001
0000
0001
0100
,
0001
0000
0100
0000
0010
0010
0000
0010
,
0100
1000
0001
0100
,
0010
0000
1000
0100
1000
0000
0100
0001
,
0100
0000
0010
0000
0100
0000
1000
0100
,
1000
0000
0001
0100
0001
0000
0100
0000
,
1000
0010
0011
0100
,
1010
0100
0101
0100
,
0010
0000
1000
0010
1000
0000
0000
0001
,
0100
0000
0100
0010
0100
0000
0000
0000
,
1000
0000
1000
0000
0000
0001
0000
0001
,
0000
0001
0000
0000
0100
0000
0010
0000
,
1000
0000
1000
0000
0000
0001
0100
0001
,
0000
0000
0100
0010
0100
1000
0001
0000
,
0100
0000
0010
0000
0000
0100
0000
0010
,
0000
0100
0000
0000
0001
0000
0001
0000
,
1000
0000
1000
0000
0000
0100
0010
0100
,
0000
0000
0001
0100
1000
0100
0001
0000
,
0100
1000
0100
0010
,
0001
0000
0100
0001
0100
0000
0100
0010
,
0100
0000
1000
0000
0001
0000
0100
0010
,
0100
0000
0001
0010
0001
0000
1000
0000
,
0100
0010
0001
0010
,
1000
0100
1000
0000
0001
0100
0001
0000
,
0100
0000
0100
0000
0000
0010
0100
0010
,
0000
0000
0011
1010
,
1000
0100
0001
0100
,
1000
0010
0100
0001
,
0100
1000
0010
0100
,
0001
0000
0100
1000
0001
0010
0100
0000
,
0010
1000
0001
0100
,
1000
0010
0100
0001
,
0100
1000
0010
0001
,
0100
0000
0010
1000
0001
0100
0010
0000
,
1000
0100
0001
0100
,
1000
0010
0100
0001
,
0100
0010
0001
0100
,
1000
0000
0001
0100
1000
0100
0001
0000
,
0100
0010
0100
1000
,
0001
0000
0100
1010
0000
0001
0101
0000
,
1000
0100
0010
0001
,
0100
0000
1000
0001
0100
0001
0010
0000
,
1000
0100
0010
0001
,
0010
0100
1000
0001
,
0100
0010
0100
1000
,
0001
0000
0100
1000
0100
1000
0010
0000
,
0001
0100
1000
0100
,
0001
0100
1000
0010
,
0100
0001
0100
0010
,
0001
0000
0100
0010
0001
0010
0001
0000
,
0100
1000
0100
0010
,
0001
0100
0010
0100
,
0001
0100
1000
0001
,
0100
0000
1000
0100
0010
0001
0010
0000
,
0100
1000
0001
0100
,
0010
0001
0010
0100
,
1000
0010
0011
0100
,
1010
0000
0001
0100
0010
0001
0100
0000
,
1000
0100
1000
0000
0010
0000
0001
0000
,
0010
0100
1000
0001
,
0100
0010
0001
0100
,
1000
0000
0000
0000
0010
0000
0000
0000
0100
0000
0000
0100
0000
0000
0000
0000
,
1000
0100
1000
0000
0001
0000
0100
0000
,
0001
0100
0010
0100
,
1000
0000
0001
0000
0100
0000
0010
0001
,
0100
0000
0000
0010
0000
0000
1000
0000
0100
0000
0000
0000
0010
0000
0000
0000
,
1000
0100
1000
0000
0010
0000
0001
0000
,
0100
1000
0010
0001
,
0100
0010
0001
0100
,
1000
0000
0000
0000
0010
0000
0000
0000
0100
0000
0000
0010
0000
0000
0100
0000
,
1000
0100
1000
0000
0010
0100
0010
0000
,
0001
0100
0001
0000
1000
0100
0010
0100
,
1001
0000
0000
0000
0010
0000
0000
0010
0000
0000
0010
0000
1001
0000
0000
0000
,
1001
2002
3003
0000
;

//---------------dance-single - Light----------------
#NOTES:
     dance-single:
     Light:
     Easy:
     6:
     0.242,0.416,0.041,0.014,0.031: // measure 1
0000
0000
0000
0000
,  // measure 2
0000
0000
0000
0000
,  // measure 3
0000
0000
0000
0000
,  // measure 4
0000
0000
0000
0000
,  // measure 5
0000
0000
0000
0000
,  // measure 6
0000
0000
0000
0000
,  // measure 7
0000
0000
0000
0000
,  // measure 8
0000
0000
0000
0000
,  // measure 9
1000
0000
0100
0000
,  // measure 10
1000
0000
0010
0000
,  // measure 11
0100
0000
0001
0000
,  // measure 12
0100
0000
0010
0000
,  // measure 13
1000
0100
0010
0000
,  // measure 14
0100
0010
0001
0000
,  // measure 15
1000
0100
0010
0100
,  // measure 16
1000
0000
0100
0100
,  // measure 17
1000
0000
0100
0000
,  // measure 18
1000
0000
0010
0000
,  // measure 19
0100
0000
0001
0000
,  // measure 20
0100
0000
0000
0000
0000
0000
0000
0000
0010
0000
0000
0010
0000
0000
0000
0000
,  // measure 21
1000
0000
0100
0000
,  // measure 22
0010
0000
0001
0000
,  // measure 23
0010
0000
0100
0000
,  // measure 24
1000
0000
0000
0100
0000
0000
0000
0000
1000
0000
0000
0000
0001
0000
0000
0000
,  // measure 25
0100
0000
1000
0000
,  // measure 26
0100
0000
0010
0000
,  // measure 27
0100
0000
0000
0000
0000
0000
0000
0000
1000
0000
0000
1000
0000
0000
0000
0000
,  // measure 28
0010
0000
0000
0000
0000
0000
0000
0000
0100
0000
0000
0100
0000
0000
0000
0000
,  // measure 29
0010
0000
0001
0000
,  // measure 30
1000
0000
0010
0000
,  // measure 31
0100
0000
0000
0000
0000
0000
0000
0000
0010
0000
0000
0001
0000
0000
0000
0000
,  // measure 32
1000
1000
0010
0010
,  // measure 33
1000
0000
0100
0000
,  // measure 34
0010
0001
0010
0000
,  // measure 35
1000
0000
0100
0000
,  // measure 36
0001
0100
0001
0000
,  // measure 37
1000
0000
0010
0000
,  // measure 38
1000
0100
0010
0000
,  // measure 39
0001
0000
0100
0000
,  // measure 40
1000
0010
0100
0000
,  // measure 41
1000
0000
0001
0000
,  // measure 42
0100
0010
0100
0000
,  // measure 43
1000
0000
0010
0000
,  // measure 44
0001
0100
0001
0000
,  // measure 45
1000
0000
0011
0000
,  // measure 46
1010
0000
0101
0000
,  // measure 47
0110
0000
0000
0000
,  // measure 48
1000
0000
0000
0000
,  // measure 49
1000
0000
0000
0000
,  // measure 50
0001
0000
0100
0010
,  // measure 51
0100
0000
0000
0000
,  // measure 52
0001
0000
1000
0000
,  // measure 53
0010
0000
0000
0000
,  // measure 54
0100
0000
0001
0100
,  // measure 55
1000
0000
0000
0000
,  // measure 56
0010
0000
0100
0000
,  // measure 57
0001
0000
0000
0000
,  // measure 58
1000
0000
0100
0010
,  // measure 59
0100
0000
1000
0000
,  // measure 60
0001
0000
0000
0000
,  // measure 61
1000
0000
0100
0000
,  // measure 62
0010
0000
0001
0100
,  // measure 63
1000
0000
1000
0000
0000
0010
0000
0010
,  // measure 64
0000
0000
1000
0001
,  // measure 65
1000
0000
0100
0000
,  // measure 66
1000
0000
0010
0000
,  // measure 67
0100
0000
0001
0000
,  // measure 68
1000
0000
0010
0100
,  // measure 69
0010
0000
0001
0000
,  // measure 70
1000
0000
0100
0000
,  // measure 71
1000
0000
0010
0000
,  // measure 72
0100
0000
0001
0100
,  // measure 73
1000
0000
0010
0000
,  // measure 74
0100
0000
0001
0000
,  // measure 75
1000
0000
0010
0000
,  // measure 76
0100
0000
1000
0100
,  // measure 77
0001
0000
0010
0000
,  // measure 78
0100
0000
0001
0000
,  // measure 79
1000
0000
0100
0000
,  // measure 80
0010
0000
0001
0100
,  // measure 81
1000
0000
0010
0000
,  // measure 82
0100
0000
0010
0000
,  // measure 83
0001
0000
1000
0000
,  // measure 84
0010
0000
1000
0100
,  // measure 85
0010
0000
0001
0000
,  // measure 86
0010
0000
0100
0000
,  // measure 87
0001
0000
1000
0000
,  // measure 88
0010
0000
1000
0001
,  // measure 89
0010
0000
1000
0000
,  // measure 90
0100
0000
0010
0000
,  // measure 91
0001
0000
1000
0000
,  // measure 92
0100
0000
0001
0100
,  // measure 93
1000
0000
0010
0000
,  // measure 94
0100
0000
0001
0000
,  // measure 95
1000
0000
0010
0000
,  // measure 96
0100
0000
0000
0000
,  // measure 97
1000
0000
0010
0000
,  // measure 98
0100
0000
0001
0000
,  // measure 99
0100
0000
0010
0000
,  // measure 100
1000
0000
0000
0000
0000
0000
0000
0000
0001
0000
0000
0001
0000
0000
0000
0000
,  // measure 101
1000
0000
0100
0000
,  // measure 102
1000
0000
0010
0000
,  // measure 103
0100
0000
0010
0000
,  // measure 104
0001
0000
0000
0010
0000
0000
0000
0000
0100
0000
0000
0000
0010
0000
0000
0000
,  // measure 105
1000
0000
0100
0000
,  // measure 106
0010
0000
0001
0000
,  // measure 107
1000
0000
0010
0000
,  // measure 108
0100
0000
0000
0000
0000
0000
0000
0000
0010
0000
0000
0010
0000
0000
0000
0000
,  // measure 109
1000
0100
1000
0000
,  // measure 110
0001
0100
0001
0010
,  // measure 111
1001
0000
0000
0000
0010
0000
0000
0100
0000
0000
0010
0000
1000
0000
0000
0000
,  // measure 112
0100
2002
3003
0000
;
