#VERSION:0.83;
#TITLE:30SECS(APPROX.)PIEPOUT;
#SUBTITLE:;
#ARTIST:RIZARDI;
#TITLETRANSLIT:;
#SUBTITLETRANSLIT:;
#ARTISTTRANSLIT:;
#GENRE:Uptempo Hardcore;
#ORIGIN:;
#CREDIT:Gemeinschaft GEPARD;
#BANNER:;
#BACKGROUND:;
#PREVIEWVID:;
#JACKET:;
#CDIMAGE:;
#DISCIMAGE:;
#LYRICSPATH:;
#CDTITLE:Luziano.png;
#MUSIC:30SECS(APPROX.)PIEPOUT.ogg;
#OFFSET:-0.001000;
#SAMPLESTART:10.091000;
#SAMPLELENGTH:15.271000;
#SELECTABLE:YES;
#DISPLAYBPM:*;
#BPMS:0.000=300.000,
22.000=301.000,
23.000=302.000,
24.000=303.000,
25.000=304.000,
26.000=305.000,
27.000=306.000,
28.000=307.000,
29.000=308.000,
30.000=309.000,
31.000=310.000,
32.000=311.000,
33.000=312.000,
34.000=313.000,
35.000=314.000,
36.000=315.000,
37.000=316.000,
38.000=317.000,
39.000=318.000,
40.000=319.000,
41.000=320.000,
42.000=321.000,
43.000=322.000,
44.000=323.000,
45.000=324.000,
46.000=325.000,
47.000=326.000,
48.000=327.000,
49.000=328.000,
50.000=329.000,
51.000=330.000,
52.000=331.000,
53.000=332.000,
54.000=333.000,
55.000=334.000,
56.000=335.000,
57.000=336.000,
58.000=337.000,
59.000=338.000,
60.000=339.000,
61.000=340.000,
62.000=341.000,
63.000=342.000,
64.000=343.000,
65.000=344.000,
66.000=345.000,
67.000=346.000,
68.000=347.000,
69.000=348.000,
70.000=349.000,
71.000=350.000,
72.000=351.000,
73.000=352.000,
74.000=353.000,
75.000=354.000,
76.000=355.000,
77.000=356.000,
78.000=357.000,
79.000=358.000,
80.000=359.000,
81.000=360.000,
82.000=361.000,
83.000=362.000,
84.000=363.000,
85.000=364.000,
86.000=365.000,
87.000=366.000,
88.000=367.000,
89.000=368.000,
90.000=369.000,
91.000=370.000,
92.000=371.000,
93.000=372.000,
94.000=373.000,
95.000=374.000,
96.000=375.000,
97.000=376.000,
98.000=377.000,
99.000=378.000,
100.000=379.000,
101.000=380.000,
102.000=381.000,
103.000=382.000,
104.000=383.000,
105.000=384.000,
106.000=385.000,
107.000=386.000,
108.000=387.000,
109.000=388.000,
110.000=389.000,
111.000=390.000,
112.000=391.000,
113.000=392.000,
114.000=393.000,
115.000=394.000,
116.000=395.000,
117.000=396.000,
118.000=397.000,
119.000=398.000,
120.000=399.000,
121.000=400.000,
122.000=401.000,
123.000=402.000,
124.000=403.000,
125.000=404.000,
126.000=405.000,
127.000=406.000,
128.000=407.000,
129.000=408.000,
130.000=409.000,
131.000=410.000,
132.000=411.000,
133.000=412.000,
134.000=413.000,
135.000=414.000,
136.000=415.000,
137.000=416.000,
138.000=417.000,
139.000=418.000,
140.000=419.000,
141.000=420.000,
142.000=421.000,
143.000=422.000,
144.000=423.000,
145.000=424.000,
146.000=425.000,
147.000=426.000,
148.000=427.000,
149.000=428.000,
150.000=429.000,
151.000=430.000,
152.000=431.000,
153.000=432.000,
154.000=433.000,
155.000=434.000,
156.000=435.000,
157.000=436.000,
158.000=437.000,
159.000=438.000,
160.000=439.000,
161.000=440.000,
162.000=441.000,
163.000=442.000,
164.000=443.000,
165.000=444.000,
166.000=445.000,
167.000=446.000,
168.000=447.000,
169.000=448.000,
170.000=449.000,
171.000=450.000,
172.000=451.000,
173.000=452.000,
174.000=453.000,
175.000=454.000,
176.000=455.000,
177.000=456.000,
178.000=457.000,
179.000=458.000,
180.000=459.000,
181.000=460.000,
182.000=461.000,
183.000=462.000,
184.000=463.000,
185.000=464.000,
186.000=465.000,
187.000=466.000,
188.000=467.000,
189.000=468.000,
190.000=469.000,
191.000=470.000,
192.000=471.000,
193.000=472.000,
194.000=473.000,
195.000=474.000,
196.000=475.000,
197.000=476.000,
198.000=477.000,
199.000=478.000,
200.000=479.000,
201.000=480.000,
202.000=481.000,
203.000=482.000,
204.000=483.000,
205.000=484.000,
206.000=485.000,
207.000=486.000,
208.000=487.000,
209.000=488.000,
210.000=489.000,
211.000=490.000,
212.000=491.000,
213.000=492.000,
214.000=493.000,
215.000=494.000,
216.000=495.000,
217.000=496.000,
218.000=497.000,
219.000=498.000,
220.000=499.000,
221.000=500.000;
#STOPS:;
#DELAYS:;
#WARPS:;
#TIMESIGNATURES:0.000=4=4;
#TICKCOUNTS:0.000=4;
#COMBOS:0.000=1;
#SPEEDS:0.000=1.000=0.000=0;
#SCROLLS:0.000=1.000;
#FAKES:;
#LABELS:0.000=Song Start;
#BGCHANGES:;
#KEYSOUNDS:;
#ATTACKS:
;

//---------------dance-single - DeltaPIEP----------------
#NOTEDATA:;
#CHARTNAME:PIEPIN' OUT;
#STEPSTYPE:dance-single;
#DESCRIPTION:DeltaPIEP;
#CHARTSTYLE:Pad;
#DIFFICULTY:Challenge;
#METER:19;
#RADARVALUES:1.038125,1.308038,0.025953,0.181672,0.051906,280.000000,279.000000,1.000000,7.000000,12.000000,0.000000,0.000000,0.000000,0.000000,1.038125,1.308038,0.025953,0.181672,0.051906,280.000000,279.000000,1.000000,7.000000,12.000000,0.000000,0.000000,0.000000,0.000000;
#CREDIT:Luziano;
#DISPLAYBPM:*;
#NOTES:
// measure 0
0000
0000
0000
0000
,  // measure 1
0000
0000
0000
0000
,  // measure 2
0000
0000
0000
0000
,  // measure 3
0000
0000
0000
0000
,  // measure 4
0000
0000
0000
0000
,  // measure 5
0000
0000
1000
0100
,  // measure 6
1000
0000
0100
0000
0010
0000
0001
1000
,  // measure 7
0001
0010
0100
0001
,  // measure 8
1000
0000
0100
0000
0001
0010
0100
0010
,  // measure 9
0001
0000
1000
0100
1000
0000
0010
0000
,  // measure 10
0100
0001
1000
0100
,  // measure 11
1000
1000
0001
0001
,  // measure 12
1000
0100
0010
0001
0010
0100
0001
0100
,  // measure 13
0001
0000
1000
0000
0001
0000
1000
0010
,  // measure 14
1000
1000
1000
0001
,  // measure 15
0010
0010
0100
0100
,  // measure 16
0001
1000
0001
1000
0010
0100
0001
0000
,  // measure 17
1000
0010
0100
0001
,  // measure 18
1000
0010
1000
0000
0100
0000
0100
0000
,  // measure 19
0001
0100
0001
0100
0010
1000
0010
1000
,  // measure 20
0001
0000
0001
0000
1000
0100
0001
0100
,  // measure 21
1000
0010
1000
0010
,  // measure 22
0100
0000
0001
0000
0100
0000
0001
0010
,  // measure 23
1000
0100
1000
0001
,  // measure 24
0010
1000
0010
1000
0100
0001
0100
0001
,  // measure 25
1000
0100
1000
0001
,  // measure 26
0010
0000
0000
0000
0100
0000
0000
0000
1000
0001
1000
0001
1000
0000
0000
0000
,  // measure 27
1000
0010
1000
0010
0100
0001
0100
0001
,  // measure 28
1000
0100
0010
0001
1000
0100
0010
0100
,  // measure 29
1000
0000
1000
0000
0001
0010
0100
0010
,  // measure 30
0001
0000
0001
0000
1000
0100
0010
0100
,  // measure 31
1000
0000
0100
0000
0001
0010
0100
0010
,  // measure 32
0001
0100
0001
0000
1000
0010
1000
0000
,  // measure 33
0100
0000
0100
0000
1000
0100
0001
0010
,  // measure 34
1000
0000
0001
0000
0100
0010
0100
0010
,  // measure 35
0100
0000
0100
0000
1000
0100
0001
0100
,  // measure 36
0001
0010
0001
0010
0100
1000
0100
1000
,  // measure 37
0001
0001
0001
0001
,  // measure 38
1000
1000
1000
1000
,  // measure 39
0100
0100
0100
0100
,  // measure 40
0010
0000
0010
0100
0010
0000
0010
0100
,  // measure 41
0010
0001
1000
0000
0010
0100
0010
0000
,  // measure 42
1000
0100
1000
0000
0100
0000
0010
0000
,  // measure 43
0001
0000
0010
0000
1000
0100
0010
0100
,  // measure 44
2000
0000
3000
0100
0000
0000
0002
0000
0003
0010
0000
0000
0200
0000
0300
0001
0000
0000
0020
0000
0030
0100
0000
0000
,  // measure 45
1000
0100
0010
0001
,  // measure 46
1000
0100
0010
0100
,  // measure 47
1000
0000
0001
0000
0100
0001
0100
0001
,  // measure 48
0100
0001
0200
0000
0000
0000
0000
0300
,  // measure 49
1000
0100
0010
0100
,  // measure 50
0001
0000
0010
0000
0100
0000
1000
0100
,  // measure 51
1000
0010
0100
0010
0001
0100
0001
0100
,  // measure 52
1000
0000
0000
0010
0000
0000
MMMM
0000
0000
0000
MMMM
0000
0000
0000
MMMM
0000
0000
0000
1000
0000
0000
0100
0000
0000
,  // measure 53
0010
0001
1000
0100
0010
0001
1000
0100
,  // measure 54
0010
0100
1000
0010
0100
0001
0010
1000
,  // measure 55
0010
0100
2002
0000
0000
0000
0000
0000
,  // measure 56
3003
0000
0000
0000
;

//---------------dance-single - Another----------------
#NOTEDATA:;
#CHARTNAME:Another;
#STEPSTYPE:dance-single;
#DESCRIPTION:Another;
#CHARTSTYLE:;
#DIFFICULTY:Medium;
#METER:1;
#RADARVALUES:0.000000,0.000000,0.000000,0.000000,0.000000,0.000000,0.000000,0.000000,0.000000,0.000000,0.000000,0.000000,0.000000,0.000000,0.000000,0.000000,0.000000,0.000000,0.000000,0.000000,0.000000,0.000000,0.000000,0.000000,0.000000,0.000000,0.000000,0.000000;
#CREDIT:Another;
#DISPLAYBPM:*;
#NOTES:
0000
0000
0000
0000
;

//---------------dance-single - Basic----------------
#NOTEDATA:;
#CHARTNAME:Basic;
#STEPSTYPE:dance-single;
#DESCRIPTION:Basic;
#CHARTSTYLE:;
#DIFFICULTY:Easy;
#METER:1;
#RADARVALUES:0.000000,0.000000,0.000000,0.000000,0.000000,0.000000,0.000000,0.000000,0.000000,0.000000,0.000000,0.000000,0.000000,0.000000,0.000000,0.000000,0.000000,0.000000,0.000000,0.000000,0.000000,0.000000,0.000000,0.000000,0.000000,0.000000,0.000000,0.000000;
#CREDIT:Basic;
#DISPLAYBPM:*;
#NOTES:
0000
0000
0000
0000
;
