#TITLE:2020;
#SUBTITLE:;
#ARTIST:Ω;
#TITLETRANSLIT:2020;
#SUBTITLETRANSLIT:;
#ARTISTTRANSLIT:OMEGA;
#GENRE:;
#CREDIT:;
#METERTYPE:DDR X;
#BANNER:2020-bn.png;
#BACKGROUND:2020-bg.png;
#LYRICSPATH:;
#CDTITLE:crossbeats REV. SUNRISE.PNG;
#MUSIC:2020.ogg;
#OFFSET:-0.102000;
#SAMPLESTART:77.931999;
#SAMPLELENGTH:13.000000;
#SELECTABLE:YES;
#DISPLAYBPM:*;
#BPMS:0.000000=148.000000
;
#STOPS:
;
#BGCHANGES:;
#KEYSOUNDS:;
#ATTACKS:;

//---------------dance-single - Heavy----------------
#NOTES:
     dance-single:
     Heavy:
     Hard:
     15:
     0.688680,0.738368,0.536601,0.017310,0.519292,557.000000,495.000000,62.000000,2.000000,0.000000,0.000000,0.688680,0.738368,0.536601,0.017310,0.519292,557.000000,495.000000,62.000000,2.000000,0.000000,0.000000:
0000
0000
0000
0000
,
0000
0000
0000
0000
,
0000
0000
0000
0000
,
0000
0000
0000
0000
,
0000
0000
0000
0000
,
0000
0000
0000
0000
,
0000
0000
0000
0000
,
0000
0000
0000
0000
,
1000
0100
0010
0100
1000
0001
0100
0010
,
1000
0100
0010
0001
0010
0100
1000
0001
,
0100
0010
1000
0100
1000
0010
0100
0001
,
0100
1000
0100
0010
0001
0010
0100
1000
,
0001
0100
0010
1000
0001
0100
1000
0010
,
0100
0010
0001
0100
1000
0001
0100
0010
,
1000
0100
0010
0001
0010
0100
1000
0001
,
0100
0010
1000
0001
1000
0100
1000
0010
,
0010
0000
0000
0000
0000
0000
0000
0000
1010
0000
0000
0101
0000
0000
0110
0000
,
1001
0000
0000
0000
0000
0000
0000
0000
1010
0000
0000
0100
0000
0000
0001
1000
,
1001
0000
0000
0000
0000
0000
0000
0000
1010
0000
0000
0101
0000
0000
1001
0000
,
0011
0000
1010
0000
,
1000
0000
0100
0000
0010
0000
0100
0000
1001
0000
0000
0101
0000
0000
1010
0000
,
1001
0000
0001
0000
0010
0000
0100
0000
1010
0000
0001
0000
0100
0000
0010
0100
,
1010
0000
0100
0000
0001
0000
0100
0000
1000
0000
0000
0101
0000
0000
0110
0000
,
1100
0000
0010
0000
0100
0000
0010
0000
1001
0000
0100
0000
1000
0001
0100
0010
,
1000
0001
0000
1000
0010
0000
1000
0001
0000
1000
0000
0100
0010
0100
0000
0001
,
1000
0000
0001
1000
0010
0000
1000
0100
0000
1000
0000
0010
1000
0000
0010
0000
,
1000
0001
0000
1000
0001
0000
0100
0010
0000
0100
0000
0010
0100
1000
0000
0001
,
1000
0000
0001
0100
0010
0000
1000
0100
0000
0010
0000
0001
1000
0000
0010
0000
,
1000
0001
0000
1000
0001
0000
1000
0010
0000
1000
0000
0010
1000
0001
0000
1000
,
0010
0000
0100
1000
0010
0000
0001
0010
0000
0010
0000
0100
1000
0000
0001
0000
,
1000
0100
0000
0100
0010
0000
0010
0001
0000
0001
0000
1000
0010
1000
0000
0001
,
1000
0000
0010
0100
0010
0000
1000
0010
0000
0100
0000
0001
1000
0000
0010
0000
,
1000
0010
0000
0010
0000
0100
0000
0100
,
0000
1000
0000
1000
0000
0001
0000
0001
,
0100
0010
0000
0100
0001
0010
1000
0001
,
1000
0010
0000
0100
0001
1000
0100
0001
,
0100
0010
0000
0010
0100
0001
0000
0010
,
1000
0100
0000
1000
0010
0100
1000
0010
,
0001
0010
0000
0100
0001
0010
0000
0001
,
0010
1000
0000
0100
0000
1000
0000
0010
,
1000
0001
0000
0000
0001
1000
0000
0100
0010
0000
1000
0010
0000
0100
0001
0000
,
0010
0100
0000
1000
0001
0000
0001
0000
1000
0010
1000
0000
0100
0001
0000
0001
,
1000
0100
0000
0010
0001
0010
0000
1000
0001
0000
0001
0001
0000
1000
1000
0000
,
0100
0010
0000
1000
1000
0000
0010
0000
1000
0100
0010
0000
1000
0010
0001
0010
,
1000
0100
0000
0100
0010
0100
0000
0010
0001
0000
1000
0001
0000
0001
1000
0000
,
0001
0010
0000
0100
1000
0000
0010
0000
1000
0010
1000
0000
1000
0001
0000
0001
,
1000
0010
0000
0100
0001
0100
0000
0010
1000
0000
0100
0100
0000
0010
0010
0000
,
1000
0001
0000
0010
1000
0000
0100
0000
1000
0100
0010
0000
1000
0010
0001
0100
,
1000
0000
0010
0000
0100
0000
0001
0000
1010
0000
0000
0101
0000
0000
0110
0000
,
1100
0000
0001
0000
0100
0000
0001
0000
0011
0000
0000
0100
0000
0000
1000
0010
,
1000
0000
0010
0000
0001
0000
0100
0000
1010
0000
0000
0101
0000
0000
0110
0000
,
1010
0000
0100
0000
0010
0000
0001
0000
1100
0010
1000
0010
1000
0000
0100
0010
,
0001
0000
0010
0000
0100
0000
0010
0000
0101
0000
0000
1010
0000
0000
0110
0000
,
1001
0010
1100
0010
0100
1001
0010
0100
,
1000
0000
0010
0000
0100
0000
0001
0000
1100
0000
0000
0110
0000
0000
0101
0000
,
1010
0000
0001
0000
0100
0000
0010
0000
1000
0001
0100
0010
1000
0000
0001
0000
,
1000
0000
0100
0000
0010
0000
1000
0000
0011
0000
0000
1010
0000
0000
0110
0000
,
1001
0000
0010
0000
1000
0000
0100
0000
1010
0000
0000
0010
0000
0000
1000
0001
,
1000
0000
0100
0000
1000
0000
0001
0000
1010
0000
0000
0101
0000
0000
0110
0000
,
1001
0000
0100
0000
0010
0000
0100
0000
1001
0001
0100
0010
1000
0000
0100
0010
,
0001
0000
1000
0000
0010
0000
0100
0000
1100
0000
0000
0110
0000
0000
0011
0000
,
1001
0000
0100
0000
0010
0000
0001
0000
1010
0000
0000
0001
0000
0000
0001
0010
,
1000
0000
0100
0000
0010
0000
0100
0000
1010
0000
0000
0101
0000
0000
0110
0000
,
1100
0000
0001
0000
0010
0000
0100
0000
1001
0010
1000
0000
0100
0001
0100
0000
,
1000
0100
0010
0001
1000
0001
0100
0010
,
1000
0100
0010
0001
1000
0001
0100
0010
,
1000
0100
0010
0100
1000
0001
0100
0001
,
1000
0100
0001
0100
1000
0010
0100
0001
,
2002
3003
0000
0000
;

//---------------dance-single - ----------------
#NOTES:
     dance-single:
     Standard:
     Medium:
     11:
     0.448816,0.500251,0.077894,0.000000,0.116841,363.000000,354.000000,9.000000,0.000000,0.000000,0.000000,0.448816,0.500251,0.077894,0.000000,0.116841,363.000000,354.000000,9.000000,0.000000,0.000000,0.000000:
0000
0000
0000
0000
,
0000
0000
0000
0000
,
0000
0000
0000
0000
,
0000
0000
0000
0000
,
0000
0000
0000
0000
,
0000
0000
0000
0000
,
0000
0000
0000
0000
,
0000
0000
0000
0000
,
1000
0010
0000
0000
1000
0000
0000
0000
0100
0000
0001
0000
0100
0000
0000
0000
,
0100
0010
0100
0000
1000
0100
0001
0000
,
0001
0010
0100
0000
1000
0001
1000
0000
,
0100
1000
0010
0000
0100
0001
0100
1000
,
0010
0100
0001
0000
0001
0010
0001
0000
,
0100
0010
0100
0000
1000
0100
0010
0000
,
0001
0010
0100
0000
1000
0001
1000
0000
,
0100
1000
0010
0000
0100
0010
0001
0100
,
0010
0000
0000
0000
0000
0000
0000
0000
1000
0000
0000
1000
0000
0000
1000
0000
,
0001
0000
0000
0000
0000
0000
0000
0000
0100
0000
0000
0010
0000
0000
0100
0000
,
1000
0000
0000
0000
0000
0000
0000
0000
0001
0000
0000
0100
0000
0000
0001
0000
,
0100
0000
0000
0000
0000
0000
0000
0000
0010
0000
0000
0100
0000
0000
0010
0000
,
1000
0000
0000
0000
0000
0000
0000
0000
0100
0000
0000
0001
0000
0000
0100
0000
,
1000
0000
0000
0000
0010
0000
0000
0000
0100
0000
0000
0001
0000
0000
0100
0000
,
1000
0000
0000
0000
0100
0000
0000
0000
0010
0000
0000
1000
0000
0000
0010
0000
,
0100
0001
0100
1000
,
0010
1000
0010
0000
0100
0001
0100
0001
,
0100
0000
1000
0000
0010
0000
0000
0000
0100
0010
0000
0000
0001
0000
0100
0000
,
1000
0010
0100
0000
0100
0001
0100
1000
,
0100
0000
0100
0000
0010
1000
0010
0100
,
0001
0100
0010
0000
0001
1000
0100
1000
,
0010
1000
0010
0000
0001
0100
1000
0100
,
0001
0100
0010
0000
1000
0100
0010
0001
,
0010
0100
1000
0000
0001
0100
0001
0100
,
0010
1000
0000
1000
0000
0001
0000
0001
,
0000
0100
0000
0100
0000
0010
0000
0010
,
1000
0010
1000
0000
0101
0001
0100
0000
,
0001
0100
0010
0000
1010
0100
0001
0000
,
0001
0100
1000
0000
1010
0100
0001
0000
,
0100
0010
0100
0000
1001
0100
0010
0000
,
1000
0100
0001
0000
0011
0100
1000
0000
,
0010
0100
0000
0100
0000
0010
0000
0010
,
1000
0100
0001
0000
0001
0100
1000
0000
,
1000
0010
0100
0000
0100
0001
0100
1000
,
0010
0000
0100
0000
0010
0000
0000
0000
0001
0000
1000
0001
0000
0001
1000
0000
,
0100
1000
0010
0000
0100
0010
0001
0010
,
0100
0010
0001
0000
0001
0100
1000
0000
,
1000
0100
0001
0000
0100
1000
0010
0100
,
0001
0000
0000
0000
0100
0000
1000
0000
0010
0000
0100
0010
0000
0010
0100
0000
,
1000
0100
0010
0000
0001
0010
0100
0010
,
0001
0000
0000
0000
0100
0000
0000
0000
1000
0000
0000
1000
0000
0000
1000
0000
,
0010
0000
0000
0000
0100
0000
0000
0000
0001
0000
0000
1000
0000
0000
0100
0000
,
1000
0000
0000
0000
0010
0000
0000
0000
0100
0000
0000
0100
0000
0000
0010
0000
,
0001
0000
0100
0000
1000
0001
1000
0100
,
1000
0000
0000
0000
0010
0000
0000
0000
0100
0000
0000
0100
0000
0000
0001
0000
,
0100
0000
0000
0000
1001
0000
0000
0000
0100
0000
1000
0000
0000
1000
0000
0000
,
0010
0000
0000
0000
0100
0000
0000
0000
0001
0000
0000
0001
0000
0000
0100
0000
,
1000
0000
0010
0000
0100
0010
0001
0010
,
0100
0000
0000
0000
1000
0000
0000
0000
0010
0000
0000
0010
0000
0000
0100
0000
,
0001
0000
0000
0000
0100
0000
0000
0000
1000
0000
0000
0010
0000
0000
0100
0001
,
0100
0000
0000
0000
1000
0000
0000
0000
0010
0000
0000
0100
0000
0000
0100
0000
,
0001
0000
0100
0000
1000
0010
0100
0001
,
0100
0000
0000
0000
1000
0000
0000
0000
0010
0000
0000
0010
0000
0000
0100
0000
,
0001
0000
0000
0000
0100
0000
0000
0000
1000
0000
0000
0010
0000
0000
0100
0010
,
1001
0000
0000
0000
0100
0000
0000
0000
1000
0000
0000
0010
0000
0000
0100
0000
,
0001
0000
0100
0000
1000
0100
1001
0000
,
1000
0100
0010
0001
0010
0100
1000
0000
,
0001
0100
0010
0100
0010
1000
0100
0000
,
1000
0100
0001
0100
1000
0010
0100
0000
,
1000
0100
0001
0100
1000
0010
0100
0010
,
1001
0000
0000
0000
;

//---------------dance-single - ----------------
#NOTES:
     dance-single:
     Light:
     Easy:
     7:
     0.296738,0.323692,0.060584,0.000000,0.090876,240.000000,233.000000,7.000000,0.000000,0.000000,0.000000,0.296738,0.323692,0.060584,0.000000,0.090876,240.000000,233.000000,7.000000,0.000000,0.000000,0.000000:
// measure 0
0000
0000
0000
0000
,  // measure 1
0000
0000
0000
0000
,  // measure 2
0000
0000
0000
0000
,  // measure 3
0000
0000
0000
0000
,  // measure 4
0000
0000
0000
0000
,  // measure 5
0000
0000
0000
0000
,  // measure 6
0000
0000
0000
0000
,  // measure 7
0000
0000
0000
0000
,  // measure 8
1000
0100
0010
0001
,  // measure 9
1000
0001
0100
0010
,  // measure 10
1000
0100
0001
0100
,  // measure 11
1000
0010
0100
0001
,  // measure 12
1000
0100
0001
0100
,  // measure 13
0010
0000
0000
1000
0000
0000
0000
0000
0001
0000
0000
0000
0100
0000
0000
0000
,  // measure 14
0010
0000
0000
1000
0000
0000
0000
0001
0000
0000
0000
0000
0100
0000
0000
0000
,  // measure 15
0010
0000
1000
0000
0001
0000
0100
0010
,  // measure 16
1000
0000
0000
0000
0000
0000
0000
0000
0001
0000
0000
0001
0000
0000
0001
0000
,  // measure 17
0100
0000
0000
0000
0000
0000
0000
0000
0010
0000
0000
0010
0000
0000
0010
0000
,  // measure 18
0100
0000
0000
0000
0000
0000
0000
0000
1000
0000
0000
1000
0000
0000
1000
0000
,  // measure 19
0001
0000
0000
0000
0000
0000
0000
0000
0100
0000
0000
0100
0000
0000
0100
0000
,  // measure 20
0010
0000
0000
0000
0000
0000
0000
0000
0001
0000
0000
0001
0000
0000
0001
0000
,  // measure 21
1000
0000
0000
0000
0000
0000
0000
0000
1000
0000
0000
0100
0000
0000
1000
0000
,  // measure 22
0010
0000
0000
0000
0000
0000
0000
0000
0001
0000
0000
0100
0000
0000
0010
0000
,  // measure 23
1000
0000
0001
0100
,  // measure 24
1000
0100
0010
0000
,  // measure 25
0001
0010
0100
0000
,  // measure 26
1000
0001
1000
0000
,  // measure 27
0100
0010
0001
0010
,  // measure 28
0100
1000
0100
0000
,  // measure 29
0001
0100
0001
0000
,  // measure 30
0010
0100
1000
0000
,  // measure 31
0001
0100
0010
0100
,  // measure 32
0001
0000
0000
0000
,  // measure 33
1000
0000
0010
0000
,  // measure 34
1000
0100
1010
0000
,  // measure 35
0001
0010
0101
0000
,  // measure 36
0001
0010
0011
0000
,  // measure 37
1000
0001
1001
0000
,  // measure 38
1000
0100
1100
0010
,  // measure 39
0000
0010
0000
0100
0000
0010
0000
0001
,  // measure 40
1000
0100
0010
0001
,  // measure 41
1000
0010
0100
0001
,  // measure 42
1000
0100
0010
0100
,  // measure 43
1000
0000
0001
0000
0100
0000
0010
0100
,  // measure 44
0010
1000
0100
1000
,  // measure 45
0001
0100
0001
0100
,  // measure 46
0010
1000
0001
0100
,  // measure 47
1000
0000
0010
0000
0100
0000
0001
0100
,  // measure 48
1000
0000
0000
0000
0000
0000
0000
0000
0010
0000
0000
0010
0000
0000
0010
0000
,  // measure 49
0100
0000
0000
0000
0000
0000
0000
0000
1000
0000
0000
0001
0000
0000
1000
0000
,  // measure 50
0010
0000
0000
0000
0000
0000
0000
0000
0100
0000
0000
0010
0000
0000
0001
0000
,  // measure 51
0010
0000
0000
0000
1000
0000
0100
0010
,  // measure 52
0100
0000
0000
0000
0000
0000
0000
0000
1000
0000
0000
1000
0000
0000
1000
0000
,  // measure 53
0001
0000
1001
0000
0000
0010
0000
0000
,  // measure 54
1000
0000
0000
0000
0000
0000
0000
0000
0100
0000
0000
0001
0000
0000
0100
0000
,  // measure 55
0010
0000
1000
0100
,  // measure 56
1000
0000
0000
0000
0001
0000
0000
0000
0100
0000
0000
0100
0000
0000
0100
0000
,  // measure 57
0010
0000
0000
0000
0001
0000
0000
0000
1000
0000
0000
0010
0000
0000
0100
0000
,  // measure 58
0001
0000
0000
0000
0100
0000
0000
0000
0010
0000
0000
0010
0000
0000
0100
0000
,  // measure 59
0010
0000
1000
0000
0001
0000
1000
0010
,  // measure 60
1000
0000
0000
0000
0100
0000
0000
0000
0010
0000
0000
0100
0000
0000
0010
0000
,  // measure 61
0001
0000
0000
0000
0010
0000
0000
0000
0100
0000
0000
0010
0000
0000
1000
0000
,  // measure 62
0001
0000
0000
0000
0100
0000
0000
0000
1000
0000
0000
0010
0000
0000
0010
0000
,  // measure 63
0100
1000
1000
0001
,  // measure 64
1000
0100
0010
0001
,  // measure 65
0100
0010
1000
0001
,  // measure 66
1000
0100
0010
0001
,  // measure 67
1000
0010
0001
0100
,  // measure 68
1001
0000
0000
0000
;
