#TITLE:Ultimate Ninja 4 Opening Theme;
#SUBTITLE:;
#ARTIST:Naruto Shippuuden;
#CREDIT:;
#MUSIC:Ultimate Ninja 4 - Naruto Shippuden Opening.mp3;
#SELECTABLE:YES;
#BACKGROUND:;
#BANNER:;
#CDTITLE:;
#OFFSET:-0.103991;
#SAMPLESTART:0.000;
#SAMPLELENGTH:0.000;
#BPMS:0=130.551,6=130.557,7=130.551,23=130.557,24=130.551,39=130.557,40=130.551;
#STOPS:;

//---------------dance-single - ----------------
#NOTES:
     dance-single:
     :
     Easy:
     5:
     0.000,0.000,0.000,0.000,0.000:
0000
0000
0000
0000
,
0000
0000
0000
0000
,
0000
0000
0000
0000
,
0000
0000
0000
0000
,
0000
0000
0000
0000
,
0000
0000
0000
0000
,
0000
0000
1000
0100
,
1000
0000
0001
0010
0001
0000
0010
0000
,
0100
0000
1000
0001
1000
0000
0010
0000
,
0100
0000
0001
1000
0001
0000
0010
0000
,
0100
0000
1000
0001
0100
0000
0001
0000
,
1000
0000
0001
1000
0010
0100
0001
0100
,
0001
0010
0001
0010
0002
0000
0000
0003
,
0100
0000
0010
1000
0001
0000
0010
0000
,
0100
0000
0000
1000
0000
0000
0002
0000
0003
0010
0000
0000
,
0100
0000
0010
0001
0022
0033
0001
0000
,
0010
0000
0100
1000
2200
3300
1000
0000
,
0001
0000
0100
0001
0202
0303
1000
0000
,
0010
0000
1000
0100
2200
3300
0010
0000
,
1000
0001
0010
0001
,
0100
0000
0010
0200
0002
0000
0000
0000
,
0300
0000
2000
3003
0100
0000
1000
0000
,
0001
0010
0100
1000
,
0010
0100
0001
0100
,
0010
1000
0100
0010
,
0001
0000
0100
0000
0010
0000
1000
0100
,
1000
0010
0100
0001
2000
0000
0000
3000
,
0200
0000
0000
0000
0000
0000
0000
0000
0000
0000
0000
0000
0000
0000
0000
0300
0000
0000
1000
0000
0000
0001
0000
0000
1000
0000
0000
0000
0000
0000
0000
0000
0000
0000
0001
0000
0000
0000
0000
0000
0000
0000
0100
0000
0000
0000
0000
0000
,
0002
0000
0000
0000
0000
0000
0000
0003
0000
0000
0100
0000
0010
0000
1000
0000
,
0200
0000
0000
0000
0000
0000
0000
0000
0000
0000
0000
0000
0000
0000
0000
0300
0000
0000
0020
0000
0000
0000
0000
0000
0002
0000
0000
0000
0030
0000
0000
0000
0000
0000
0000
0000
0000
0000
0003
0000
0000
0000
0200
0000
0000
0000
0000
0000
,
0002
0000
0300
0000
0000
0000
0000
0000
0200
0000
0003
0000
0002
0300
0000
0000
,
0200
0000
0000
0000
,
0303
0000
0020
0000
0000
0000
2000
0030
,
0000
0000
0000
0000
3000
0000
0002
0000
0003
0000
0000
0000
0010
0000
0000
0001
0000
0000
0010
0000
0000
0001
0000
0000
,
0020
0000
0000
0000
0000
0000
0000
0030
,
0001
0100
0001
0100
0010
1000
0010
0000
,
2000
0000
0000
0000
0000
0000
0000
0000
0000
0000
0000
0000
3000
0000
0000
0000
0000
0000
0010
0000
0000
1000
0000
0000
0010
0000
0000
0000
0000
0000
0000
0000
0000
0000
0100
0000
0000
0000
0000
0000
0000
0000
0001
0000
0000
0000
0000
0000
,
0020
0000
0000
0030
0000
0100
1000
0100
,
0020
0000
0000
0000
0030
0000
0002
0000
0200
0000
0000
0003
0000
0300
0020
0000
,
2000
0000
0030
0000
3002
0003
2000
3000
,
0010
0100
0010
1000
,
0100
0010
0001
0100
,
0001
0010
0100
1000
,
0001
0100
0001
0010
,
0100
0000
0000
1000
0000
0000
0010
0000
0000
1000
0001
1000
,
1001
2002
0000
0000
0000
0000
3003
0000
,
1010
0000
2020
0000
0000
0000
0000
0000
0000
0000
0000
0000
0000
3030
0000
0000
,
0011
0022
0000
0000
0000
0000
0033
0000
,
1100
2200
0000
0000
0000
0000
3300
0000
,
2002
0000
0000
3003
0000
2002
0000
0000
0000
0000
0000
0000
0000
0000
0000
0000
,
0000
0000
0000
0000
,
0000
0000
0000
0000
,
3003
0000
0000
0000
;

//---------------dance-single - ----------------
#NOTES:
     dance-single:
     :
     Medium:
     7:
     0.000,0.000,0.000,0.000,0.000:
0000
0000
0000
0000
,
0000
0000
0000
0000
,
0000
0000
0000
0000
,
0000
0000
0000
0000
,
0000
0000
0000
0000
,
0000
0000
0000
0000
,
0000
0000
0000
0000
0000
0000
0000
0000
1000
0000
0010
0000
0100
0000
0001
1000
,
0100
0000
1000
0000
0100
0000
0010
0000
0001
0000
0100
0000
0010
0000
1000
0100
,
1000
0000
0010
0000
0100
0000
0001
0000
0010
0000
0100
0000
1000
0000
0001
0100
,
0010
0000
1000
0000
0100
0000
1000
0000
0010
0000
0100
0000
0001
0000
0010
0100
,
1000
0000
0100
0000
1000
0000
0001
0000
0010
0000
0100
0000
1000
0000
0001
0100
,
0001
1000
0001
1000
0010
0100
1000
0100
,
0001
0100
0010
0100
0002
0000
0000
0003
,
0010
0000
0001
0000
0010
0000
0001
1000
0001
0000
0100
0000
0001
0000
0100
0000
,
0010
0000
0000
0000
0000
0000
0000
0000
0000
0000
0000
0000
1000
0000
0000
0000
0000
0000
0000
0000
0000
0000
0000
0000
0002
0000
0000
0000
0000
0000
0000
0000
0003
0000
0000
0000
0010
0000
0000
0000
0000
0000
0000
0000
0000
0100
0000
0000
,
0010
0000
0000
0010
0100
0000
0010
0000
0022
0000
0033
0000
0001
0000
0000
1000
,
0010
0000
0000
0010
0100
0000
0001
0000
0202
0000
0303
0000
1000
0000
0000
1000
,
0001
0000
0000
0001
1000
0000
0100
0000
2200
0000
3300
0000
1000
0000
0000
0100
,
1000
0000
0000
0010
1000
0000
0010
0000
2020
0000
3030
0000
0010
0000
1000
0000
,
0001
0100
0001
0100
0010
1000
0001
0010
,
0100
1000
0010
0200
0002
0000
0000
0000
,
0300
0000
2000
3003
0100
0010
0001
0100
,
0001
0100
0001
0010
0100
1000
0100
1000
,
0010
0100
0010
0100
0001
0010
0100
1000
,
0001
1000
0100
0010
0001
1000
0100
0010
,
0001
0100
0010
1000
0010
0100
0001
0100
,
0001
0000
0010
0000
0100
0000
1000
0000
0002
0000
0000
0000
0000
0000
0000
0003
,
0200
0000
0000
0000
0000
0000
0000
0000
0000
0000
0000
0000
0000
0000
0000
0300
0000
0000
0001
0000
0000
1000
0000
0000
0001
0000
0000
0000
0000
0000
0000
0000
0000
0000
1000
0000
0000
0000
0000
0000
0000
0000
0100
0000
0000
0000
0000
0000
,
0002
0000
0000
0000
0000
0000
0000
0003
0000
0000
0100
0000
0010
0000
0001
0000
,
0200
0000
0000
0000
0000
0300
0020
0000
2000
0000
0000
0030
0000
0000
3200
0000
,
0002
0000
0300
0000
0000
0000
0000
0000
0200
0000
0003
0000
0002
0300
0000
0000
,
0200
0000
0000
0000
,
0303
0000
0020
0000
0000
0000
0002
0030
,
0000
0000
2000
3003
0010
0001
0010
1000
,
0020
0000
0000
0000
0000
0000
0000
0030
,
1000
0000
0100
0000
1000
0000
0010
0000
1000
0000
0001
0000
0010
0100
0000
0000
,
2000
0000
0000
0000
0000
0000
0000
0000
0000
0000
0000
0000
3000
0000
0000
0000
0000
0000
0010
0000
0000
1000
0000
0000
0010
0000
0000
0000
0000
0000
0000
0000
0000
0000
0100
0000
0000
0000
0000
0000
0000
0000
0001
0000
0000
0000
0000
0000
,
0020
0000
0000
0030
0000
0100
0001
0100
,
0020
0000
0000
0000
0030
0000
0002
0000
0200
0000
0000
0003
0000
0300
0020
0000
,
2000
0000
0030
0000
3002
0003
2000
3000
,
0010
0100
0010
1000
0010
1000
0001
1000
,
0100
0010
0001
0100
0010
1000
0100
0010
,
0001
0100
0010
1000
0100
1000
0010
0100
,
0001
0010
0100
1000
0001
1000
0100
0010
,
0001
0100
0000
0001
0010
0000
0001
0100
0010
1000
0100
0010
,
0110
0220
0000
0000
0000
0000
0330
0000
,
0101
0000
2020
0000
0000
0000
0000
0000
0000
0000
0000
0000
0000
3030
0000
0000
,
0011
2200
0000
0000
0000
0000
3300
0000
,
1010
0000
0202
0000
0000
0000
0000
0000
0000
0000
0000
0000
0000
0303
0000
0000
,
2002
0000
0000
3003
0000
2002
0000
0000
0000
0000
0000
0000
0000
0000
0000
0000
,
0000
0000
0000
0000
,
0000
0000
0000
0000
,
3003
0000
0000
0000
;

//---------------dance-single - ----------------
#NOTES:
     dance-single:
     :
     Hard:
     9:
     0.000,0.000,0.000,0.000,0.000:
0000
0000
0000
0000
,
0000
0000
0000
0000
,
0000
0000
0000
0000
,
0000
0000
0000
0000
,
0000
0000
0000
0000
,
0000
0000
0000
0000
,
0000
0000
0000
0000
0000
0000
0000
0000
1000
0000
0010
0000
0100
0000
0001
1000
,
0100
0000
1000
0000
0100
0000
0010
0000
0001
0000
0100
0000
0010
0000
1000
0100
,
1000
0000
0010
0000
0100
0000
0001
0000
0010
0000
0100
0000
1000
0000
0001
0100
,
0010
0000
1000
0000
0100
0000
1000
0000
0010
0000
0100
0000
0001
0000
0010
0100
,
1000
0000
0100
0000
1000
0000
0001
0000
0010
0000
0100
0000
1000
0000
0001
0100
,
0001
0000
1000
0000
0001
0000
1000
0000
0010
1000
0100
1000
0010
1000
0001
0100
,
0001
0010
0001
0100
0001
1000
0100
0010
0002
0000
0000
0000
0000
0000
0003
0000
,
0010
0000
0001
0000
0010
0000
0001
1000
0001
0000
0100
0000
0001
0000
0100
0000
,
0010
0000
0000
0000
0000
0000
0000
0000
0000
0000
0000
0000
1000
0000
0000
0000
0000
0000
0000
0000
0000
0000
0000
0000
0002
0000
0000
0000
0000
0000
0000
0000
0003
0000
0000
0000
0010
0000
0000
0000
0000
0000
0001
0000
0000
0100
0000
0000
,
0010
0000
1000
0010
0100
0000
0010
0000
2020
0000
3030
0000
1000
0000
0001
1000
,
0010
0000
1000
0001
0100
0000
0001
0000
0202
0000
0303
0000
1000
0000
0010
1000
,
0001
0000
0010
0100
1000
0000
0100
0000
2200
0000
3300
0000
1000
0000
0001
0100
,
0001
0000
1000
0010
1000
0000
0010
0000
2020
0000
3030
0000
0010
0000
0100
0000
,
1000
0100
0001
0100
1000
0100
0001
0010
,
1000
0010
0001
0020
2000
0000
0000
0000
,
0000
0030
0002
3003
0100
0010
0001
0100
,
1000
0100
0001
0010
1000
0010
0100
1000
,
0010
0001
0010
1000
0010
0100
1000
0100
,
0001
1000
0100
0001
0100
1000
0100
0010
,
0001
0100
1000
0100
0001
0100
1000
0100
,
0001
0000
0010
0000
0100
0000
1000
0000
0002
0000
0000
0000
0000
0000
0000
0003
,
0200
0000
0000
0000
0000
0000
0000
0000
0000
0000
0000
0000
0000
0000
0000
0300
0000
0000
0001
0000
0000
1000
0000
0000
0001
0000
0000
0000
0000
0000
0000
0000
0000
0000
1000
0000
0000
0000
0000
0000
0000
0000
0100
0000
0000
0000
0000
0000
,
0002
0000
0000
0000
0000
0000
0000
0003
0000
0000
0100
0000
0010
0000
0001
0000
,
0200
0000
0000
0000
0000
0300
0020
0000
2000
0000
0000
0030
0000
0000
3200
0000
,
0002
0300
0000
0000
2000
0003
0002
3000
,
2000
0000
0000
0000
,
0003
0000
0020
0000
3000
0000
0002
0030
,
0000
0000
2000
3003
0010
0001
0010
1000
,
0020
0000
0000
0000
0000
0000
0000
0030
,
1000
0000
0100
0000
0001
0000
0100
0000
1000
0000
0100
0000
0010
0100
0000
0000
,
2000
0000
0000
0000
0000
0000
0000
0000
0000
0000
0000
0000
3000
0000
0000
0000
0000
0000
0010
0000
0000
1000
0000
0000
0100
0000
0000
0000
0000
0000
0000
0000
0000
0000
0010
0000
0000
0000
0000
0000
0000
0000
1000
0000
0000
0000
0000
0000
,
0020
0000
0000
0030
0000
0100
0001
0100
,
0020
0000
0000
0000
0030
0000
0002
0000
0200
0000
0000
0003
0000
0300
0020
0000
,
0002
0000
0030
0003
2000
3000
0002
0003
,
0010
0001
0010
1000
0010
0001
0010
1000
,
0100
0001
0100
1000
0100
0001
0100
0010
,
1000
0001
1000
0001
1000
0100
1000
0100
1000
0001
1000
0001
0100
0001
0100
0001
,
0010
0001
0010
0001
1000
0010
1000
0010
1000
0001
1000
0001
1000
0100
1000
0100
,
1000
0100
0000
1000
0010
0000
1000
0100
0010
0001
0100
0010
,
0110
0000
1010
0000
0010
0000
1000
0000
0010
0000
1000
0000
0001
0100
0001
0000
,
0101
0000
1010
0000
0010
0000
0100
0000
0001
0000
0100
0000
0001
0010
0001
0000
,
0011
0000
1100
0000
1000
0000
0010
0000
1000
0000
0001
0000
1000
0010
1000
0000
,
1010
0101
0100
0001
1000
0100
1000
0010
,
0200
0000
0000
0000
0300
0220
0000
0000
0000
0000
0000
0000
0000
0000
0000
0000
,
0000
0000
0000
0000
,
0000
0000
0000
0000
,
0000
0330
0000
0000
;

//---------------dance-single - ----------------
#NOTES:
     dance-single:
     :
     Challenge:
     10:
     0.000,0.000,0.000,0.000,0.000:
0000
0000
0000
0000
,
0000
0000
0000
0000
,
0000
0000
0000
0000
,
0000
0000
0000
0000
,
0000
0000
0000
0000
,
0000
0000
0000
0000
,
0000
0000
0000
0000
0000
0000
0000
0000
1000
0000
0010
0000
0100
0000
0001
1000
,
0100
0000
1000
0000
0100
0000
0010
0000
0001
0000
0100
0000
0010
0000
1000
0100
,
1000
0000
0010
0000
0100
0000
0001
0000
0010
0000
0100
0000
1000
0000
0001
0100
,
0010
0000
1000
0000
0100
0000
1000
0000
0010
0000
0100
0000
0001
0000
0010
0100
,
1000
0000
0100
0000
1000
0000
0001
0000
0010
0000
0100
0000
1000
0000
0001
0100
,
0001
0000
1000
0000
0001
0000
1000
0000
0010
1000
0100
1000
0010
0100
0001
0010
,
0100
1000
0010
0100
0001
1000
0100
0010
0002
0000
0000
0000
0000
0000
0000
0000
,
0010
0000
1000
0000
0013
0000
0001
1000
0001
0000
0100
0000
0001
0000
0100
0000
,
1000
0000
0000
0000
0000
0000
0000
0000
0000
0000
0000
0000
0100
0000
0000
0000
0000
0000
0000
0000
0000
0000
0000
0000
0002
0000
0000
0000
0000
0000
0000
0000
0003
0000
0000
0000
0010
0000
0000
0000
0000
0000
0001
0000
0000
0100
0000
0000
,
0010
0000
1000
0010
0100
0000
0110
0000
2002
0000
3003
0000
1000
0000
0001
1000
,
0010
0000
1000
0001
0100
0000
0101
0000
2020
0000
3030
0000
1000
0000
0010
1000
,
0001
0000
0010
0100
1000
0000
1100
0000
0022
0000
0033
0000
0010
0000
0001
0100
,
0001
0000
1000
0010
1000
0000
1010
0000
0202
0000
0303
0000
0001
0100
0010
1000
,
0100
1000
0010
0100
0001
0010
0100
1000
0001
1000
0100
0010
0001
0100
0010
1000
,
0001
0010
0100
1000
0010
0100
0001
1000
0002
0000
0000
0000
0000
0000
0000
0000
,
0000
0000
0000
0000
2000
0000
0003
3000
0001
0010
0100
1000
0001
1000
0100
0010
,
0001
0100
0010
1000
0100
1000
0010
0000
1000
0001
0010
0100
1000
0001
1000
0100
,
0010
0001
0100
0010
1000
0100
1000
0010
0100
0001
0010
0100
1000
0010
0100
0001
,
0010
0100
1000
0010
0100
0001
2000
3000
0010
0100
0001
1000
0100
0010
0001
1000
,
0010
0100
0001
0010
0100
1000
0001
1000
0100
0010
0001
0100
0010
1000
0100
1000
,
0001
0010
0001
0100
0010
1000
0100
0010
0002
0000
0000
0000
0000
0000
0000
0003
,
0200
0000
0000
0000
0000
0000
0000
0000
0000
0000
0000
0000
0000
0000
0000
0300
0000
0000
0001
0000
0000
1000
0000
0000
0001
0000
0000
0000
0000
0000
0000
0000
0000
0000
1000
0000
0000
0000
0000
0000
0000
0000
0100
0000
0000
0000
0000
0000
,
0002
0000
0000
0000
0000
0000
0000
0003
0000
0000
0100
0000
0010
0000
0001
0000
,
0200
0000
0000
0000
0000
0300
0020
0000
2000
0000
0000
0030
0000
0000
3200
0000
,
0002
0300
0000
0000
2000
0003
0002
3000
,
2000
0000
0000
0000
,
0003
0000
0020
0000
3000
0000
0002
0030
,
0000
0000
2000
3003
0010
0001
0010
1000
,
0020
0000
0000
0000
0000
0000
0000
0030
,
1000
0000
0100
0000
0001
0000
0100
0000
1000
0000
0100
0000
0010
0100
0000
0000
,
2000
0000
0000
0000
0000
0000
0000
0000
0000
0000
0000
0000
3000
0000
0000
0000
0000
0000
0010
0000
0000
1000
0000
0000
0100
0000
0000
0000
0000
0000
0000
0000
0000
0000
0010
0000
0000
0000
0000
0000
0000
0000
1000
0000
0000
0000
0000
0000
,
0020
0000
0000
0030
0000
0100
0001
0100
,
0020
0000
0000
0000
0030
0000
0002
0000
0200
0000
0000
0003
0000
0300
0020
0000
,
0002
0000
0030
0003
2000
3000
0002
0003
,
0010
0001
0010
1000
0010
0001
0010
1000
,
0100
0001
0100
1000
0100
0001
0100
0010
,
0001
1000
0010
1000
0100
0010
0001
0100
0010
1000
0100
0010
0001
1000
0001
0010
,
0100
1000
0010
0100
0001
0010
0100
1000
0100
1000
0010
1000
0001
0100
0001
0000
,
1000
0100
0000
1000
0010
0000
1000
0100
0010
0001
0100
0010
,
0110
0000
1010
0000
1000
0010
1000
0001
0010
0100
1000
0010
0100
0001
0100
0000
,
0101
0000
1010
0000
0010
1000
0100
0010
0001
0100
0010
1000
0100
0010
0001
0000
,
0011
0000
1100
0000
1000
0100
0010
0001
1000
0001
0010
0100
1000
0010
1000
0000
,
1010
0000
0101
0000
0100
0001
0100
0010
1000
0001
0100
0010
1000
0100
1000
0001
,
0200
0000
0000
0000
0300
2222
0000
0000
0000
0000
0000
0000
0000
0000
0000
0000
,
0000
0000
0000
0000
,
0000
0000
0000
0000
,
0000
3333
0000
0000
;
