#TITLE:SPEEDWAY;
#SUBTITLE:;
#ARTIST:NICO;
#CREDIT:Lucie;
#MUSIC:SPEEDWAY NIKO.ogg;
#SELECTABLE:YES;
#BACKGROUND:Speeday-bg.png;
#BANNER:Speedway-bn.png;
#CDTITLE:;
#DISPLAYBPM:157.000:157.000;
#OFFSET:-0.114989;
#SAMPLESTART:38.321;
#SAMPLELENGTH:12.000;
#BPMS:0=157.098;
#STOPS:;

//---------------dance-single - ----------------
#NOTES:
     dance-single:
     :
     Challenge:
     11:
     0.000,0.000,0.000,0.000,0.000:
0000
0000
0000
0000
,
0000
0000
0000
0000
2000
0000
0000
0002
,
3000
0000
0000
0000
0200
0003
0000
0020
,
0000
0300
0000
0030
2000
0000
0000
0020
,
3000
0000
0030
0000
1000
0000
1010
0000
1010
0000
0000
0000
1000
0100
0010
0001
,
0000
1000
0001
0000
0000
0000
1001
0000
1001
0000
0000
0000
0001
0010
0100
1000
,
0000
0001
0100
0000
0001
0100
0010
0000
0200
0000
0000
0000
0000
0000
0020
0000
,
0000
0000
0000
0000
0000
0300
0000
0000
2000
0000
0000
0000
0030
0000
0200
0000
,
0000
0000
3000
0000
0020
0000
0300
0002
,
0000
0033
0000
0000
0010
0000
0011
0000
0011
0000
0000
0000
0001
0100
0001
0010
,
0000
0100
1000
0000
0000
0000
1100
0000
1100
0000
0000
0000
1000
0010
1000
0100
,
0000
0010
0001
0000
1000
0010
0100
0001
2000
0000
0000
0000
0000
0000
0000
0000
,
0000
0000
3000
0000
1100
0000
1000
0100
,
1000
0000
0020
0000
0000
0030
0100
0001
,
0100
0001
0020
0030
0110
0000
0001
1001
,
0000
0200
0002
0303
1010
0000
1010
0000
,
0101
0110
0000
2020
0000
3030
0001
0100
,
0010
0000
1000
1010
1010
0000
1000
0010
,
0100
0000
0000
0000
0040
0000
0000
0030
0220
0000
0000
0000
0330
0000
2020
0000
,
0000
0000
0000
0000
3030
0000
0000
0000
2200
3300
0000
0000
1000
0000
0000
0000
0100
0000
0010
0000
0001
0000
1000
0000
0001
0000
0000
0000
1000
0000
0010
0000
,
1000
0100
0010
0000
0001
1000
0001
0000
1000
0000
0010
0000
0100
0010
1000
0100
,
0010
0000
0001
0100
0000
0001
0010
0100
1000
0000
0100
0000
1000
0100
0010
0001
,
0100
0000
0001
0100
0000
0001
1000
0010
0100
0000
0001
0000
1000
0100
0010
0001
,
0100
0000
0001
1000
0001
0000
0100
0010
1000
0100
1000
0010
0100
0000
0001
0100
,
0010
1000
0001
0000
0100
0010
1000
0000
0001
0000
1000
0000
0001
0010
0100
1000
,
0010
0000
1000
0010
0000
1000
0100
0010
0001
0000
0100
0000
0001
1000
0010
0100
,
0001
0000
0100
0001
0000
0100
0010
1000
0100
0000
1000
0000
0001
0010
0100
1000
,
0010
0000
0100
0001
0000
1000
0100
0010
0100
1000
0001
0100
0010
0000
1000
0001
,
0010
0100
1000
0000
0010
1000
0010
0000
2000
0000
3200
0000
0320
0000
0032
0000
,
0203
2300
3200
0320
2030
3200
0302
0203
,
2300
3020
0032
0023
0230
0302
0023
2030
,
3020
0000
0230
0000
2300
0000
3020
0000
2030
0000
3000
1000
0010
1000
0001
0100
,
0000
0010
1000
0000
0001
0010
0100
0000
2000
0000
0000
3000
0001
0010
0100
1000
,
0000
0001
1000
0000
0010
0100
0020
0000
2030
0000
3002
0000
0023
0000
0230
0000
,
2300
3020
0032
0023
0230
0302
0023
2030
,
3020
0230
0302
0203
0320
0032
0203
2300
,
3200
0000
0320
0000
2030
0000
3002
0000
2003
0000
3000
0001
0100
0001
1000
0010
,
0000
1000
0100
0000
1000
0001
0100
0000
0020
0000
0000
0030
1000
0100
0010
0001
,
0000
0100
0001
0000
1000
0010
1000
0000
0002
0000
0000
0000
0203
0000
0000
0000
,
0310
1000
0010
0000
0200
0000
0320
0000
,
0130
0001
0200
0320
0000
2000
0030
0004
,
0000
0000
0000
3003
1000
0010
0000
2020
,
0000
0000
3030
0020
0000
0030
0200
0000
,
0310
1000
0001
0000
2000
0000
3200
0000
,
0310
0001
0010
0002
0000
0200
0003
0040
,
0000
0000
0000
0000
0000
0330
0110
0000
0101
0000
1010
0000
0000
0000
0022
0000
,
0000
0000
0033
0000
2200
3300
1000
0100
,
0010
0000
0022
0000
0000
0033
0001
0010
,
0100
0000
2000
3000
1100
0000
0001
0011
,
0000
0100
1100
0000
1100
0000
1010
0000
,
0101
0011
0000
1001
0000
0000
0001
0100
,
0010
0000
1000
1010
0101
0000
0001
1000
,
0100
0000
0000
0000
0000
0000
0000
0000
4000
0000
0000
0000
0000
0000
0000
3000
2200
0000
0000
0000
0000
0000
0000
0000
3300
0000
0000
0000
0022
0000
0000
0000
,
0033
0020
0030
1010
2000
0000
0000
3001
,
0100
0010
0000
1000
0100
0010
0000
0001
2002
0000
3003
0000
1000
0000
0010
0000
,
1000
0000
2200
0000
0000
3300
0001
0100
,
0001
0000
0000
0000
2000
3000
0000
0000
1001
0000
0000
0000
1000
0000
1001
0000
,
0000
0000
2000
0000
0200
0000
0000
3300
0011
0000
0000
0000
0110
0000
0000
0000
,
1100
0011
0000
0011
0000
0000
1000
0100
,
1000
0000
0010
1010
0011
0000
0001
1000
,
0100
0000
0000
0000
0040
0000
0000
0030
0022
0000
0000
0000
0033
0000
2200
0000
,
0000
0000
3300
0000
0011
0000
0010
0000
0100
0010
0001
1000
0001
0000
0010
0001
,
0100
0010
0100
0000
0010
1000
0010
0000
1000
0000
0100
0000
1000
0100
0010
0001
,
0100
0000
0010
1000
0000
0100
1000
0010
0100
0000
0001
0000
0100
0010
1000
0100
,
0010
0000
0001
0100
0000
0010
1000
0100
0010
0000
0100
0000
0010
0001
0010
0100
,
1000
0000
0001
1000
0001
0000
1000
0010
0100
0001
0010
0100
1000
0000
0100
0010
,
0001
0010
0100
0000
1000
0010
0100
0000
0001
0000
0100
0000
0010
1000
0100
1000
,
0010
0000
1000
0010
0000
1000
0010
0100
0001
0000
0010
0000
0001
0010
0100
1000
,
0100
0000
0010
0100
0000
1000
0010
0100
0001
0000
0100
0000
0001
0010
0100
1000
,
0010
0000
1000
0010
0000
1000
0010
0100
0001
0010
0100
1000
0010
0000
0100
0001
,
0010
0100
1000
0000
0001
0100
0001
0000
2000
0000
3020
0000
2030
0000
3020
0000
,
0032
0023
2030
3200
0302
0203
0320
0032
,
0203
2300
3200
0320
2030
3200
0320
2030
,
3020
0000
0230
0000
2300
0000
3020
0000
2030
0000
3000
0001
0100
0001
1000
0100
,
0000
1000
0100
0000
1000
0010
1000
0000
0002
0000
0000
0000
1003
0100
0010
0001
,
0000
0100
0001
0000
1000
0100
1000
0000
0020
0000
0032
0000
0023
0000
0230
0000
,
0302
0023
2030
3020
0230
2300
3020
0230
,
2300
3200
2300
3200
0320
2030
3200
0302
,
0203
0000
0320
0000
0230
0000
0320
0000
0032
0000
0003
0100
0010
0100
0001
1000
,
0000
0100
1000
0000
0001
1000
0001
0000
0200
0000
0000
0000
0301
0010
0100
1000
,
0000
0001
1000
0000
0010
1000
0010
0000
0200
0000
0000
0000
0302
0000
0000
0000
,
0103
0010
1000
0000
0020
0000
2030
0000
,
3100
1000
0002
0203
0000
0020
0300
4000
,
0000
0000
0000
3030
0010
0100
0000
0220
,
0000
0000
0330
2000
0000
0000
3200
0000
,
1300
0001
0010
0000
0002
0000
0203
0000
,
0310
0100
0002
0200
0003
0020
0300
4000
,
0000
3030
0000
1010
1010
0101
0000
2020
,
0000
0000
0000
0000
0000
3030
0000
0000
1001
0000
0000
0000
0001
0000
0100
0000
,
0010
0000
2000
0000
0000
3000
0100
0010
,
0001
0000
0100
0000
0202
0303
0010
1010
,
0000
1010
1010
0000
0101
0000
1001
0000
,
1100
0000
0011
0000
0000
0000
2002
0000
0000
3003
0000
0000
1000
0000
0001
0000
,
1000
0000
0100
1100
1100
0000
1000
0100
,
0010
0000
0000
0000
0004
0000
0000
0003
0022
0000
0000
0000
0033
0000
1100
0000
,
0000
0000
0200
0000
1000
0000
2300
0000
0000
0000
0000
0000
3001
0000
0100
0010
,
0000
1000
0100
0010
0000
0001
0000
0000
1001
0000
0000
0000
0100
0000
0010
0000
,
1000
0000
0000
0000
0002
0000
0000
0000
0000
0003
0000
0000
0010
0000
0100
0000
,
1000
0000
0010
0000
1010
0000
1000
0010
,
0000
0200
0020
0330
1001
0000
0110
0000
,
1100
0101
0000
0011
0000
0000
0100
0001
,
0010
0000
0001
0011
0011
0000
0010
0100
,
1000
0000
0000
0000
0000
0000
0000
0000
4000
0000
0000
0000
0000
0000
0000
3000
2200
0000
0000
0000
0000
0000
0000
0000
3300
0000
0000
0000
0202
0000
0000
0000
,
0000
0000
0303
0000
1010
0000
1000
0000
0010
1000
0001
0100
0001
0000
1000
0010
,
1000
0100
0010
0000
0001
0100
0001
0000
0100
0000
0001
0000
0100
0010
1000
0100
,
1000
0000
0100
1000
0000
0001
0010
0100
1000
0000
0100
0000
1000
0100
0010
0001
,
0100
0000
0001
0100
0000
0010
1000
0100
1000
0000
0010
0000
0100
0001
1000
0010
,
0100
0000
0001
0100
0001
0000
0100
0010
1000
0100
1000
0010
0100
0000
0001
0100
,
0010
0100
0001
0000
1000
0010
1000
0000
0001
0000
1000
0000
0010
0100
0001
1000
,
0100
0000
1000
0100
0000
1000
0100
0010
0001
0000
0100
0000
0001
1000
0010
0100
,
0010
0000
0100
0010
0000
1000
0100
0010
0001
0000
0100
0000
0010
0100
0001
1000
,
0100
0000
1000
0100
0000
1000
0010
0100
0001
1000
0100
0010
0100
0000
1000
0001
,
1000
0010
0100
0000
0001
1000
0010
0000
2000
0000
3020
0000
0230
0000
2300
0000
,
3200
0320
2030
3200
0320
0032
2003
3020
,
0032
0023
0230
0320
2030
3020
2030
3002
,
0203
0000
0320
0000
2030
0000
3200
0000
2300
0000
3000
0001
1000
0100
1000
0010
,
0000
0100
0001
0000
1000
0100
1000
0000
2200
0000
3300
0000
1000
0100
0010
0001
,
0000
0010
0001
0000
0100
0010
1000
0000
0002
0000
0023
0000
0230
0000
2300
0000
,
3002
0023
0230
2300
3020
0032
0023
0032
,
0023
0230
0320
2030
3200
0302
0203
0302
,
0203
0000
0320
0000
0032
0000
2003
0000
3002
0000
0003
1000
0010
1000
0010
0100
,
0000
0001
0100
0000
0010
1000
0010
0000
2020
0000
3030
0000
1000
0001
0010
0100
,
0000
1000
0100
0000
1000
0010
1000
0000
1010
0000
0000
0000
2000
0000
0000
0000
,
3002
0000
0000
0000
2003
0000
0000
3000
1001
0000
0000
0000
0020
0000
0000
0000
,
0230
0000
0320
0000
2030
0000
0100
0200
,
0000
0000
0000
0010
0010
0000
0022
0000
,
0000
3333
0000
0000
1001
0000
2000
0000
,
3002
0000
0000
0000
2003
0000
0000
3000
1001
0000
0000
0000
0200
0000
0300
0000
,
0020
0030
0200
0302
0000
0100
0000
0200
,
0000
0000
0023
2330
3020
2000
3000
2000
,
3030
0000
0000
0000
1001
0000
1000
0100
,
1000
0000
0010
0000
0110
0000
0100
0001
,
0100
0000
1000
0000
1001
0000
1000
1001
,
0000
1100
0011
0000
0011
0000
1010
0000
,
0101
0000
1100
0000
0000
0000
2002
0000
0000
3003
0001
0000
1000
0000
0010
0000
,
0100
0000
0001
0101
0101
0000
0001
0010
,
0100
0000
0004
0000
1003
0000
1000
0020
,
0000
0000
2030
0000
3001
0000
0002
0000
0000
0000
0000
0000
1003
0000
0010
0100
,
0000
0001
1000
0010
0000
0100
0000
0000
0110
0000
0000
0000
0010
0000
0100
0000
,
0010
0000
2000
0000
0002
3003
1000
0100
,
0010
0000
0001
0100
0101
0000
0010
1010
,
0000
1000
0004
0000
1003
0000
1001
0000
,
1100
0011
0000
0110
0000
0000
0010
0100
,
0001
0000
0100
0110
1001
0000
0001
1000
,
0100
1000
0001
1000
1001
0000
0000
0220
,
0000
0000
0000
0330
1001
0000
0001
0000
1000
0010
0100
0001
1000
0000
0001
0010
,
0100
1000
0010
0000
1000
0001
1000
0000
2002
0000
3003
0000
0001
1000
0000
1000
,
0001
0000
0001
1000
0000
1000
1001
0000
1001
0000
0000
0000
0001
1000
0000
1000
,
0100
0000
0100
1000
0000
0001
0100
0001
0101
0000
0000
0000
0001
0010
0100
1000
,
0010
0000
1000
0010
0000
0100
0001
0010
0100
1000
0010
0100
0001
0000
0100
0010
,
1000
0100
0010
0000
0001
1000
1001
0000
2002
0000
3003
0000
0001
1000
0000
1000
,
0010
0000
0010
1000
0000
1000
1010
0000
1010
0000
0000
0000
0010
1000
0000
1000
,
0100
0000
0100
0010
0000
0001
0100
0001
0101
0000
0000
0000
0001
0010
0100
1000
,
0001
0000
1000
0100
0000
1000
0010
0100
0001
0100
0010
1000
0001
0000
0010
0100
,
1000
0010
0100
0000
0010
1000
0100
0000
0020
0000
0032
0000
0203
0000
0320
0000
,
0230
2300
3200
0320
2030
3200
0302
0203
,
0320
0032
2003
3020
0032
0023
0230
0302
,
2003
0000
3200
0000
0320
0000
0032
0000
2003
0000
3000
0010
1000
0100
0010
0001
,
0000
1000
0001
0000
0100
0010
1010
0000
2020
0000
3030
0000
0001
0100
0010
1000
,
0000
0010
1000
0000
0001
0100
0010
0000
2000
0000
3200
0000
0320
0000
0032
0000
,
0023
0230
0302
0203
2300
3020
0032
0023
,
0230
0302
0023
0230
2300
3000
0020
0230
,
0302
0000
2003
0000
3200
0000
0320
0000
0032
0000
0003
1000
0010
1000
0010
0100
,
0000
0010
1000
0000
0001
0100
0101
0000
0101
0000
0000
0000
0001
0100
0010
1000
,
0000
0010
1000
0000
0001
0010
0011
0000
0002
0000
0000
0000
2003
0000
0000
0000
,
3100
0010
0001
0000
0200
0000
0320
0000
,
0130
0001
2000
3200
0000
0020
0300
0004
,
0000
0000
0000
0033
0001
1000
0000
2002
,
0000
0000
3003
0020
0000
0000
0230
0000
,
0301
0010
0100
0000
2000
0000
3002
0000
,
0013
0100
2000
0200
3000
0020
0300
0004
,
0000
0033
0000
0011
0011
1100
0000
2020
,
0000
0000
0000
0000
0000
3030
0000
0000
0202
0000
0000
0303
0100
0000
0001
0000
,
0010
0000
0022
0000
0000
0033
0001
0010
,
0100
0000
2000
3000
1100
0000
0010
0110
,
0000
0100
0101
0000
0101
0000
1010
0000
,
0101
0011
0000
1100
0000
0000
1000
0010
,
0100
0000
0001
0101
1010
0000
0010
1000
,
0100
0000
0000
0000
0400
0000
0000
0300
2200
0000
0000
0000
3300
0000
0022
0000
,
0033
0000
1100
0000
1000
0000
0200
0000
0000
0000
0000
0000
0310
0000
0001
0100
,
0000
0010
1000
0001
0000
1000
0000
0000
2002
0000
3003
0000
1000
0000
0100
0000
,
1000
0000
2200
0000
0000
3300
0001
0010
,
0001
0000
0100
0000
0101
0000
0001
1001
,
0000
0000
2000
0000
0200
0000
0000
3300
1100
0000
0000
0000
0110
0000
0000
0000
,
0011
1100
0000
0110
0000
0000
1000
0001
,
1000
0000
0010
1010
0101
0000
0100
1000
,
0010
0000
0000
0000
0400
0000
0000
0300
0220
0000
0000
0000
0330
0000
2002
0000
,
3003
0000
0022
0000
0000
0000
0000
0033
1100
0000
1000
0000
0100
0010
0001
1000
,
0001
0000
1000
0001
1000
0001
1000
0000
0010
0000
0100
0000
0001
0010
0100
1000
,
0010
0000
1000
0010
0000
1000
0001
0010
0100
0000
1000
0000
0010
0100
0001
1000
,
0100
0000
1000
0100
0000
1000
0100
0010
0001
0000
0100
0000
0001
0010
0100
1000
,
0001
0000
0100
0001
0100
0000
0001
1000
0010
0100
0001
1000
0100
0000
1000
0010
,
0100
0001
1000
0000
0010
1000
0001
0000
0100
0000
0010
0000
1000
0100
0010
0001
,
0100
0000
0001
0100
0000
0001
0010
0100
1000
0000
0100
0000
1000
0010
0100
0001
,
0010
0000
0001
0010
0000
0001
0010
0100
1000
0000
0010
0000
1000
0100
0010
0001
,
1000
0000
0001
1000
0000
0010
0100
0001
1000
0010
0100
0001
1000
0000
0100
1000
,
0010
0100
0001
0000
0100
0010
1000
0000
0002
0000
0000
0000
0023
0000
0000
0000
,
0230
0000
1000
0000
2300
3000
1100
0000
0022
0000
0000
0033
0020
0000
0000
0000
,
2000
0030
0001
0000
0002
3000
0000
0003
1001
0000
0000
0000
0100
0000
0101
0000
,
0200
0000
0000
0000
0320
0000
0000
0030
0220
0000
0000
0330
2002
0000
0000
3003
,
1000
0001
1000
0000
0100
0000
1100
0000
0202
0000
0000
0303
0002
0000
0000
0000
,
0203
0000
0000
0000
0320
0030
1010
0000
0202
0000
0000
0303
0200
0000
0000
0000
,
0321
0000
0001
0000
2030
0000
0000
3000
1010
0000
0000
0000
1000
0000
0101
0000
,
0000
0000
0000
0000
1001
0000
1001
0000
1000
0100
0010
0001
0100
0000
0001
0010
,
0100
1000
0010
0000
1000
0001
1000
0000
4M04
00M0
0M00
00M0
0M00
00M0
0M00
00M0
,
0M00
00M0
0M00
0000
0M00
0M00
0M00
0M00
3MM3
0000
MMMM
MMMM
0MM0
0MM0
MMMM
M00M
,
0000
0000
0000
0000
,
0000
0000
0000
0000
,
0000
0000
0000
0000
,
0000
0000
0000
0000
;
