#TITLE:Hellracer;
#SUBTITLE:;
#ARTIST:Vanilla Ninja;
#CREDIT:;
#MUSIC:07_vanilla_ninja_-_hellracer.mp3;
#SELECTABLE:YES;
#BACKGROUND:;
#BANNER:;
#CDTITLE:;
#DISPLAYBPM:160.000:160.000;
#OFFSET:-0.0719955;
#SAMPLESTART:0.000;
#SAMPLELENGTH:0.000;
#BPMS:0=160.024,1=159.995,2=160.024,3=159.995,4=160.024,5=159.995,6=160.024,7=159.995,8=160.024,9=159.995,10=160.024,11=159.995,12=160.024,13=159.995,14=160.024,15=159.995,16=160.005,17=159.995,18=160.005,19=159.995,20=160.005,21=159.995,22=160.005,23=159.995,24=160.005,25=159.995,26=160.005,27=159.995,28=160.005,29=159.995,30=160.005,31=159.995,32=160.005,33=159.995,34=160.005,35=159.995,36=160.005,37=159.995,38=160.005,39=159.995,40=160.005,41=159.995,42=160.005,43=159.995,44=160.005,45=159.995,46=160.005,47=159.995,48=160.005,49=159.995,50=160.005,51=159.995,52=160.005,53=159.995,54=160.005,55=159.995,56=160.005,57=159.995,58=160.005,59=159.995,60=160.005,61=159.995,62=160.005,63=159.995,64=160.005,65=159.995,66=160.005,67=159.995,68=160.005,69=159.995,70=160.005,71=159.995,72=160.005,73=159.995,74=160.005,75=159.995,76=160.005,77=159.995,78=160.005,79=159.995,80=160.005,81=159.995,82=160.005,83=159.995,84=160.005,85=159.995,86=160.005,87=159.995,88=160.005,89=159.995,90=160.005,91=159.995,92=160.005,93=159.995,94=160.005,95=159.995,96=160.005,97=159.995,98=160.005,99=159.995,100=160.005,101=159.995,102=160.005,103=159.995,104=160.005,105=159.995,106=160.005,107=159.995,108=160.005,109=159.995,110=160.005,111=159.995,112=160.005,113=159.995,114=160.005,115=159.995,116=160.005,117=159.995,118=160.005,119=159.995,120=160.005,121=159.995,122=160.005,123=159.995,124=160.005,125=159.995,126=160.005,127=159.995,128=160.005,129=159.995,130=160.005,131=159.995,132=160.005,133=159.995,134=160.005,135=159.995,136=160.005,137=159.995,138=160.005,139=159.995,140=160.005,141=159.995,142=160.005,143=159.995,144=160.005,145=159.995,146=160.005,147=159.995,148=160.005,149=159.995,150=160.005,151=159.995,152=160.005,153=159.995,154=160.005,155=159.995,156=160.005,157=159.995,158=160.005,159=159.995,160=160.005,161=159.995,162=160.005,163=159.995,164=160.005,165=159.995,166=160.005,167=159.995,168=160.005,169=159.995,170=160.005,171=159.995,172=160.005,173=159.995,174=160.005,175=159.995,176=160.005,177=159.995,178=160.005,179=159.995,180=160.005,181=159.995,182=160.005,183=159.995,184=160.005,185=159.995,186=160.005,187=159.995,188=160.005,189=159.995,190=160.005,191=159.995,192=160.005,193=159.995,194=160.005,195=159.995,196=160.005,197=159.995,198=160.005,199=159.995,200=160.005,201=159.995,202=160.005,203=159.995,204=160.005,205=159.995,206=160.005,207=159.995,208=160.005,209=159.995,210=160.005,211=159.995,212=160.005,213=159.995,214=160.005,215=159.995,216=160.005,217=159.995,218=160.005,219=159.995,220=160.005,221=159.995,222=160.005,223=159.995,224=160.005,225=159.995,226=160.005,227=159.995,228=160.005,229=159.995,230=160.005,231=159.995,232=160.005,233=159.995,234=160.005,235=159.995,236=160.005,237=159.995,238=160.005,239=159.995,240=160.005,241=159.995,242=160.005,243=159.995,244=160.005,245=159.995,246=160.005,247=159.995,248=160.005,249=159.995,250=160.005,251=159.995,252=160.005,253=159.995,254=160.005,255=159.995,256=160.005,257=159.995,258=160.005,259=159.995,260=160.005,261=159.995,262=160.005,263=159.995,264=160.005,265=159.995,266=160.005,267=159.995,268=160.005,269=159.995,270=160.005,271=159.995,272=160.005,273=159.995,274=160.005,275=159.995,276=160.005,277=159.995,278=160.005,279=159.995,280=160.005,281=159.995,282=160.005,283=159.995,284=160.005,285=159.995,286=160.005,287=159.995,288=160.005,289=159.995,290=160.005,291=159.995,292=160.005,293=159.995,294=160.005,295=159.995,296=160.005,297=159.995,298=160.005,299=159.995,300=160.005,301=159.995,302=160.005,303=159.995,304=160.005,305=159.995,306=160.005,307=159.995,308=160.005,309=159.995,310=160.005,311=159.995,312=160.005,313=159.995,314=160.005,315=159.995,316=160.005,317=159.995,318=160.005,319=159.995,320=160.005,321=159.995,322=160.005,323=159.995,324=160.005,325=159.995,326=160.005,327=159.995,328=160.005,329=159.995,330=160.005,331=159.995,332=160.005,333=159.995,334=160.005,335=159.995,336=160.005,337=159.995,338=160.005,339=159.995,340=160.005,341=159.995,342=160.005,343=159.995,344=160.005,345=159.995,346=160.005,347=159.995,348=160.005,349=159.995,350=160.005,351=159.995,352=160.005,353=159.995,354=160.005,355=159.995,356=160.005,357=159.995,358=160.005,359=159.995,360=160.005,361=159.995,362=160.005,363=159.995,364=160.005,365=159.995,366=160.005,367=159.995,368=160.005,369=159.995,370=160.005,371=159.995,372=160.005,373=159.995,374=160.005,375=159.995,376=160.005,377=159.995,378=160.005,379=159.995,380=160.005,381=159.995,382=160.005,383=159.995,384=160.005,385=159.995,386=160.005,387=159.995,388=160.005,389=159.995,390=160.005,391=159.995,392=160.005,393=159.995,394=160.005,395=159.995,396=160.005,397=159.995,398=160.005,399=159.995,400=160.005,401=159.995,402=160.005,403=159.995,404=160.005,405=159.995,406=160.005,407=159.995,408=160.005,409=159.995,410=160.005,411=159.995,412=160.005,413=159.995,414=160.005,415=159.995,416=160.005,417=159.995,418=160.005,419=159.995,420=160.005,421=159.995,422=160.005,423=159.995,424=160.005,425=159.995,426=160.005,427=159.995,428=160.005,429=159.995,430=160.005,431=159.995,432=160.005,433=159.995,434=160.005,435=159.995,436=160.005,437=159.995,438=160.005,439=159.995,440=160.005,441=159.995,442=160.005,443=159.995,444=160.005,445=159.995,446=160.005,447=159.995,448=160.005,449=159.995,450=160.005,451=159.995,452=160.005,453=159.995,454=160.005,455=159.995,456=160.005,457=159.995,458=160.005,459=159.995,460=160.005,461=159.995,462=160.005,463=159.995,464=160.005,465=159.995,466=160.005,467=159.995,468=160.005,469=159.995,470=160.005,471=159.995,472=160.005,473=159.995,474=160.005,475=159.995,476=160.005,477=159.995,478=160.005,479=159.995,480=160.005,481=159.995,482=160.005,483=159.995,484=160.005,485=159.995,486=160.005,487=159.995,488=160.005,489=159.995,490=160.005,491=159.995,492=160.005,493=159.995,494=160.005,495=159.995,496=160.005,497=159.995,498=160.005,499=159.995,500=160.005,501=159.995,502=160.005,503=159.995,504=160.005,505=159.995,506=160.005,507=159.995,508=160.005,509=159.995,541=159.985,542=159.995,571=159.985,572=159.995;
#STOPS:;

//---------------dance-single - ----------------
#NOTES:
     dance-single:
     :
     Medium:
     8:
     0.000,0.000,0.000,0.000,0.000:
MMMM
0MM0
MMMM
M00M
MMMM
0MM0
MMMM
M00M
,
MMMM
0MM0
MMMM
M00M
MMMM
0MM0
MMMM
M00M
,
MMMM
0MM0
MMMM
M00M
MMMM
0MM0
MMMM
M00M
,
MMMM
0MM0
MMMM
M00M
MMMM
0MM0
MMMM
M00M
,
MMMM
0MM0
MMMM
M00M
MMMM
0MM0
MMMM
M00M
,
MMMM
0MM0
MMMM
M00M
MMMM
0MM0
MMMM
M00M
,
MMMM
0MM0
MMMM
M00M
MMMM
0MM0
MMMM
M00M
,
MMMM
0MM0
MMMM
M00M
MMMM
0MM0
MMMM
0000
,
1001
0000
0010
0100
0001
1000
0010
0100
,
0000
0001
0010
0100
0000
0010
0000
0100
,
1000
0000
0001
1000
0010
0100
0000
0001
,
0000
0000
1000
1000
0000
0100
0100
0000
,
0010
0010
0001
0100
0001
1000
0001
0100
,
0000
0010
0100
0010
0000
1000
0100
1000
,
0001
0010
0100
1000
0001
0100
0010
0200
,
0000
0300
0001
1000
0001
0100
0010
0100
,
0002
0003
0100
0010
0100
0001
0010
0001
,
0000
1000
0100
0100
0000
0010
0010
0001
,
1000
0100
0010
0001
0100
0001
0000
0010
,
0001
0000
1000
0001
0000
1000
0100
1000
,
0010
0100
0001
0020
0030
0001
0010
0100
,
1000
0100
0010
0001
0000
0010
0100
0000
,
0010
0010
0000
0001
0001
0010
0011
0001
,
0012
0000
0010
0000
0010
0000
0010
0003
,
0200
2300
3000
0002
0000
2003
0000
3000
,
0010
0100
0010
1000
0000
0001
0100
0000
,
0001
0000
0200
0020
0300
1000
0030
0001
,
0000
0000
1000
0001
1000
0000
0010
0000
,
0100
0001
0010
0100
0000
1000
0000
0001
,
0000
0100
0010
0100
0000
0002
0003
0000
,
0200
0302
0003
0020
0000
0230
0000
0320
,
0000
0000
0000
0031
0000
0001
0000
0000
,
0010
0000
0001
0100
0000
0020
0000
0030
,
1000
0001
0100
0010
0000
2000
0000
3100
,
0000
0000
0010
0002
0000
2000
0000
0203
,
0000
0300
0200
0000
0000
0000
0310
0000
,
3010
0100
0001
0100
0000
0020
0030
1000
,
0000
0001
0010
0100
0000
1000
0000
0010
,
0100
0000
0001
2000
3000
0100
0000
0010
,
0000
0000
0000
0000
0002
0000
0023
0000
0000
0000
0002
0000
0030
2000
0000
0000
,
3003
0000
0000
0000
1001
0000
0000
0000
0002
0000
0000
0000
2003
0000
0000
3000
,
0100
1000
0100
1000
0000
0010
0000
0100
,
0010
0110
0101
0001
,
0100
0001
0100
0001
0010
0001
0000
1000
,
0100
0000
0110
0000
0022
0033
0010
0000
,
0001
1000
0001
1000
0000
1001
0000
1000
,
0010
0000
1000
0001
0000
0100
0000
0000
,
0010
0100
0000
0010
1000
0000
0001
0000
,
1001
0000
1000
0010
1000
0001
0010
0100
,
0000
1000
0001
0100
0001
0100
0010
0200
,
0300
0100
0001
0100
0010
1000
0000
0010
,
0000
0000
1000
0001
0100
0001
0100
0001
,
0010
0000
0001
0010
0100
1000
0000
0001
,
0000
1000
0100
1000
0010
1000
0010
0100
,
0001
0010
0100
1000
0001
0000
0100
0010
,
2000
3000
0200
0020
0300
0130
0000
1000
,
0010
0000
0100
0001
0010
0001
1000
0100
,
0000
1000
0010
0100
0001
0010
0100
1000
,
0000
0001
0010
0100
1000
0001
0000
0020
,
0000
0030
0001
1000
0010
1000
0001
0100
,
0010
1000
0100
0010
0001
1000
0100
0010
,
0001
1000
0100
1000
0001
0010
0100
0000
,
0010
0000
0010
0000
0000
0000
0001
0000
0001
0000
0010
0000
0100
0000
0010
0100
,
0020
0000
0200
0300
0200
0300
0200
0330
,
0002
0023
0000
0032
0000
1003
0000
0000
,
0100
0010
0100
1000
0000
0001
0100
0000
,
0001
0000
2000
0020
3000
0100
0030
0001
,
0000
0000
1000
0001
1000
0000
0010
0000
,
0100
0001
0100
0010
0000
1000
0000
0001
,
0000
0010
0100
0010
0000
0002
0003
0000
,
0020
0230
0000
0320
0000
0032
0000
2003
,
0000
0000
0000
0100
3000
1000
0000
0000
,
0010
0000
1000
0100
0000
0020
0000
0030
,
0001
0100
0001
1000
0000
0100
0000
0010
,
0000
0000
0001
0200
0000
0020
0000
2300
,
0000
0000
3000
0000
2000
0000
0000
0000
0000
3000
0000
0000
1030
0000
0000
0000
,
0010
0100
0001
0100
0000
0010
0000
1000
,
0000
0100
0010
0001
0000
1000
0000
0010
,
0100
0000
0001
1000
0000
0100
0000
1000
,
0000
0000
0000
0000
0200
0000
2000
0000
0000
0000
3320
0000
0000
2000
0000
0000
,
3030
0000
1010
0000
0202
0303
0001
0000
,
1000
0010
1000
0010
0000
0100
0000
0001
,
0010
0000
1100
0000
0022
0033
0010
0000
,
0001
0010
0001
0010
0000
0100
0000
0010
,
0100
0000
0110
0000
2002
3003
0001
0000
,
1000
0001
1000
0001
0000
1001
0000
0001
,
0010
0000
0100
1000
0000
0010
0000
0000
,
0100
0001
0000
1000
0000
0001
1001
0000
,
2002
0003
0001
0000
0001
0000
3000
0000
,
2200
0000
0300
0000
0100
0000
0000
0000
3100
0000
0000
0000
1000
0010
1000
0000
,
0020
0030
2020
0030
0010
0000
3010
0000
,
0100
0001
0100
0000
0000
0000
0101
0000
0000
0000
0000
0000
0001
0100
0001
0000
,
0100
0201
0301
0200
,
0302
0000
0000
0000
2003
0000
0000
0000
3020
0000
0000
0030
1000
0100
1000
0000
,
0020
0030
0100
0002
0000
2003
0000
3000
,
0200
0000
0300
0000
0010
0000
0002
0000
0003
0000
0100
0000
0001
1000
0001
0000
,
2002
0000
0000
0000
0000
0000
0000
3003
,
2000
0000
3002
0000
0000
0003
0020
0000
0000
0000
0230
0000
0000
0300
0000
0000
,
1000
0010
0100
0001
0000
1000
0100
0000
,
0010
0000
0000
0000
0002
0000
0020
0003
0000
0000
0100
0000
0030
0000
2000
0000
,
0000
3000
0000
0000
0010
0000
0100
0000
0010
0000
0000
0000
1000
0000
0000
0000
,
0001
0100
0010
0100
0000
0001
0000
1000
,
0000
0000
0100
0000
0010
0000
0001
0000
0000
0000
2000
0000
0000
3000
0000
0000
,
0020
0000
2030
0000
0000
3000
0020
0000
0000
0000
0230
0000
0000
0000
0301
0000
,
0000
1000
0000
0010
0000
1000
0000
0000
,
0010
0000
1000
0001
0000
0200
0000
0300
,
0010
1000
0100
1000
0000
0002
0000
0103
,
0000
0000
0010
2000
0000
3200
0000
0020
,
0000
0000
0000
0030
2000
0000
0000
0000
0000
3000
0000
0000
0310
0000
0000
0000
,
0001
0100
0001
0100
0000
0010
0000
0100
,
0000
0001
0010
0100
0000
1000
0000
0010
,
0100
0000
0001
1000
0000
0100
0000
0010
,
0000
0000
0000
0000
0002
0000
2003
0000
0000
0000
3200
0000
0000
0320
0000
0000
,
0030
0110
1100
1000
,
0001
0010
0001
0010
0000
0001
0000
0010
,
0100
0110
0011
0001
,
0100
0010
0100
0010
0000
0110
0000
0100
,
0001
0101
1010
0101
,
0001
0000
0100
0000
0001
0000
0100
0000
0000
0000
1000
0000
1000
0000
0001
0010
,
0001
0000
0000
0000
0100
0000
0001
0000
0000
0000
0101
0000
0000
0000
0001
0010
,
0001
0000
0010
0100
0000
1100
0000
0000
,
0002
0000
2003
0000
3000
0000
0200
0000
0000
0000
2300
0000
0000
3000
0000
0000
,
0100
0010
0100
1000
0000
0001
0100
0000
,
0001
0000
2000
0020
3000
1000
0000
1000
,
0000
0000
0000
0000
0000
0000
0000
0000
0000
0000
0000
0000
0030
0000
0000
0000
0000
0000
0000
0000
0000
0000
0000
0000
0000
0000
0000
0000
0000
0000
0000
0000
0000
0000
0000
0000
0000
0000
0000
0000
0000
0000
0000
0000
0000
0000
0000
0000
0001
0000
0000
0000
0000
0000
0000
0000
0000
0000
0000
0000
0000
0000
0000
0000
0000
0000
0000
0000
0000
0000
0000
0000
1000
0000
0000
0000
0000
0000
0000
0000
0000
0000
0000
0000
0000
0000
0000
0000
0000
0000
0000
0000
0000
0000
0000
0000
0001
0000
0000
0000
0000
0000
0000
0000
0000
0000
0000
0000
0000
0000
0000
0000
0000
0000
0000
0000
0000
0000
0000
0000
0000
0000
0000
0000
0000
0000
0000
0000
0000
0000
0000
0000
0000
0000
0000
0000
0000
0000
0000
0000
0000
0000
0000
0000
2000
0000
0000
0000
0000
0000
0000
0000
0000
0000
0000
0000
0000
3000
0000
0000
0000
0000
0000
0000
0000
0000
0000
0000
0000
0000
0000
0000
0000
0000
0000
0000
0000
0000
0000
0000
0000
0000
0000
0000
0000
0000
0000
0000
0000
0000
0000
0000
,
0010
1000
0010
0100
0000
0001
0000
1000
,
0000
0001
0100
0001
0000
1000
0000
0000
,
0200
2000
0300
3020
0000
0230
0000
0301
,
0000
0100
0000
0010
0000
1000
0000
0000
,
0010
0000
1000
0100
0000
0020
0000
0030
,
0001
0100
0010
1000
0000
0002
0000
0013
,
0000
0000
0100
0020
0000
0002
0000
0230
,
0000
0300
2000
0000
0000
3000
0013
0000
,
0001
0100
0001
0100
0000
0010
0000
1000
,
0000
0100
0010
0100
0000
1000
0000
0010
,
0100
0000
0001
0100
0000
0010
0000
0200
,
0000
0300
0002
0023
0000
0031
1000
0001
,
2002
0MM0
3003
0110
0000
2MM2
0MM0
0MM0
,
0MM0
0MM0
0MM0
0MM0
0MM0
0MM0
3MM3
0MM0
,
MMMM
MMMM
MMMM
0MM0
0000
0000
0000
0000
,
0000
0000
0000
0000
,
0000
0000
0000
0000
,
0000
0000
0000
0000
,
0000
0000
0000
0000
;

//---------------dance-single - ----------------
#NOTES:
     dance-single:
     :
     Hard:
     9:
     0.000,0.000,0.000,0.000,0.000:
MMMM
0MM0
MMMM
M00M
MMMM
0MM0
MMMM
M00M
,
MMMM
0MM0
MMMM
M00M
MMMM
0MM0
MMMM
M00M
,
MMMM
0MM0
MMMM
M00M
MMMM
0MM0
MMMM
M00M
,
MMMM
0MM0
MMMM
M00M
MMMM
0MM0
MMMM
M00M
,
MMMM
0MM0
MMMM
M00M
MMMM
0MM0
MMMM
M00M
,
MMMM
0MM0
MMMM
M00M
MMMM
0MM0
MMMM
M00M
,
MMMM
0MM0
MMMM
M00M
MMMM
0MM0
MMMM
M00M
,
MMMM
0MM0
MMMM
M00M
MMMM
0MM0
MMMM
0000
,
1001
0000
0010
0100
0001
1000
0010
0100
,
0000
0001
0010
0100
0000
1000
0000
0010
,
1000
0000
0001
0010
0100
1000
0000
0001
,
0000
0000
0101
0001
0000
1010
0010
0000
,
0101
0100
0010
0100
0001
1000
0001
0100
,
0000
0010
1000
0010
0000
0100
0001
0010
,
0100
1000
0010
1000
0001
0100
0010
0200
,
0000
0300
0001
0010
0100
1000
0100
0010
,
0002
0003
1000
0001
0100
0010
1000
0100
,
0000
0100
1100
1100
0000
0011
0011
0010
,
0001
1000
0100
0010
0001
1000
0000
0010
,
1000
0000
0001
1000
0000
0010
0100
0001
,
0010
0100
1000
0020
0030
1000
0100
0010
,
0001
0010
0100
1000
0000
0010
0100
0000
,
0110
0010
0000
1001
1000
0001
0011
0010
,
0012
0000
0010
0000
0010
0000
0010
0003
,
0200
2300
3000
0002
0000
2003
0000
3000
,
0010
0100
0010
1000
0000
0001
0100
0000
,
0001
0000
0200
0020
0300
1000
0030
0001
,
0000
0000
1000
0001
1000
0000
0010
0000
,
0100
0001
0010
0100
0000
1000
0000
0001
,
0000
0100
0010
0100
0000
0002
0003
0000
,
0200
0302
0003
0020
0000
0230
0000
0320
,
0000
0000
0000
0031
0000
0001
0000
0000
,
0010
0000
0001
0100
0000
0020
0000
0030
,
1000
0001
0100
0010
0000
2000
0000
3100
,
0000
0000
0010
0002
0000
2000
0000
0023
,
0000
0030
0200
0000
0000
0000
0310
0000
,
3010
0100
0001
0100
0000
0020
0030
1000
,
0000
0001
0010
0100
0000
1000
0000
0010
,
0100
0000
0001
2000
3000
0100
0000
0010
,
0000
0000
0000
0000
0002
0000
0023
0000
0000
0000
0002
0000
0030
2000
0000
0000
,
3003
0000
0000
0000
1001
0000
0000
0000
0002
0000
0000
0000
2003
0000
0000
3000
,
1100
0100
1100
0100
0000
0101
0000
0010
,
0100
0110
1100
0011
,
0001
0011
0001
0011
0010
0001
0000
0010
,
0100
0000
0110
0000
0022
0033
0110
0000
,
1010
0001
0101
0100
0000
0101
0000
0100
,
0010
0000
1000
0001
0000
0100
0000
0000
,
0010
0100
0000
0010
1000
0000
0001
0000
,
1001
0000
1000
0010
1000
0001
0010
0100
,
0000
1000
0001
0100
0001
0100
0010
2000
,
3000
1000
0010
0100
0010
1000
0000
0020
,
0000
0030
1000
0001
0100
0001
0100
0001
,
0010
0000
0001
0010
0100
1000
0000
0001
,
0000
1000
0100
1000
0010
1000
0010
0100
,
0001
0010
0100
1000
0001
0000
0100
0010
,
2000
3000
0200
0020
0300
0130
0000
1000
,
0010
0000
0100
0001
0010
0001
1000
0100
,
0000
1000
0010
0100
0001
0010
0100
1000
,
0000
0001
0010
0100
1000
0001
0000
0020
,
0000
0030
0001
1000
0010
1000
0001
0100
,
0010
1000
0100
0010
0001
1000
0100
0010
,
0001
1000
0100
1000
0001
0010
0100
0000
,
0110
0000
0010
0000
0000
0000
1001
0000
0001
0000
0010
0000
0011
0000
0001
0100
,
0002
0000
2000
3000
0200
0300
2000
3003
,
0002
0023
0000
0032
0000
1003
0000
0000
,
0100
0010
0100
1000
0000
0001
0100
0000
,
0001
0000
2000
0020
3000
0100
0030
0001
,
0000
0000
1000
0001
1000
0000
0010
0000
,
0100
0001
0100
0010
0000
1000
0000
0001
,
0000
0010
0100
0010
0000
0002
0003
0000
,
0020
0230
0000
0320
0000
0032
0000
2003
,
0000
0000
0000
0100
3000
1000
0000
0000
,
0010
0000
1000
0100
0000
0020
0000
0030
,
0001
0100
0001
1000
0000
0100
0000
0010
,
0000
0000
0001
0200
0000
0020
0000
2300
,
0000
3000
0200
0000
0300
0000
1000
0030
,
0010
0100
0001
0100
0000
0010
0000
1000
,
0000
0100
0010
0001
0000
1000
0000
0010
,
0100
0000
0001
1000
0000
0100
0000
1000
,
0000
0000
0000
0000
0200
0000
2000
0000
0000
0000
3320
0000
0000
2000
0000
0000
,
3030
0000
0010
0000
0202
0303
0001
0000
,
0101
0100
0101
0100
0000
0110
0000
0100
,
0010
0000
0110
0000
2020
3030
1000
0000
,
1010
0010
1010
0010
0000
1001
0000
0010
,
0100
0000
0110
0000
2002
3003
0001
0000
,
1001
1000
1001
0001
0000
1100
0000
0100
,
0010
0000
0100
1000
0000
0010
0000
0000
,
0100
0001
0000
1000
0000
0001
1001
0000
,
2002
0003
0001
0000
0001
0000
3000
0000
,
2200
0000
0300
0000
0100
0000
0000
0000
3100
0000
0000
0000
1000
0010
1000
0000
,
1010
0000
0202
0300
0100
0000
0103
0000
,
0100
0001
0100
0000
0000
0000
1001
0000
0000
0000
0000
0000
1000
0001
1000
0000
,
1001
0201
0301
0200
,
0302
0000
0000
0000
2003
0000
0000
0000
3020
0000
0000
0030
1000
0100
1000
0000
,
0020
0030
0100
0002
0000
2003
0000
3000
,
0200
0000
0300
0000
0010
0000
0002
0000
0003
0000
0100
0000
0001
1000
0001
0000
,
2002
0000
0000
0000
0000
0000
0000
3003
,
2000
0000
3002
0000
0000
0003
0020
0000
0000
0000
0230
0000
0000
0300
0000
0000
,
1000
0010
0100
0001
0000
1000
0100
0000
,
0010
0000
0000
0000
0002
0000
0020
0003
0000
0000
0100
0000
0030
0000
2000
0000
,
0000
3000
0000
0000
0010
0000
0100
0000
0010
0000
0000
0000
1000
0000
0000
0000
,
0001
0100
0010
0100
0000
0001
0000
1000
,
0000
0000
0100
0000
0010
0000
0001
0000
0000
0000
2000
0000
0000
3000
0000
0000
,
0020
0000
2030
0000
0000
3000
0020
0000
0000
0000
0230
0000
0000
0000
0301
0000
,
0000
1000
0000
0010
0000
1000
0000
0000
,
0010
0000
1000
0001
0000
0200
0000
0300
,
0010
1000
0100
1000
0000
0002
0000
0103
,
0000
0000
0010
2000
0000
3200
0000
0020
,
0000
0000
0000
0030
2000
0000
0000
0000
0000
3000
0000
0000
0310
0000
0000
0000
,
0001
0100
0001
0100
0000
0010
0000
0100
,
0000
0001
0010
0100
0000
1000
0000
0010
,
0100
0000
0001
1000
0000
0100
0000
0010
,
0000
0000
0000
0000
0002
0000
2003
0000
0000
0000
3200
0000
0000
0320
0000
0000
,
0030
0110
1100
0011
,
0011
0010
0011
0010
0000
0110
0000
0010
,
0100
0110
0011
1100
,
0100
1100
0100
1100
0000
0110
0000
0100
,
1000
1100
0011
0101
,
0101
0000
0001
0000
0101
0000
0001
0000
0000
0000
1100
0000
1000
0000
0001
0100
,
0001
0000
0000
0000
0100
0000
0001
0000
0000
0000
0101
0000
0000
0000
0001
0010
,
0001
0000
0010
0100
0000
1100
0000
0000
,
0002
0000
2003
0000
3000
0000
0200
0000
0000
0000
2300
0000
0000
3000
0000
0000
,
0100
0010
0100
1000
0000
0001
0100
0000
,
0001
0000
2000
0020
3000
1000
0000
0100
,
0030
0000
0000
0000
0000
0000
0000
0000
0000
0000
0000
0000
0000
0000
0000
0000
0000
0000
0000
0000
0000
0000
0000
0000
0000
0000
0000
0000
0000
0000
0000
0000
0000
0000
0000
0000
0000
0000
0000
0000
0000
0000
0000
0000
0000
0000
0000
0000
0001
0000
0000
0000
0000
0000
0000
0000
0000
0000
0000
0000
0000
0000
0000
0000
0000
0000
0000
0000
0000
0000
0000
0000
1000
0000
0000
0000
0000
0000
0000
0000
0000
0000
0000
0000
0000
0000
0000
0000
0000
0000
0000
0000
0000
0000
0000
0000
0001
0000
0000
0000
0000
0000
0000
0000
0000
0000
0000
0000
0000
0000
0000
0000
0000
0000
0000
0000
0000
0000
0000
0000
0000
0000
0000
0000
0000
0000
0000
0000
0000
0000
0000
0000
0000
0000
0000
0000
0000
0000
0000
0000
0000
0000
0000
0000
2000
0000
0000
0000
0000
0000
0000
0000
0000
0000
0000
0000
0000
3000
0000
0000
0000
0000
0000
0000
0000
0000
0000
0000
0000
0000
0000
0000
0000
0000
0000
0000
0000
0000
0000
0000
0000
0000
0000
0000
0000
0000
0000
0000
0000
0000
0000
0000
,
0010
1000
0010
0100
0000
0001
0000
1000
,
0000
0001
0100
0001
0000
1000
0000
0000
,
0200
2000
0300
3020
0000
0230
0000
0301
,
0000
0100
0000
0010
0000
1000
0000
0000
,
0010
0000
1000
0100
0000
0020
0000
0030
,
0001
0100
0010
1000
0000
0002
0000
0013
,
0000
0000
0100
0020
0000
0002
0000
0230
,
0000
0300
2000
0000
0000
3000
0013
0000
,
0001
0100
0001
0100
0000
0010
0000
1000
,
0000
0100
0010
0100
0000
1000
0000
0010
,
0100
0000
0001
0100
0000
0010
0000
0200
,
0000
0300
0002
0023
0000
0031
1000
0001
,
2002
0000
3MM3
M11M
M00M
2MM2
0000
0000
,
0000
0000
0000
3003
,
MMMM
MMMM
MMMM
MMMM
,
M000
M000
MM00
0000
0000
0000
0000
0000
,
0000
0000
0000
0000
,
0000
0000
0000
0000
,
0000
0000
0000
0000
;

//---------------dance-single - ----------------
#NOTES:
     dance-single:
     :
     Challenge:
     13:
     0.000,0.000,0.000,0.000,0.000:
MMMM
0MM0
MMMM
M00M
MMMM
0MM0
MMMM
M00M
,
MMMM
0MM0
MMMM
M00M
MMMM
0MM0
MMMM
M00M
,
MMMM
0MM0
MMMM
M00M
MMMM
0MM0
MMMM
M00M
,
MMMM
0MM0
MMMM
M00M
MMMM
0MM0
MMMM
M00M
,
MMMM
0MM0
MMMM
M00M
MMMM
0MM0
MMMM
M00M
,
MMMM
0MM0
MMMM
M00M
MMMM
0MM0
MMMM
M00M
,
MMMM
0MM0
MMMM
M00M
MMMM
0MM0
MMMM
M00M
,
MMMM
0MM0
MMMM
M00M
MMMM
0MM0
MMMM
0000
,
1001
0000
0100
0010
0001
1000
0010
0100
,
0000
0001
0100
0001
0000
0010
0000
0100
,
1000
0000
0001
0100
0010
1000
0000
0001
,
0000
0000
0101
0001
0000
1010
0010
0000
,
0101
0100
0010
0100
0001
0010
0100
0010
,
0000
0001
0100
0001
0000
0010
0100
1000
,
0001
0010
0100
1000
0001
1000
0010
0100
,
0000
0000
0001
1000
0010
0100
0001
0010
,
0001
0000
1000
0100
0010
0001
0010
0100
,
0000
1000
1100
1010
0000
1010
0101
0100
,
0001
1000
0010
0100
0001
1000
0000
0010
,
1000
0000
0001
0100
0000
0010
1000
0100
,
0010
0001
0100
0010
0000
1000
0010
0100
,
0001
0010
0100
1000
0000
0010
0100
0000
,
0110
0010
0000
1001
1000
0001
0011
0010
,
0202
0300
0020
0030
2000
3000
0020
0033
,
0001
0010
0100
1000
0001
0010
0100
1000
0010
0100
0001
1000
0010
0100
0010
1000
,
0001
0100
0001
1000
0010
0100
0001
1000
0100
0010
0001
1000
0100
0010
0001
0100
,
0010
1000
0100
1000
0010
0100
0001
0010
0001
0100
0010
1000
0100
0010
0001
0010
,
0100
0010
0001
1000
0010
0100
0001
0100
0001
1000
0001
0010
0100
1000
0010
0100
,
0001
0010
0100
1000
0010
0100
0001
1000
0001
0100
0001
1000
0010
0100
0001
1000
,
0100
1000
0100
0010
0001
0100
0010
1000
0010
0100
0010
1000
0001
0000
0000
0000
,
0200
0302
0003
0020
0000
0230
0000
2300
,
0000
0000
0000
3001
0000
0002
0000
0003
,
0010
0001
0100
0010
1000
0100
0010
0001
0100
0010
1000
0001
0010
0001
0100
0001
,
0010
0001
0100
0010
1000
0100
0010
0001
0100
0010
1000
0001
0010
0100
1000
0001
,
0010
0100
1000
0010
0100
0001
1000
0100
0010
0001
1000
0100
0010
0001
0100
0010
,
1000
0001
0100
0001
0010
0100
1000
0010
0100
0001
1000
0010
0100
0001
1000
0100
,
0010
0001
0100
0010
1000
0001
0010
0100
1000
0010
0100
0001
1000
0100
1000
0010
,
0100
0001
1000
0100
0010
0001
0100
0001
1000
0010
1000
0100
0010
0001
0100
0010
,
1000
0001
0100
0010
1000
0100
1000
0001
0010
0100
1000
0001
1000
0010
0100
0001
,
1000
0000
0000
0000
0002
0000
0203
0000
0000
0000
0302
0000
0000
2000
0000
0000
,
3003
0000
0000
0000
0110
0000
0000
0000
0002
0000
0000
0000
2003
0000
0000
3000
,
1100
0001
1100
0001
0000
0101
0000
0100
,
0010
0110
1100
0011
,
0010
0011
1000
1100
1000
0001
0000
0010
,
0100
0000
0110
0000
0022
0033
1010
0000
,
1010
0001
0101
0100
0000
0101
0000
0100
,
0010
0000
1000
0100
0000
0010
0000
0000
,
0001
0100
0000
0010
1000
0000
0001
0000
,
1001
0000
0001
0010
0001
1000
0010
0100
,
0000
0001
1000
0100
1000
0100
0010
0002
,
0003
0001
1000
0010
0100
0001
0000
0010
,
0000
0000
0001
1000
0001
0100
0001
0100
,
0010
0000
1000
0010
0100
0001
0000
1000
,
0000
0001
0100
0001
0010
0001
0010
0100
,
1000
0100
0010
0001
1000
0000
0100
0010
,
0002
0000
0203
0020
0300
0130
0000
0001
,
0010
0000
0001
0100
0010
1000
0100
1000
,
0000
0001
1000
0010
1000
0010
0100
1000
,
0001
1000
0010
0100
0001
1000
0000
0020
,
0000
0030
1000
0001
0100
0001
1000
0010
,
0100
0001
0100
0010
1000
0001
0010
0100
,
1000
0010
0100
0001
0100
0010
0100
0000
,
0110
0000
0010
0000
0000
0000
1001
0000
1000
0000
0010
0000
1010
0000
1000
0100
,
2000
0000
0002
0003
0020
0030
0002
3003
,
1000
0100
0010
0001
0100
0001
0010
0100
1000
0001
0100
0010
1000
0100
0010
0001
,
0100
0001
1000
0010
0100
0001
0010
0100
1000
0001
1000
0010
0100
0001
0010
0100
,
1000
0001
1000
0010
0100
0001
1000
0100
0010
0001
1000
0010
0100
0001
1000
0100
,
1000
0010
1000
0001
0100
0010
1000
0001
0100
0010
1000
0100
0010
0001
0100
0001
,
0100
0010
1000
0001
0100
0010
1000
0100
1000
0010
0100
0001
0010
0100
1000
0010
,
0100
0001
0010
0100
1000
0010
0100
0001
1000
0100
0010
0001
0100
0000
0000
0000
,
0002
0203
0000
0320
0000
0230
0000
0302
,
0000
0000
0000
1003
0000
2000
0000
0000
,
3010
0100
0001
0010
0100
1000
0010
0100
0001
0010
0100
1000
0001
1000
0001
1000
,
0100
0010
0001
0100
0010
1000
0100
0010
0001
0100
0001
1000
0100
1000
0010
0100
,
0001
0100
0001
0010
0100
1000
0001
0100
0010
1000
0100
1000
0001
0010
0001
0100
,
0010
1000
0100
1000
0001
0010
0100
1000
0001
0010
0100
1000
0010
0100
0001
1000
,
0100
0010
0001
1000
0100
0010
0001
1000
0010
0100
0001
1000
0010
0100
0001
1000
,
0100
0010
0001
0100
0010
1000
0001
0100
0010
1000
0001
0010
0100
1000
0001
0100
,
0010
1000
0010
0100
0001
0010
0100
1000
0001
1000
0001
1000
0001
0010
0100
1000
,
0001
0000
0000
0000
1000
0000
0001
0000
0000
0000
0100
0000
0000
0020
0000
0000
,
0030
0000
0010
0000
0202
0303
0001
0000
,
0101
0010
0101
0010
0000
1010
0000
0100
,
0001
0000
0101
0000
2020
3030
1000
0000
,
1010
0100
1010
0100
0000
1100
0000
0100
,
0010
0000
0110
0000
2002
3003
0001
0000
,
1001
1000
1001
0001
0000
1100
0000
0100
,
0010
0000
0100
1000
0000
0001
0000
0000
,
0010
0100
0000
1000
0000
0001
1001
0000
,
2002
0003
0010
0000
0010
0000
3000
0000
,
2200
0000
0300
0000
0010
0000
0000
0000
3001
0000
0000
0000
1000
0100
1000
0000
,
1100
0000
0202
0300
0100
0000
0103
0000
,
0100
0010
0100
0000
0000
0000
1001
0000
0000
0000
0000
0000
1000
0001
1000
0000
,
1001
0201
0301
0200
,
0302
0000
0000
0000
2003
0000
0000
0000
3002
0000
0000
0000
1003
0010
1000
0000
,
0020
0030
0100
0002
0000
2003
0000
3000
,
0200
0000
0300
0000
1000
0000
0020
0000
0030
0000
0100
0000
0001
1000
0001
0000
,
2002
0000
0000
0000
0000
0000
0000
3003
,
1000
0001
1000
0010
1000
0010
0100
0001
0100
0001
1000
0001
1000
0100
0010
0001
,
0100
0010
1000
0001
0010
0100
1000
0001
0100
0010
1000
0100
0010
0001
1000
0001
,
0100
0010
1000
0100
0010
0001
0100
0001
1000
0100
1000
0010
1000
0001
0010
0100
,
1000
0001
1000
0100
0010
0001
1000
0001
0100
0010
1000
0100
0010
0001
1000
0010
,
0100
0001
1000
0010
0100
0001
1000
0100
0010
0001
0100
0010
1000
0001
0100
0010
,
1000
0001
0010
0100
1000
0001
1000
0001
0100
0010
1000
0100
1000
0000
0000
0000
,
MMM2
0000
MM20
0000
MM00
0003
M20M
0000
M00M
0030
20MM
0000
00MM
0300
0M2M
0000
,
0M0M
0000
0M0M
0000
3M0M
0000
1M0M
0000
MM0M
0000
2M0M
0000
0M0M
0000
0M0M
0030
,
3M1M
1000
0100
0010
0001
1000
0100
0010
0001
1000
0100
0010
0001
0100
0010
1000
,
0001
0010
0100
1000
0001
0010
0100
1000
0001
0010
0100
1000
0001
0100
0010
1000
,
0001
0100
0010
1000
0100
0010
0001
1000
0010
0100
0001
0010
0100
1000
0001
1000
,
0100
1000
0001
0100
0001
0010
0100
1000
0001
0100
0010
0100
0001
1000
0100
0010
,
0100
1000
0001
0100
0001
0010
0001
0100
0010
1000
0100
1000
0010
0100
0001
0100
,
0001
1000
0100
0010
0001
1000
0100
1000
0001
0100
0010
1000
0100
0010
0001
1000
,
0010
0100
0001
0010
0100
1000
0001
0100
0010
1000
0001
1000
0010
0100
0001
1000
,
0100
0000
0000
0000
1000
0000
0010
0000
0000
0000
1000
0000
0000
0002
0000
0000
,
0003
0000
1001
0000
0022
0033
1100
0000
,
1100
0010
1100
0010
0000
0110
0000
0100
,
0010
0011
1100
0011
,
0100
0011
0100
0011
0000
1100
0000
0010
,
0100
0000
0110
0000
0202
0303
1010
0000
,
1010
0000
0001
0000
1010
0000
0001
0000
0000
0000
0101
0000
0001
0000
1000
0100
,
1000
0000
0000
0000
0100
0000
0010
0000
0000
0000
0011
0000
0000
0000
0010
0001
,
0010
0000
0000
0000
0200
0000
2000
0000
0000
3300
2200
0000
0000
0000
3300
0000
,
1000
0001
1000
0001
0100
0010
1000
0010
1000
0100
0010
0001
0100
0001
0100
0001
,
0010
0100
1000
0010
0100
0001
1000
0100
0010
0001
1000
0001
1000
0100
0010
0001
,
0100
0010
0100
0001
1000
0100
0010
0100
0010
0001
1000
0001
1000
0010
0100
0001
,
0010
0100
1000
0001
1000
0100
0010
0001
1000
0010
0100
0001
1000
0100
0010
0001
,
1000
0100
0010
0001
1000
0001
1000
0001
0010
0100
1000
0001
0010
0100
1000
0100
,
0010
0100
1000
0001
0100
0010
1000
0001
0010
0100
1000
0001
1000
0000
0000
0000
,
MM2M
0000
2M0M
0000
0M0M
0030
0MM2
0000
0MM0
3000
2MM0
0000
0MM0
0003
0M2M
0000
,
0M0M
0000
0M0M
0000
0M0M
3000
M10M
0000
MM0M
0000
M20M
0000
M00M
0000
M03M
0000
,
M3M1
0100
0010
1000
0001
0100
0010
1000
0001
0100
0010
1000
0010
0100
0001
0100
,
0001
1000
0100
1000
0010
1000
0001
0010
0100
1000
0001
0010
0100
1000
0010
0100
,
0001
1000
0100
1000
0010
1000
0001
0100
0001
0100
0010
1000
0001
0010
0100
1000
,
0001
0010
0100
1000
0010
0100
0001
1000
0001
0100
0010
1000
0100
0010
0001
1000
,
0010
0100
0001
1000
0100
0010
0001
1000
0001
1000
0001
0100
0010
1000
0100
0010
,
0001
0100
0010
0100
0001
0010
0100
1000
0001
0010
0100
1000
0001
1000
0010
0100
,
0001
1000
0010
0100
0001
1000
0100
0010
0001
1000
0100
0010
0001
1000
0001
0100
,
0010
0000
1000
0200
0000
0310
0001
1000
,
2MM2
0000
0000
0000
0MM0
3003
0220
M00M
0000
0330
2002
0MM0
0000
0M00
00M0
0M00
,
00M0
0M00
00M0
0M00
00M0
0M00
0M00
0M00
0M00
0MM0
0000
0MM0
3003
0MM0
MMMM
0000
,
M0M0
M0M0
MMM0
M0M0
M0M0
0000
MMM0
M000
M000
MMM0
M000
M000
MMM0
0000
M000
M000
,
M000
M000
M000
MMM0
0000
M000
M000
M000
M000
M000
MMM0
0000
0000
0000
0000
0000
,
0000
0000
0000
0000
,
0000
0000
0000
0000
,
0000
0000
0000
0000
;
