#TITLE:Evans;
#SUBTITLE:;
#ARTIST:DJ Yoshitaka;
#CREDIT:;
#MUSIC:Evans-IIDX.ogg;
#SELECTABLE:YES;
#BACKGROUND:;
#BANNER:;
#CDTITLE:;
#OFFSET:-0.0813152;
#SAMPLESTART:0.000;
#SAMPLELENGTH:12.000;
#BPMS:0=184.996,2=185.009,3=184.996,5=185.009,6=184.996,9=185.009,10=184.996,12=185.009,13=184.996,15=185.009,16=184.996,19=185.009,20=184.996,22=185.009,23=184.996,25=185.009,26=184.996,29=185.009,30=184.996,32=185.009,33=184.996,36=185.009,37=184.996,39=185.009,40=184.996,42=185.009,43=184.996,46=185.009,47=184.996,49=185.009,50=184.996,52=185.009,53=184.996,56=185.009,57=184.996,59=185.009,60=184.996,62=185.009,63=184.996,66=185.009,67=184.996,69=185.009,70=184.996,73=185.009,74=184.996,76=185.009,77=184.996,79=185.009,80=184.996,83=185.009,84=184.996,86=185.009,87=184.996,89=185.009,90=184.996,93=185.009,94=184.996,96=185.009,97=184.996,99=185.009,100=184.996,103=185.009,104=184.996,106=185.009,107=184.996,109=185.009,110=184.996,113=185.009,114=184.996,116=185.009,117=184.996,120=185.009,121=184.996,123=185.009,124=184.996,126=185.009,127=184.996,130=185.009,131=184.996,133=185.009,134=184.996,136=185.009,137=184.996,140=185.009,141=184.996,143=185.009,144=184.996,147=185.009,148=184.996,150=185.009,151=184.996,153=185.009,154=184.996,157=185.009,158=184.996,160=185.009,161=184.996,163=185.009,164=184.996,167=185.009,168=184.996,170=185.009,171=184.996,173=185.009,174=184.996,177=185.009,178=184.996,180=185.009,181=184.996,184=185.009,185=184.996,187=185.009,188=184.996,190=185.009,191=184.996,194=185.009,195=184.996,197=185.009,198=184.996,200=185.009,201=184.996,204=185.009,205=184.996,207=185.009,208=184.996,210=185.009,211=184.996,214=185.009,215=184.996,217=185.009,218=184.996,220=185.009,221=184.996,224=185.009,225=184.996,227=185.009,228=184.996,231=185.009,232=184.996,234=185.009,235=184.996,237=185.009,238=184.996,241=185.009,242=184.996,244=185.009,245=184.996,247=185.009,248=184.996,251=185.009,252=184.996,254=185.009,255=184.996,257=185.009,258=184.996,261=185.009,262=184.996,264=185.009,265=184.996,267=185.009,268=184.996,271=185.009,272=184.996,274=185.009,275=184.996,278=185.009,279=184.996,281=185.009,282=184.996,284=185.009,285=184.996,288=185.009,289=184.996,291=185.009,292=184.996,295=185.009,296=184.996,298=185.009,299=184.996,301=185.009,302=184.996,305=185.009,306=184.996,308=185.009,309=184.996,311=185.009,312=184.996,315=185.009,316=184.996,318=185.009,319=184.996,322=185.009,323=184.996,325=185.009,326=184.996,328=185.009,329=184.996;
#STOPS:;

//---------------dance-single - ----------------
#NOTES:
     dance-single:
     :
     Medium:
     7:
     0.000,0.000,0.000,0.000,0.000:
0000
0000
0000
1000
,
0100
0010
0001
0100
,
0010
1000
0001
0000
0100
0000
0010
0000
,
0100
0001
0010
0100
,
1000
0000
0001
0100
0010
0000
1010
0000
,
0101
0000
0001
0010
0100
1000
0001
1000
,
0001
1000
1100
0011
,
1000
0000
0110
0000
0001
0000
1000
0001
,
1000
0100
0010
0100
1000
0010
0100
0000
,
0110
0100
0010
1000
,
0100
0000
0010
0001
1000
0000
0100
0000
,
0010
0100
1000
0010
,
0100
0000
0001
0000
0010
0100
1000
0000
,
0010
0100
0001
0100
,
1000
0000
0100
0000
0001
0010
0100
0000
,
0001
0100
1000
0001
,
1000
0001
2000
0000
0200
0000
0020
0000
,
0000
0000
0000
0000
,
0000
3330
0000
1000
,
0100
0100
0010
0001
,
0010
0001
0010
0000
0001
0000
0100
0010
,
0100
0000
0001
0000
0010
0000
0001
1000
,
0001
0000
0010
0000
0100
0000
1000
0010
,
1000
0001
0010
0100
,
0010
0001
0010
0000
0001
0000
0100
0000
,
0010
1000
0001
0000
0010
0000
0100
0000
,
0010
0001
1000
0000
0100
0000
1001
0000
,
1000
0000
0100
0000
1000
0001
0100
0000
,
0010
0000
0001
0000
0100
0010
0100
0000
,
0010
0000
1000
0000
0100
0010
0001
0000
,
0100
0000
1000
0100
0001
0000
0010
0000
,
0100
0010
0001
0000
0010
0000
0100
0000
,
1000
0010
0100
0000
0001
0000
1000
0000
,
0001
0010
0001
0000
1000
0000
0100
0000
,
1000
0010
0100
0000
0001
0000
0110
0000
,
0010
0000
0100
0000
0001
1000
0000
0000
,
0010
0000
1000
0000
0001
0100
0000
0000
,
0001
0000
0100
0000
0010
1000
0000
0000
,
0001
0000
0100
0000
0001
1000
0000
0000
,
1000
0001
0000
0000
0010
0100
0000
0000
,
0100
0010
0000
0000
0001
0100
0010
0000
,
1000
0100
0010
0001
,
1000
0000
0001
0000
1000
0000
0001
1000
,
0001
0000
1000
0000
0001
0000
1000
0000
0001
0000
1000
0000
0001
1000
0001
1000
,
0001
1000
0001
1000
0001
1000
0001
1000
0001
1000
0001
2000
0002
0000
0000
0000
,
0000
0000
0000
0000
3003
0000
1000
0001
,
0100
0010
1000
0001
0100
0000
0001
0000
,
0010
0000
0001
0000
1000
0000
0010
0100
,
0001
0010
0100
1000
0010
0000
1000
0000
,
0001
0000
0010
0100
1000
0000
1000
0000
,
0100
0000
0010
0000
0001
0000
0010
0001
,
0100
0001
0100
0010
1000
0000
0001
0000
,
0010
0000
0100
0000
0010
0000
0001
0010
,
0100
1000
0100
0010
0001
0000
0100
0000
,
0001
0000
0100
0000
0001
0000
0010
0001
,
1000
0100
0010
0001
1000
0000
0010
0000
,
0100
0000
0001
1000
0100
0000
0010
0000
,
0100
0000
1000
0000
0010
0000
0100
0010
,
0100
0010
1000
0001
0100
0000
0010
0000
,
0100
0000
0001
0000
0010
0000
0100
0010
,
0001
1000
0001
0100
0010
0000
0100
0000
,
0001
0000
1000
0000
0010
0000
0010
0100
,
0001
1000
0010
0100
0001
0000
1001
0000
,
2002
0000
0000
0000
0000
3003
1001
0000
,
1000
0110
0001
1000
,
0001
0000
1100
0000
0100
0010
0100
0000
,
1000
0000
0000
0000
0010
0000
0100
0000
0020
0000
0000
0000
,
0000
0000
0030
0200
0000
0000
0000
0000
0000
0302
0000
0000
,
0000
2003
0001
3001
,
0100
0000
0001
0010
0100
1000
0010
0000
,
1100
0000
0011
0000
0110
0000
2002
3003
,
1000
0000
0100
0000
1000
0000
0001
0001
,
0100
0000
0010
0000
1000
1000
0100
0000
,
0010
0000
0001
0001
1000
0000
0010
0000
,
0100
0000
0001
0001
0100
0000
0010
0000
,
1000
0000
0001
0000
0010
0001
0100
0000
,
0001
0000
0010
0001
0100
0000
0010
0100
,
0010
0000
1000
0001
1000
0100
0010
0001
,
0010
0001
0100
0010
1000
0000
2002
0000
,
0M00
00M0
0M00
00M0
0M00
00M0
0M00
00M0
,
0M00
0M00
0MM0
0000
0000
0000
3003
0000
,
0000
0000
0000
0000
,
0000
0000
0000
0000
;

//---------------dance-single - ----------------
#NOTES:
     dance-single:
     :
     Hard:
     8:
     0.000,0.000,0.000,0.000,0.000:
0000
0000
0000
1000
,
0100
0010
0001
0100
,
0010
1000
0001
0000
0100
0000
0010
0000
,
0100
0001
0010
0100
,
1000
0000
0001
0100
0010
0000
1010
0000
,
0101
0000
0001
0010
0100
1000
0001
1000
,
0001
1001
1100
0011
,
1000
0000
0110
0000
0001
0000
1000
0001
,
1000
0100
0010
0100
1000
0010
0100
0000
,
0110
0100
0010
1000
,
0100
0000
0010
0001
1000
0000
0100
0000
,
0010
0100
1000
0010
,
0100
0000
0001
0000
0010
0100
1000
0000
,
0010
0100
0001
0100
,
1000
0000
0100
0000
0001
0010
0100
0000
,
0001
0100
1000
0001
,
1000
0001
2000
0000
0200
0000
0020
0000
,
0000
0001
0000
0001
,
0000
0000
3330
0000
0000
0000
1000
0010
,
0100
0001
0100
0010
0010
1000
0001
0100
,
0010
1000
0010
0100
0001
1000
0100
0100
,
0010
0001
0100
0010
1000
0010
0100
0001
,
0100
0001
0001
0010
0001
0100
0010
1000
,
0010
0100
0001
0010
0001
1000
0010
1000
,
0100
0010
0010
1000
0001
0100
0010
1000
,
0010
0100
0001
1000
0001
0001
0010
0001
,
0100
0010
1000
0010
0100
0000
1001
0000
,
1000
0001
0100
0010
1000
0010
0100
0001
,
1000
0100
1000
0010
0100
0001
0010
0001
,
0010
0100
1000
0100
1000
0001
0010
0001
,
0100
0010
1000
0010
0100
0001
0010
0001
,
1000
0010
1000
0100
0010
0001
0100
0010
,
1000
0100
0010
0001
1000
0001
1000
0010
,
1000
0100
0010
0001
1000
0001
0100
0010
,
1000
0010
0100
0001
1000
0000
0110
0000
,
0010
0000
0100
0000
0001
1000
0000
0000
,
0010
0000
1000
0000
0001
0100
0000
0000
,
0001
0000
0100
0000
0010
1000
0000
0000
,
0001
0000
0100
0000
0001
1000
0000
0000
,
1000
0001
0000
0000
0010
0100
0000
0000
,
0100
0010
0000
0000
0001
0100
0010
0000
,
1000
0000
0100
0000
0010
0000
0002
0003
,
2000
3000
0002
0003
2000
3000
0001
1000
,
0001
0000
1000
0000
0001
0000
1000
0000
0001
0000
1000
0000
0001
1000
0001
1000
,
0001
1000
0001
1000
0001
1000
0001
1000
0001
1000
0001
2000
0002
0000
0000
0000
,
0000
0000
0000
0000
3003
0000
1000
0001
,
0100
0010
1000
0001
0100
0000
0001
0010
,
0100
1000
0010
0100
0001
0000
0010
0100
,
1000
0010
0100
0001
0010
0000
0001
0100
,
1000
0100
0001
0100
0010
0010
1000
0100
,
1000
0010
0100
0001
0100
0000
0010
0001
,
0100
0001
0100
0010
1000
0000
0001
0100
,
0010
1000
0010
0100
0001
0000
1000
0100
,
0010
0001
0100
0010
1000
0000
0100
0001
,
0100
1000
0001
0010
0001
0000
0010
0001
,
1000
0100
0010
0001
1000
0000
0010
1000
,
0100
0010
0100
1000
0001
0000
0010
0001
,
0010
0100
1000
0001
0010
0000
0010
0001
,
0100
0010
1000
0010
0100
0000
0010
1000
,
0100
0010
0001
0100
0010
0000
0100
0010
,
1000
0001
1000
0100
0010
0000
0100
0010
,
0001
1000
0001
0100
0010
0000
0010
0100
,
0001
1000
0010
0100
0001
0000
2002
3003
,
2002
0000
0000
0000
0000
3003
1001
0000
,
1100
0110
0011
1100
,
1000
0000
1100
0000
0100
0010
0100
0000
,
1000
0000
0000
0000
0010
0000
0100
0000
0020
0000
0000
0000
,
0000
0000
0030
0200
0000
0000
0000
0000
0000
0302
0000
0000
,
0000
2003
0001
3001
,
0100
0000
0001
0010
0100
1000
0010
0000
,
1000
1000
0010
1000
0001
0000
2002
3003
,
1000
0001
0100
0010
1000
0010
0100
0001
,
1000
0100
1000
0010
0100
0001
0010
0001
,
0010
0100
1000
0100
1000
0001
0010
0001
,
0100
0010
1000
0010
0100
0001
0010
0001
,
1000
0010
1000
0100
0010
0001
0100
0010
,
1000
0100
0010
0001
0100
0010
1000
0100
,
0010
0100
1000
0010
1000
0100
0010
0001
,
0010
0001
0100
0010
1000
0000
2002
0000
,
0M00
00M0
0M00
00M0
0M00
00M0
0M00
00M0
,
0M00
00M0
0M00
0M00
0M00
0M00
3MM3
0000
,
0000
0000
0000
0000
,
0000
0000
0000
0000
;

//---------------dance-single - ----------------
#NOTES:
     dance-single:
     :
     Challenge:
     9:
     0.000,0.000,0.000,0.000,0.000:
0000
0000
0000
1000
,
0100
0010
0001
0100
,
0010
1000
0001
0000
1100
0000
1010
0000
,
0100
0001
0010
0100
,
1000
0000
0001
0100
0010
0000
1010
0000
,
0101
0100
0001
0010
0100
1000
0001
1001
,
1000
1001
1100
0011
,
1000
0000
0110
0000
0001
0000
1100
1000
,
1000
0100
0010
0001
0010
0001
0100
0000
,
0110
0100
0010
1000
,
0100
0000
0010
0001
1000
0000
0100
0000
,
0010
0100
1000
0010
,
0100
0000
0001
0000
0010
0100
1000
0000
,
0010
0100
0001
0100
,
1000
0000
0100
0000
0001
0010
0100
0000
,
0001
0100
1000
0001
,
1000
0001
2000
0000
0200
0000
0002
0000
,
0010
0010
0010
0010
,
0010
0000
3303
0000
0000
0000
1000
0010
,
0100
0001
0100
0010
0010
1000
0001
0100
,
0010
1000
0010
0100
0001
1000
0100
0100
,
0010
0001
0100
0010
1000
0010
0100
0001
,
0100
0001
0001
0010
0001
0100
0010
1000
,
0010
0100
0001
0010
0001
1000
0010
1000
,
0100
0010
0001
1000
0001
0100
0010
1000
,
0010
0100
0001
1000
0001
0001
0010
0001
,
0100
0010
1000
0010
0100
0000
2002
3003
,
1000
0001
0100
0010
1000
0010
0100
0001
,
1000
0100
1000
0010
0100
0001
0010
0001
,
0010
0100
1000
0100
1000
0001
0010
0001
,
0100
0010
1000
0010
0100
0001
0010
0001
,
1000
0010
1000
0100
0010
0001
0100
0010
,
1000
0100
0010
0001
1000
0001
1000
0010
,
1000
0100
0010
0001
1000
0001
0100
0010
,
1000
0010
0100
0001
1000
0000
0110
0000
,
0010
0000
0000
0000
0100
0000
0000
0000
0001
0000
2020
0000
0000
3030
0000
0000
,
0010
0000
0000
0000
1000
0000
0000
0000
0001
0000
0202
0000
0000
0303
0000
0000
,
0001
0000
0000
0000
0100
0000
0000
0000
0010
0000
2020
0000
0000
3030
0000
0000
,
0001
0000
0100
0000
0001
2002
3003
0000
,
1000
2002
3003
0000
0010
0220
0330
0000
,
0100
0000
0220
0000
0330
0000
0000
0000
1000
0001
0100
0000
0020
0000
0000
0000
,
2030
3200
0320
0032
,
2003
0000
0000
0000
3002
0000
0000
0000
2003
0000
0000
0000
3002
0003
2000
3000
,
0002
0003
2000
3000
0002
0003
2000
3000
0002
0003
2000
3000
0001
1000
0001
1000
,
0001
1000
0001
1000
0001
1000
0001
1000
0001
1000
0001
2000
0002
0000
0000
0000
,
0000
0000
0000
0000
3003
0000
1000
0001
,
0100
0010
1000
0001
0100
0000
1001
0010
,
0100
0001
0010
0100
1000
0001
0010
0100
,
1000
0010
0100
0001
0010
0001
1000
0100
,
1000
0010
0100
0001
1000
0100
1000
0100
,
0010
0001
0100
0010
0100
0001
0010
0001
,
0100
0001
0100
0010
1000
0100
1000
0100
,
0010
0001
0010
0100
1000
0001
1000
0100
,
0010
0001
0100
0010
1000
0100
1000
0001
,
0100
0010
1000
0100
0010
0001
0010
0001
,
1000
0100
0010
0001
1000
0010
0100
0001
,
1000
0010
0100
0010
1000
0100
0010
0001
,
0010
0100
1000
0001
0010
0100
0010
0001
,
0100
0010
1000
0010
0100
0001
0010
0001
,
0100
0010
1000
0100
0010
0001
0100
0010
,
1000
0001
1000
0100
0010
0100
1000
0010
,
0100
0001
1000
0100
0010
0100
0010
0001
,
1000
0010
0100
0001
1000
0000
2002
3003
,
2002
0000
0000
0000
0000
3003
1001
0000
,
1100
0110
0011
1100
,
1000
0000
1100
0000
0100
0010
0100
0000
,
1000
0000
0000
0000
0000
0000
0000
0000
0000
0000
0000
0010
0000
0000
0000
0000
0100
0000
0000
0000
0000
0020
0000
0000
0000
0000
0000
0000
0000
0000
0000
0000
,
0000
0200
0030
0002
,
0300
0000
0000
2000
0003
0000
0001
0000
0000
3001
0000
0000
,
0100
0000
0001
0010
0100
1000
0010
0000
,
1000
0100
0010
0001
1000
0000
2002
3003
,
0001
0100
0001
0000
0100
0000
0010
0000
1000
0000
0010
0000
0100
0000
0001
0000
,
1000
0000
0100
0000
1000
0000
0010
0000
0100
0001
0010
0000
0001
0000
0010
0000
,
0100
0000
1000
0000
0010
0000
0100
0000
0001
1000
0001
0000
0010
0000
0001
0000
,
0010
0000
0100
0000
1000
0000
0010
0000
0100
0001
1000
0000
0010
0000
1000
0000
,
0001
0000
0010
0000
0001
0000
0010
0000
0100
0010
0001
0000
1000
0000
0010
0000
,
1000
0000
0100
0000
0010
0000
0001
0000
0100
0001
0010
0000
0100
0000
1000
0000
,
0010
0000
0100
0000
0001
0000
0010
0000
0001
1000
0100
0000
0010
0000
0001
0000
,
0010
0001
0100
0010
2002
30M3
2M02
00M0
,
0M00
00M0
0M00
00M0
0M00
00M0
0M00
00M0
,
0M00
00M0
0000
0M00
0M00
0M00
0MM0
0000
,
3003
0000
0000
0000
,
0000
0000
0000
0000
;
