#TITLE:Close Combat;
#SUBTITLE:;
#ARTIST:ParagonX9;
#CREDIT:Lucie;
#MUSIC:ParagonX9 - Close Combat.mp3;
#SELECTABLE:YES;
#BACKGROUND:;
#BANNER:;
#CDTITLE:;
#OFFSET:-0.104989;
#SAMPLESTART:0.000;
#SAMPLELENGTH:0.000;
#BPMS:0=136.097,1=136.104,2=136.097,3=136.104,4=136.097,6=136.104,7=136.097,8=136.104,9=136.097,10=136.104,11=136.097,13=136.104,14=136.097,15=136.104,16=136.097,18=136.104,19=136.097,20=136.104,21=136.097,23=136.104,24=136.097,25=136.104,26=136.097,28=136.104,29=136.097,30=136.104,31=136.097,32=136.104,33=136.097,34=136.104,35=136.097,37=136.104,38=136.097,39=136.104,40=136.097,41=136.104,42=136.097,44=136.104,45=136.097,46=136.104,47=136.097,48=136.104,49=136.097,50=136.104,51=136.097,53=136.104,54=136.097,55=136.104,56=136.097,58=136.104,59=136.097,61=136.104,62=136.097,63=136.104,64=136.097,66=136.104,67=136.097,69=136.104,70=136.097,71=136.104,72=136.097,74=136.104,75=136.097,77=136.104,78=136.097,79=136.104,80=136.097,82=136.104,83=136.097,85=136.104,86=136.097,87=136.104,88=136.097,90=136.104,91=136.097,93=136.104,94=136.097,95=136.104,96=136.097,98=136.104,99=136.097,101=136.104,102=136.097,103=136.104,104=136.097,106=136.104,107=136.097,108=136.104,109=136.097,110=136.104,111=136.097,112=136.104,113=136.097,114=136.104,115=136.097,116=136.104,117=136.097,118=136.104,119=136.097,120=136.104,121=136.097,122=136.104,123=136.097,124=136.104,125=136.097,126=136.104,127=136.097,128=136.104,129=136.097,130=136.104,131=136.097,132=136.104,133=136.097,134=136.104,135=136.097,136=136.104,137=136.097,138=136.104,139=136.097,140=136.104,141=136.097,142=136.104,143=136.097,144=136.104,145=136.097,146=136.104,147=136.097,148=136.104,149=136.097,150=136.104,151=136.097,152=136.104,153=136.097,154=136.104,155=136.097,156=136.104,157=136.097,158=136.104,159=136.097,160=136.104,161=136.097,162=136.104,163=136.097,164=136.104,165=136.097,166=136.104,167=136.097,168=136.104,169=136.097,170=136.104,171=136.097,172=136.104,173=136.097,174=136.104,175=136.097,176=136.104,177=136.097,178=136.104,179=136.097,180=136.104,181=136.097,182=136.104,183=136.097,184=136.104,185=136.097,186=136.104,187=136.097,188=136.104,189=136.097,190=136.104,191=136.097,192=136.104,193=136.097,194=136.104,195=136.097,196=136.104,197=136.097,198=136.104,199=136.097,200=136.104,201=136.097,202=136.104,203=136.097,204=136.104,205=136.097,206=136.104,207=136.097,208=136.104,209=136.097,210=136.104,211=136.097,212=136.104,213=136.097,214=136.104,215=136.097,217=136.104,218=136.097,219=136.104,220=136.097,221=136.104,222=136.097,223=136.104,224=136.097,225=136.104,226=136.097,227=136.104,228=136.097,229=136.104,230=136.097,231=136.104,232=136.097,233=136.104,234=136.097,235=136.104,236=136.097,237=136.104,238=136.097,239=136.104,240=136.097,241=136.104,242=136.097,243=136.104,244=136.097,245=136.104,246=136.097,247=136.104,248=136.097,249=136.104,250=136.097,251=136.104,252=136.097,253=136.104,254=136.097,255=136.104,256=136.097,257=136.104,258=136.097,259=136.104,260=136.097,261=136.104,262=136.097,263=136.104,264=136.097,265=136.104,266=136.097,267=136.104,268=136.097,269=136.104,270=136.097,271=136.104,272=136.097,273=136.104,274=136.097,275=136.104,276=136.097,277=136.104,278=136.097,279=136.104,280=136.097,281=136.104,282=136.097,283=136.104,284=136.097,285=136.104,286=136.097,287=136.104,288=136.097,289=136.104,290=136.097,291=136.104,292=136.097,293=136.104,294=136.097,295=136.104,296=136.097,297=136.104,298=136.097,299=136.104,300=136.097,301=136.104,302=136.097,303=136.104,304=136.097,305=136.104,306=136.097,307=136.104,308=136.097,309=136.104,310=136.097,311=136.104,312=136.097,313=136.104,314=136.097,315=136.104,316=136.097,317=136.104,318=136.097,319=136.104,320=136.097,321=136.104,322=136.097,323=136.104,324=136.097,325=136.104,326=136.097,327=136.104,328=136.097,329=136.104,330=136.097,331=136.104,332=136.097;
#STOPS:;

//---------------dance-single - ----------------
#NOTES:
     dance-single:
     :
     Medium:
     9:
     0.000,0.000,0.000,0.000,0.000:
0000
0000
0000
0000
,
0000
0000
0000
0000
,
0000
0000
0000
0000
,
0000
0000
0000
0000
,
0000
0000
0000
0000
,
0000
0000
0000
0000
,
0000
0000
0000
0000
,
0000
0000
0001
1000
0100
0010
0001
0100
,
0010
1000
0002
0000
0000
2000
0000
0000
,
0023
3200
0000
0000
,
0032
0000
0000
0003
0002
0000
0000
0000
0300
0000
0200
0000
0000
0000
0000
0000
,
0023
2300
0000
0030
,
3200
0000
0000
0300
0200
0000
0000
0000
0000
0000
2000
0000
0000
0000
0300
0000
,
0020
3200
0000
0000
,
0000
0000
0000
0030
0002
0000
0000
0000
0000
0300
0020
0000
0000
0000
0000
0000
,
2003
0030
0000
0000
,
0000
3000
1010
1000
0010
0100
0010
1000
,
0100
1000
1100
0100
1000
0100
0010
0001
,
0100
0001
0101
0001
0100
0001
0010
0100
,
1000
0010
1010
1000
0010
0100
0001
0010
,
0100
0010
0110
0010
0001
1000
0010
1000
,
0100
1000
1100
1000
0010
1000
0001
0100
,
0001
0010
0011
0010
0100
1000
0001
0100
,
0010
1000
1010
0010
0100
0001
0010
0100
,
1000
0000
0001
0000
1001
0000
0001
0000
1000
0100
1000
0000
0001
0000
1000
0000
,
0010
0000
0100
0000
0001
0000
0010
0000
0100
1000
0100
0000
0010
0000
0100
0000
,
0010
0000
0001
0000
1000
0000
0010
0000
0100
0001
0100
0000
0010
0000
1000
0000
,
0010
0000
0100
0000
0001
0000
0100
0000
0001
1000
0001
0000
0100
0000
0010
0000
,
1000
0000
0001
0000
0100
0000
0010
0000
1000
0010
1000
0000
0010
0000
1000
0000
,
0100
0000
0010
0000
0001
0000
1000
0000
0100
1000
0100
0000
1000
0000
0100
0000
,
0010
0000
0001
0000
0100
0000
0010
0000
1000
0001
1000
0000
0010
0000
0100
0000
,
0001
0000
1000
0000
0010
0000
0100
0000
0001
0100
0001
0000
0010
0000
0001
0000
,
1000
0001
1000
0002
2000
0000
0000
0000
3003
0000
2002
0000
3003
1000
0001
0000
,
2000
0010
0010
3010
0000
1020
1000
1000
,
1030
0000
2100
0000
0100
0000
3100
0000
0000
0000
0022
0033
0000
0000
0001
0000
,
0100
0000
0002
0000
0100
0000
0103
0000
0000
0000
0202
0303
0000
0000
0001
0000
,
0010
0002
0010
0013
0000
2200
3300
1000
,
0100
0000
0020
0000
0100
0000
0130
0000
0000
0000
0022
0033
0000
0000
0010
0000
,
0100
0000
2000
0000
0001
0000
3001
0000
0000
0000
2002
0000
0000
3003
1000
0000
,
0001
1000
0100
0010
0001
1000
0100
0010
,
0001
0000
0010
0000
0100
1000
0000
0000
1000
0100
0000
0000
0100
1000
0000
0000
,
0010
0000
1000
0000
0100
0010
0000
0000
0010
0001
0000
0000
0001
0100
0000
0000
,
0001
0000
0010
0000
0100
1000
0000
0000
1000
0100
0000
0000
0100
0010
0000
0000
,
0001
0000
1000
0000
1001
0100
0000
0000
0100
0010
0000
0000
0010
0100
0000
0000
,
0001
0000
0010
0000
0100
1000
0000
0000
1000
0001
0000
0000
0001
0100
0000
0000
,
0010
0000
0100
0000
0001
0100
0000
0000
0100
0010
0000
0000
0010
1000
0000
0000
,
0100
0000
0010
0000
0100
0010
0000
0000
0010
0100
0000
0000
0100
1000
0000
0000
,
0100
0000
0010
0000
0001
1000
0000
0000
1000
0001
0000
0000
0001
0010
0000
0000
,
0001
0000
0100
0000
0001
0010
0000
0000
0010
0100
0000
0000
0100
1000
0000
0000
,
0100
0000
1000
0000
0100
1000
0000
0000
1000
0100
0000
0000
0100
0010
0000
0000
,
0001
0000
0010
0000
0001
0100
0000
0000
0100
0010
0000
0000
0010
1000
0000
0000
,
0100
0000
0010
0000
0001
0100
0000
0000
0100
0010
0000
0000
0010
1000
0000
0000
,
0001
0000
0010
0000
0100
1000
0000
0000
1000
0010
0000
0000
0010
0100
0000
0000
,
0100
0000
0010
0000
1000
0100
0000
0000
0100
0010
0000
0000
0010
0001
0000
0000
,
0100
0000
0001
0000
0100
0010
0000
0000
0010
1000
0000
0000
1000
0001
0000
0000
,
0010
0000
0100
0000
1000
0100
0000
0000
0100
0010
0000
0000
0010
0001
0000
0000
,
0100
0001
1001
1000
0010
0100
0001
1000
,
0001
0100
0101
0100
0010
0100
0001
1000
,
0100
1000
1100
1000
0100
0010
0001
0100
,
0001
0010
0011
0010
0001
0100
0001
1000
,
0010
1000
1010
0010
0100
0001
1000
0100
,
0010
0001
0011
0001
1000
0010
1000
0001
,
0100
0001
0101
0100
0010
1000
0010
0100
,
0001
0010
0011
0010
0100
0010
0001
0100
,
0010
0100
0110
0010
1000
0100
0010
0001
,
0100
0001
0101
0001
0010
0100
1000
0001
,
1000
0001
1001
1000
0010
1000
0100
0010
,
0100
1000
1100
0100
1000
0010
1000
0100
,
1000
0010
1010
0010
0100
0001
0010
0001
,
0100
0001
0101
0001
0010
0100
1000
0100
,
0010
0001
0011
0001
0010
0001
1000
0100
,
1000
0010
1010
0010
1000
0100
0010
0001
,
1000
0000
0001
0000
1001
0000
0001
0000
1000
0001
1000
0000
0001
0000
0010
0000
,
0100
0000
1000
0000
0010
0000
1000
0000
0100
1000
0100
0000
1000
0000
0010
0000
,
0100
0000
0001
0000
0010
0000
0100
0000
1000
0010
1000
0000
0001
0000
0100
0000
,
0010
0000
1000
0000
0100
0000
0010
0000
0001
0010
0001
0000
0100
0000
0010
0000
,
1000
0000
0100
0000
0010
0000
0001
0000
0100
0010
0100
0000
0001
0000
1000
0000
,
0010
0000
0100
0000
0010
0000
1000
0000
0100
1000
0100
0000
0010
0000
0001
0000
,
0100
0000
0010
0000
1000
0000
0001
0000
0100
0001
0100
0000
0010
0000
1000
0000
,
0100
0000
0010
0000
0001
0000
1000
0000
0010
1000
0010
0000
0100
0000
0001
0000
,
1000
0000
0001
0000
1000
0000
0002
0000
2000
0000
0000
0000
0000
00M0
0000
0M00
0000
00M0
0000
0M00
0000
00M0
0000
0M00
0000
00M0
0000
0M00
0000
0000
0000
0M00
,
0000
0M00
0000
0M00
0000
0M00
0000
0MM0
0000
0000
0000
00M0
0000
0M00
0000
00M0
0000
0M00
0000
00M0
0000
0M00
0000
30M3
00M0
0000
0M00
0000
MMMM
0000
MMMM
0000
,
MMMM
0000
0000
0000
,
0000
0000
0000
0000
;

//---------------dance-single - ----------------
#NOTES:
     dance-single:
     :
     Hard:
     11:
     0.000,0.000,0.000,0.000,0.000:
0000
0000
0000
0000
,
0000
0000
0000
0000
,
0000
0000
0000
0000
,
0000
0000
0000
0000
,
0000
0000
0000
0000
,
0000
0000
0000
0000
,
0000
0000
0000
0000
,
0000
0000
0000
0000
0001
1000
0010
1000
0001
0010
0001
0100
0010
1000
0100
0010
,
0001
1000
0010
0100
0002
0000
0000
0000
0000
0000
2000
0000
0000
0000
0000
0000
,
0023
3200
0000
0000
,
0032
0000
0000
0003
0002
0000
0000
0000
0300
0000
0200
0000
0000
0000
0000
0000
,
0023
2300
0000
0030
,
3200
0000
0000
0300
0200
0000
0000
0000
0000
0000
2000
0000
0000
0000
0300
0000
,
0020
3200
0000
0000
,
0000
0000
0000
0030
0002
0000
0000
0000
0000
0300
0020
0000
0000
0000
0000
0000
,
1003
0000
0000
0000
0031
0000
0100
0000
1000
0010
1000
0000
0010
1000
0010
0000
,
1000
0001
1000
0000
1001
0000
1000
0100
0010
0001
0100
0010
1000
0100
0010
0001
,
0100
0010
1000
0000
1010
0000
0010
0100
0001
0010
0100
1000
0010
0100
0001
0010
,
0100
1000
0100
0000
1100
0000
1000
0010
0100
0001
1000
0010
0100
0001
0100
0010
,
1000
0001
0100
0000
0101
0000
0001
0100
0010
1000
0010
0100
0001
0010
0001
1000
,
0100
0010
0001
0000
0011
0000
0010
0100
1000
0010
1000
0100
0010
0100
1000
0001
,
0100
0010
1000
0000
1010
0000
1000
0001
0100
0010
1000
0100
0010
0001
0100
0010
,
1000
0100
1000
0000
1100
0000
0100
1000
0010
0100
0001
0010
0100
1000
0100
0010
,
0001
0100
0010
0000
0110
0000
0010
0100
0001
1000
0100
0010
0100
1000
0010
0100
,
0010
1000
0001
0000
1001
0000
1000
0000
0100
1000
0010
0100
0001
0000
1000
0000
,
0010
0000
0100
0000
0001
0000
0010
0000
0100
1000
0100
1000
0010
0000
0100
0000
,
0010
0000
1000
0000
0001
0000
0100
0000
0010
0100
0001
0010
0100
0000
1000
0000
,
0010
0000
0100
0000
1000
0000
0100
0000
0001
0010
0100
1000
0100
0000
1000
0000
,
0100
0000
0001
0000
0100
0000
1000
0000
0010
0100
0001
0100
0010
0000
1000
0000
,
0100
0000
0010
0000
0001
0000
0100
0000
0001
1000
0100
1000
0010
0000
1000
0000
,
0100
0000
1000
0000
0001
0000
0100
0000
0010
1000
0001
0100
0010
0000
0100
0000
,
0001
0000
1000
0000
0010
0000
1000
0000
0010
0100
0001
0010
0001
0000
1000
0000
,
0001
1000
0001
1000
0001
1000
0001
2000
0002
0000
0000
0000
0000
0000
0000
0000
3003
0000
0000
0000
2002
0000
0000
0000
3003
0000
1000
0000
0001
0000
0000
0000
,
1000
0000
0010
0000
1000
0100
1000
0000
0000
0000
0011
0000
0000
0010
0100
0000
,
1000
0000
1100
0000
0100
0010
0100
0000
0000
0000
0022
0033
0000
0000
0101
0000
,
0110
0000
1010
0000
0010
0100
0001
0000
0000
0000
0202
0303
0000
0000
0011
0000
,
0110
0000
1100
0000
1000
0010
0100
0000
0000
0000
2020
0000
3030
0000
1100
0000
,
0110
0000
0011
0000
0001
1000
0100
0000
0000
0000
2200
0000
3300
0000
1010
0000
,
0110
0000
0101
0000
0100
0001
1000
0000
0000
0000
2002
0000
0000
3003
1010
0000
,
0101
0000
1010
0000
1000
0010
0100
0001
1000
0100
0010
0001
1000
0010
1000
0001
,
0100
0010
1000
0010
0100
0001
1000
0000
0100
1000
0001
0000
0000
0100
0010
0000
,
0100
0001
0010
0000
0001
0100
0010
0000
0100
0010
1000
0000
0000
0010
0100
0000
,
0001
0000
0010
0000
0001
1000
0100
0000
0010
0001
0100
0000
0000
0001
0010
0000
,
0001
0000
0100
0000
0010
0100
0001
0000
0010
0100
1000
0000
0000
0001
0010
0000
,
0100
0000
1000
0000
0010
0100
0010
0000
1000
0100
1000
0000
0000
0100
1000
0000
,
0010
0000
0100
0000
0001
0010
0100
0000
1000
0010
1000
0000
0000
0010
0100
0000
,
0001
0000
1000
0000
0010
0100
0001
0000
1000
0001
0100
0000
0000
0001
0010
0000
,
0100
0000
0010
0000
0001
0100
0010
0000
0100
0001
0010
0000
0000
0001
0100
0000
,
0010
0000
1000
0000
0100
0010
0001
0000
1000
0010
0100
0000
0000
0010
0100
0000
,
0001
0000
0100
0000
0001
1000
0001
0000
0010
0001
0100
0000
0000
0001
0100
0000
,
0010
0000
0100
0000
0010
1000
0001
0000
0010
0100
1000
0000
0000
0001
0100
0000
,
0010
0000
1000
0000
0100
0010
0001
0000
0100
0010
1000
0000
0000
0100
1000
0000
,
0010
0000
0100
0000
0010
0100
0001
0000
0010
0100
1000
0000
0000
0010
1000
0000
,
0100
0000
0010
0000
0001
0100
0001
0000
1000
0100
1000
0000
0000
0100
1000
0000
,
0001
0000
0100
0000
0010
0100
0010
0000
1000
0001
1000
0000
0000
0001
0100
0000
,
0001
0000
1000
0000
0010
0100
0001
0000
0010
0100
1000
0000
0000
0001
0100
0000
,
0001
0000
1000
0000
1001
0000
1000
0100
0010
0001
0100
0010
1000
0100
1000
0010
,
0100
0001
0100
0000
0101
0000
0100
0001
0010
0001
0100
0010
1000
0100
0010
0001
,
0100
0010
1000
0000
1010
0000
1000
0010
0100
0001
1000
0010
0100
0001
0100
0010
,
1000
0100
1000
0000
1100
0000
1000
0100
0010
0001
0100
0010
1000
0100
1000
0010
,
0100
0001
0010
0000
0011
0000
0010
0100
1000
0010
0100
0001
0010
0100
1000
0001
,
0100
0001
0100
0000
0101
0000
0100
0010
1000
0100
0010
0001
1000
0010
0100
0010
,
1000
0010
1000
0000
1010
0000
1000
0010
0100
0010
1000
0100
0010
0001
0100
0010
,
1000
0010
0100
0000
0110
0000
0010
1000
0100
1000
0010
0100
0001
0100
0010
0100
,
0001
1000
0001
0000
1001
0000
0001
0010
0100
1000
0100
0010
0001
0100
0010
1000
,
0100
0010
0001
0000
0011
0000
0001
0100
0001
0010
0100
1000
0010
0100
0010
1000
,
0001
1000
0100
0000
1100
0000
1000
0100
1000
0001
0100
0010
0100
0001
1000
0010
,
1000
0001
0100
0000
0101
0000
0100
0010
1000
0100
0010
0001
1000
0010
0100
0001
,
1000
0010
1000
0000
1010
0000
0010
0100
0001
0010
0100
1000
0010
0100
0001
0100
,
0010
0100
0001
0000
0101
0000
0001
1000
0010
0100
0001
0100
0010
1000
0100
0010
,
0001
1000
0100
0000
1100
0000
0100
1000
0010
0100
0001
0010
0100
1000
0001
0100
,
0010
1000
0010
0000
1010
0000
0010
0100
0001
1000
0100
1000
0010
0100
0001
0100
,
0001
1000
0001
0000
1001
0000
1000
0001
1000
0001
1000
0100
1000
0100
0010
0001
,
0100
0001
0100
0001
0010
0100
1000
0010
1000
0010
0100
0010
0100
0010
1000
0001
,
1000
0001
0010
0001
0010
0001
0010
0100
1000
0100
1000
0100
0010
0100
0010
0001
,
0010
0001
0100
0001
0100
0001
0100
0010
1000
0010
1000
0010
0100
0001
1000
0001
,
0100
0010
0100
0001
0010
0100
1000
0100
1000
0100
0010
0100
0010
0001
1000
0001
,
1000
0100
1000
0010
1000
0001
0010
0001
0010
0001
0100
0010
1000
0100
1000
0100
,
0010
0001
0100
0001
0100
0001
0010
0001
0010
0100
1000
0100
1000
0001
1000
0010
,
1000
0010
1000
0010
0100
0001
1000
0001
0010
0001
0100
0001
0100
0001
1000
0001
,
1000
0001
1000
0001
1000
0001
1000
0002
2000
0000
0000
0000
0000
0000
00M0
0000
0M00
0000
00M0
0000
0M00
0000
00M0
0000
0M00
0000
00M0
0000
0M00
0000
0000
0000
,
0M00
0M00
0M00
0M00
0MM0
0000
00M0
0M00
00M0
0M00
00M0
0M00
30M3
0M00
MMMM
MMMM
,
MMMM
0000
0000
0000
,
0000
0000
0000
0000
;

//---------------dance-single - ----------------
#NOTES:
     dance-single:
     :
     Challenge:
     12:
     0.000,0.000,0.000,0.000,0.000:
0000
0000
0000
0000
,
0000
0000
0000
0000
,
0000
0000
0000
0000
,
0000
0000
0000
0000
,
0000
0000
0000
0000
,
0000
0000
0000
0000
,
0000
0000
0000
0000
,
0000
0000
0000
0000
0001
0100
0010
1000
0001
0010
0001
0100
0010
1000
0100
0010
,
0001
1000
0010
0100
0002
0000
0000
0000
0000
0000
2000
0000
0000
0000
0000
0000
,
0023
3200
0000
0000
,
0032
0000
0000
0003
0002
0000
0000
0000
0300
0000
0200
0000
0000
0000
0000
0000
,
0023
2300
0000
0030
,
3200
0000
0000
0300
0200
0000
0000
0000
0000
0000
2000
0000
0000
0000
0300
0000
,
0020
3200
0000
0000
,
0000
0000
0000
0030
0002
0000
0000
0000
0000
0300
0020
0000
0000
0000
0000
0000
,
2003
0032
0000
0000
,
0000
0000
3003
0000
1001
0000
1000
0100
0010
0001
0100
0010
1000
0100
0010
0001
,
0100
0010
1000
0000
1010
0000
0010
0100
0001
0010
0100
1000
0010
0100
0001
0010
,
0100
1000
0100
0000
1100
0000
1000
0010
0100
0001
1000
0010
0100
0001
0100
0010
,
1000
0001
0100
0000
0101
0000
0001
0100
0010
1000
0010
0100
0001
0010
0001
1000
,
0100
0010
0001
0000
0011
0000
0010
0100
1000
0010
1000
0100
0010
0100
1000
0001
,
0100
0010
1000
0000
1010
0000
1000
0001
0100
0010
1000
0100
0010
0001
0100
0010
,
1000
0100
1000
0000
1100
0000
0100
1000
0010
0100
0001
0010
0100
1000
0100
0010
,
0001
0100
0010
0000
0110
0000
0010
0100
0001
1000
0100
0010
0100
1000
0010
0100
,
0010
1000
0001
0000
1001
0000
1000
0010
0100
0001
0010
0100
1000
0010
0100
0010
,
1000
0100
0010
0001
0100
0010
0100
0001
0010
0100
1000
0001
0100
0001
1000
0100
,
1000
0010
0100
0001
1000
0100
0010
0001
0100
0010
1000
0100
1000
0010
0100
0001
,
1000
0010
0100
0001
0100
0010
1000
0100
0010
0001
0100
0010
1000
0010
0100
0001
,
0010
0100
1000
0010
0100
0001
1000
0010
0100
0001
0100
0010
1000
0100
0010
0001
,
1000
0010
0100
0001
0010
0100
1000
0001
0100
0010
1000
0100
0010
0100
1000
0010
,
0100
0001
0100
0010
0100
0001
0010
0100
1000
0100
1000
0010
0100
0001
0100
0001
,
0010
0100
1000
0100
0010
0001
0100
0010
1000
0010
0100
0001
0010
0100
1000
0001
,
1000
0001
1000
0001
1000
0001
1000
0001
1000
0000
2002
0000
0000
0000
0000
0000
3003
0000
0000
0000
2002
0000
0000
0000
3003
0000
1000
0000
0010
0000
0000
0000
,
1010
0000
0010
0000
1000
0100
1000
0000
0000
0000
0011
0000
0000
0010
0100
0000
,
0110
0000
1100
0000
0100
0010
0100
0000
0000
0000
0022
0033
0000
0000
0101
0000
,
0110
0000
1010
0000
0010
0100
0001
0000
0000
0000
0202
0303
0000
0000
0011
0000
,
0110
0000
1100
0000
1000
0010
0100
0000
0000
0000
2020
0000
3030
0000
1100
0000
,
0110
0000
0011
0000
0001
1000
0100
0000
0000
0000
2200
0000
3300
0000
1010
0000
,
0110
0000
0101
0000
0100
0001
1000
0000
0000
0000
2002
0000
0000
3003
1010
0000
,
0101
0000
1010
0000
1000
0010
0100
0001
1000
0100
0010
0001
1000
0010
1000
0001
,
0100
0010
1000
0010
0100
0001
1000
0000
0100
1000
0001
1001
0000
0100
0010
0000
,
0100
0001
0010
0000
0001
0100
0010
0000
0100
0010
1000
1010
0000
0010
0100
0000
,
0001
0000
0010
0000
0001
1000
0100
0000
0010
0001
0100
0101
0000
0001
0010
0000
,
0001
0000
0100
0000
0010
0100
0001
0000
0010
0100
1000
1100
0000
1000
0010
0000
,
0100
0000
0001
0000
1000
0100
0010
0000
0001
0010
0100
0110
0000
0100
1000
0000
,
0010
0000
0100
0000
0001
0010
0100
0000
1000
0010
1000
1010
0000
0010
0100
0000
,
0001
0000
1000
0000
0010
0100
0001
0000
1000
0001
0100
0101
0000
0001
0010
0000
,
0100
0000
0010
0000
0001
0100
0010
0000
0100
0001
0010
0011
0000
0010
0100
0000
,
1000
0000
0010
0000
1000
0001
0010
0000
0001
0100
0010
0110
0000
0010
0100
0000
,
0001
0000
0100
0000
1000
0001
1000
0000
0010
1000
0100
1100
0000
1000
0010
0000
,
0100
0000
0010
0000
0100
0001
1000
0000
0100
0010
0001
0011
0000
0001
0100
0000
,
0010
0000
1000
0000
0100
0010
0001
0000
0100
0010
1000
1010
0000
0100
0001
0000
,
0010
0000
0100
0000
0010
0100
1000
0000
0010
0100
0001
0101
0000
0010
1000
0000
,
0100
0000
0010
0000
0001
0100
0001
0000
1000
0100
1000
1100
0000
0100
1000
0000
,
0001
0000
0100
0000
0010
0100
0010
0000
1000
0001
1000
1001
0000
0001
0100
0000
,
0001
0000
1000
0000
0010
0100
0001
0000
0010
0100
1000
1100
0000
1000
0010
0000
,
1000
0000
0001
0000
1001
0000
1000
0100
0010
0001
0100
0010
1000
0100
1000
0010
,
0100
0001
0100
0000
0101
0000
0100
0001
0010
0001
0100
0010
1000
0100
0010
0001
,
0100
0010
1000
0000
1010
0000
1000
0010
0100
0001
1000
0010
0100
0001
0100
0010
,
1000
0100
1000
0000
1100
0000
1000
0100
0010
0001
0100
0010
1000
0100
1000
0010
,
0100
0001
0010
0000
0011
0000
0010
0100
1000
0010
0100
0001
0010
0100
1000
0001
,
0100
0001
0100
0000
0101
0000
0100
0010
1000
0100
0010
0001
1000
0010
0100
0010
,
1000
0010
1000
0000
1010
0000
1000
0010
0100
0010
1000
0100
0010
0001
0100
0010
,
1000
0010
0100
0000
0110
0000
0010
1000
0100
1000
0010
0100
0001
0100
0010
0100
,
0001
1000
0001
0000
1001
0000
0001
0010
0100
1000
0100
0010
0001
0100
0010
1000
,
0100
0010
0001
0000
0011
0000
0001
0100
0001
0010
0100
1000
0010
0100
0010
1000
,
0001
1000
0100
0000
1100
0000
1000
0100
1000
0001
0100
0010
0100
0001
1000
0010
,
1000
0001
0100
0000
0101
0000
0100
0010
1000
0100
0010
0001
1000
0010
0100
0001
,
1000
0010
1000
0000
1010
0000
0010
0100
0001
0010
0100
1000
0010
0100
0001
0100
,
0010
0100
0001
0000
0101
0000
0001
1000
0010
0100
0001
0100
0010
1000
0100
0010
,
0001
1000
0100
0000
1100
0000
0100
1000
0010
0100
0001
0010
0100
1000
0001
0100
,
0010
1000
0010
0000
1010
0000
0010
0100
0001
1000
0100
1000
0010
0100
0001
0100
,
0001
1000
0001
0000
1001
0000
1000
0001
0100
0010
1000
0100
1000
0100
0010
0001
,
0100
0010
1000
0001
0010
0100
1000
0010
1000
0010
0100
0001
0100
0010
1000
0100
,
0010
0001
0010
0100
1000
0001
0010
0100
1000
0010
0100
0001
0010
0100
1000
0010
,
1000
0001
0100
0010
1000
0001
0100
0010
1000
0100
0010
0001
0010
0100
1000
0010
,
0100
0010
1000
0001
0010
0100
1000
0010
0100
0001
0100
0001
0010
0100
1000
0010
,
1000
0100
1000
0010
0100
0001
0010
0100
1000
0001
0100
0010
1000
0100
1000
0001
,
0100
0010
0100
0001
1000
0010
0100
0001
0100
0010
1000
0100
0010
0100
1000
0010
,
0100
0001
0010
0001
0100
0001
1000
0010
0100
0001
0100
0010
0100
0001
1000
0001
,
1000
0001
1000
0001
1000
0001
1000
0002
2000
0000
0000
0000
0000
0000
00M0
0000
0M00
0000
00M0
0000
0M00
0000
00M0
0000
0M00
0000
00M0
0000
0M00
0000
0000
0000
,
0M00
0M00
0M00
0M00
0MM0
0000
00M0
0M00
00M0
0M00
00M0
0M00
30M3
0M00
MMMM
MMMM
,
MMMM
0000
0000
0000
,
0000
0000
0000
0000
;
