#TITLE:Kitto Seishun ga Kikoeru;
#SUBTITLE:;
#ARTIST:u's;
#TITLETRANSLIT:;
#SUBTITLETRANSLIT:;
#ARTISTTRANSLIT:;
#GENRE:;
#CREDIT:CHMEX;
#BANNER:banner.png;
#BACKGROUND:BGI.png;
#LYRICSPATH:;
#CDTITLE:;
#MUSIC:Kitto Seishun ga Kikoeru.mp3;
#OFFSET:0.000;
#SAMPLESTART:65.440;
#SAMPLELENGTH:12.000;
#SELECTABLE:YES;
#BPMS:0.000=91.170,16.000=165.000;
#STOPS:0.000=0.220
;
#BGCHANGES:0.000=BGAKI.avi=1.000=0=0=1=StretchNormal====,
99999=-nosongbg-=1.000=0=0=0 // don't automatically add -songbackground-
;
#KEYSOUNDS:;

//---------------dance-single - Blank----------------
#NOTES:
     dance-single:
     Blank:
     Hard:
     8:
     0.524,0.657,0.225,0.703,0.050:
0000
0000
0000
0000
,
0000
0000
0000
1010
,
0110
0101
0000
0000
,
0000
0011
0110
2002
0000
0000
0000
3003
,
1000
0000
1001
0000
1001
0000
1001
0000
1001
0000
0010
0000
0100
0001
1000
0001
,
0100
0000
0010
0100
0000
1000
0000
0020
,
0000
0000
0000
0000
,
0032
0000
0013
0100
0000
1000
0000
0020
,
0000
0000
0000
0030
0000
0001
0010
0100
,
1010
0001
0100
0020
0000
0000
0000
0000
,
1030
0100
0010
0002
0000
0013
0100
0020
,
0000
0000
0000
0000
0000
0230
0020
0032
,
0000
0000
0000
0000
0000
0303
0010
0100
,
0002
2003
3020
0230
,
0320
0230
0320
2030
,
3020
0230
0320
2030
,
3020
2030
3200
0320
,
0230
2300
3020
0230
,
0320
0000
0230
0000
0310
0010
0100
1000
,
0010
0000
0001
0210
0300
0000
0000
0000
,
0000
1000
0100
0010
0100
0010
1000
0010
,
0220
0330
0010
2000
0000
3100
0000
0010
,
0000
0001
0000
0010
0000
0000
0010
1000
,
2010
0000
0000
0000
0000
3000
0100
0020
,
0000
0030
0010
0001
0010
0001
0010
0001
,
0020
0000
0030
0001
0000
1000
0000
0200
,
0000
0000
0310
0000
0010
0100
0001
0010
,
2000
3010
0001
0100
,
0001
0010
0100
0010
,
2001
0000
3010
0100
0001
0010
1000
0001
,
0100
0010
0100
0001
0000
0010
0100
0000
,
0020
0000
0000
0030
0000
0010
1000
0002
,
0000
0000
0000
0000
0003
0000
0010
0001
0100
0000
0010
0000
1000
0000
0010
0000
,
0220
0330
0000
0000
0000
0000
0000
0000
1000
0000
0000
0000
0010
0000
0000
0000
,
0001
0000
0020
0200
0000
0000
0000
0330
,
0000
0000
1000
0001
,
0110
0000
0000
1001
0000
2020
0000
3030
,
0110
0000
0000
0001
0100
0010
2000
0001
,
3000
0010
0000
0100
0000
0001
0000
0020
,
0000
0000
0030
0000
0000
0010
0100
0001
,
0000
0000
0010
0000
1000
0000
0001
0000
0100
0001
0010
0001
1000
0000
0001
0000
,
0100
0010
0001
0110
0000
0010
0100
0010
,
0000
0001
1000
0000
0010
0000
0100
0000
,
0001
0000
0010
0000
1000
0020
0030
0001
,
0000
0010
0200
0000
0310
0000
1000
0000
,
0001
0000
0000
0000
0010
0000
0000
0000
0100
0000
0020
0000
0030
0000
0000
0100
,
0001
0000
0010
1000
0001
0000
0010
0200
,
0000
0300
1000
0100
0100
0000
0010
0002
,
0000
0000
0003
0000
0020
0000
0030
2002
,
0000
0000
3003
0200
0000
0000
0300
0010
,
0000
0001
1000
0000
0010
0000
0100
0000
,
0010
0000
0001
0000
0010
0200
0300
0010
,
0000
0001
1000
0000
0010
0000
0100
0000
,
0010
0000
0001
0000
0010
0100
0000
0220
,
0330
0001
1000
0010
0100
0010
0001
0010
,
0100
1000
0100
0010
0001
0010
0100
1000
,
0100
0010
0001
0010
0100
1000
0100
0010
,
0001
0010
0100
1000
0010
0100
0001
0100
,
2100
0000
0000
3010
0100
0001
0010
0200
,
0000
0000
0310
0000
0100
0000
0001
0000
0010
0000
1000
0000
0001
0000
0010
0100
,
0020
0000
0030
0010
0000
0001
0000
2000
,
0M00
0000
0MM0
00M0
00M0
0000
000M
0000
000M
0000
0000
0000
0002
0000
0000
0000
0000
0000
0000
0000
0000
0000
0000
0000
0000
0000
0000
0000
0000
0000
0000
0000
0000
0000
0000
0000
0000
0000
0000
0000
0000
0000
3003
0000
0000
0000
0000
0000
,
2000
0000
3000
0010
0000
0001
0000
0020
,
0000
0000
0000
0030
0000
0010
1000
0001
,
0010
0100
0010
0002
0000
0000
0003
0000
,
0010
0100
0010
0010
0000
0010
1000
0002
,
0000
0000
0000
0000
0003
0010
0100
0102
,
0000
0000
0003
0200
,
0000
0320
0000
0000
2030
0000
0000
0000
,
0000
0000
0000
0000
,
0000
0000
0000
0000
,
0000
0000
0000
0000
,
0000
0000
0000
0000
0000
0000
0000
3000
;

//---------------dance-single - Blank----------------
#NOTES:
     dance-single:
     Blank:
     Beginner:
     2:
     0.149,0.161,0.000,0.090,0.000:
0000
0000
0000
0000
,
0000
0000
0000
0000
,
0000
0000
0000
0000
,
0000
0000
0000
0000
,
0000
0000
0000
0100
,
0000
1000
0000
0001
,
0000
0100
0000
0010
,
0000
1000
0000
0001
,
0000
0100
0000
0010
,
0000
0020
0000
0030
,
0000
2000
0000
3000
,
0000
0000
0000
0020
,
0000
0000
0000
0000
,
0030
0001
0000
1000
,
0000
0001
0000
0100
,
0000
0010
0000
0010
,
0000
0100
0000
0100
,
0000
0010
0000
0010
,
0000
0001
0000
0001
,
0000
0010
0000
0000
,
0000
0000
0000
0000
,
1000
0000
0001
0000
,
0000
0000
0001
0000
,
1000
0000
0000
0000
,
1000
0000
0001
0000
,
0010
0000
0010
0000
,
0100
0000
0001
0000
,
1000
0000
0001
0000
,
0100
0000
0010
0000
,
0002
0000
0003
0000
,
0001
0000
0000
0000
,
2000
0000
3000
0000
,
1000
0000
0000
0000
,
0010
0000
0100
0000
,
0001
0000
0010
0000
,
0000
0000
1000
0000
,
0100
0000
1000
0000
,
0100
0000
0000
0000
,
0010
0000
0001
0000
,
0010
0000
0001
0000
,
1000
0000
1000
0000
,
0001
0000
0000
0000
,
0000
1000
0000
0001
,
0000
1000
0000
0010
,
0000
0010
0000
0100
,
0000
0100
0000
0001
,
0000
0001
0000
1000
,
0000
1000
0000
0001
,
0000
0001
0000
0100
,
0000
0100
0000
0010
,
0000
0010
0000
1000
,
0000
1000
0000
0010
,
0000
0010
0000
0100
,
0000
0100
0000
0001
,
0000
0001
0000
0001
,
0000
1000
0000
1000
,
0000
0010
0000
0010
,
0000
1000
0000
1000
,
0020
0030
0001
0000
,
0100
0000
0000
0000
,
0010
1000
0000
0001
,
0000
0100
0000
0010
,
0000
1000
0000
0010
,
0000
0001
0000
0010
,
0000
0020
0030
0000
,
0000
2000
3000
0000
,
0000
0002
0000
0000
,
0000
0000
0003
0000
,
0000
0000
0020
0000
,
0000
0000
0000
0000
,
0000
0000
0000
0000
,
0000
0000
0030
0000
;

//---------------dance-single - Hard----------------
#NOTES:
     dance-single:
     Hard:
     Challenge:
     10:
     0.585,0.723,0.343,0.685,0.041:
0000
0000
0000
0000
,
0000
0000
0000
1010
,
0101
0110
0000
0000
,
0000
0110
0110
2002
0000
0000
0000
3003
,
0000
0000
0110
0000
0110
0000
1001
0000
1001
0000
0010
0000
0100
0001
1000
0001
,
0100
0000
0010
0100
0000
1000
0000
0020
,
0000
0000
0000
0000
,
0032
0000
0013
0100
0000
1000
0000
0020
,
0000
0000
0000
0030
0000
0001
0010
0100
,
1010
0001
0100
0020
0000
0000
0000
0000
,
1030
0100
0010
0002
0000
0013
0100
0020
,
0000
0000
0000
0000
0000
0230
0020
0032
,
0000
0000
0000
0003
0010
0301
0010
0100
,
0002
2003
3020
0230
,
0320
0000
0230
0000
0320
0100
2030
0001
,
3020
0230
0320
2030
,
3020
0000
2030
0000
3200
0001
0320
1000
,
0230
0000
2300
0000
3020
0000
0230
0010
,
0320
0000
0230
0000
0310
0010
0100
1000
,
0110
0000
0001
0210
0300
0000
0000
0000
,
0000
1000
0100
0010
0100
0010
1000
0010
,
0220
0330
0010
2000
0000
3100
0000
0010
,
0000
0001
0000
0010
0000
0000
0010
1000
,
2010
0000
0000
0000
0000
3000
0100
0020
,
0000
0030
0010
0001
0010
0001
0010
0001
,
0020
0000
0130
0001
0010
1000
0010
0200
,
0301
0100
0010
0001
0010
0100
0001
0010
,
2000
3100
0010
0100
0001
0010
0100
0010
,
0001
0010
0010
0001
0100
0010
0010
0100
,
2001
0000
3010
0100
0001
0010
1000
0001
,
0100
0010
0100
0001
1000
0010
0100
0001
,
0120
0000
0000
0030
0000
0010
1000
0002
,
0000
0000
0000
0000
0003
0000
0010
0001
0100
0000
0010
0000
1000
0000
0010
0000
,
0220
0330
0000
0000
0000
0000
0000
0000
1000
0000
0000
0000
0010
0000
0000
0000
,
0001
0000
0020
0200
0000
0000
0000
0330
,
0000
0000
1000
0001
,
0110
0000
0000
1001
0000
2020
0000
3030
,
0110
0000
0000
0001
0100
0010
2000
0001
,
3000
0010
0000
0100
0000
0001
0000
0020
,
0130
0001
0100
0010
0100
0010
0100
0001
,
0000
0000
0010
0000
1000
0000
0001
0000
0100
0001
0010
0001
1000
0000
0001
0000
,
0100
0010
0001
0110
0000
0110
0100
0110
,
0000
0001
1000
0000
0010
0000
0100
0000
,
0001
0000
0010
0000
1000
0020
0030
0001
,
0000
0010
0200
0000
0310
0000
1000
0000
,
0001
0000
0000
0000
0010
0000
0000
0000
0100
0000
0020
0000
0030
0000
0000
0100
,
0002
0003
0010
1000
0001
0000
0010
0200
,
0000
0300
1000
0100
0100
0000
0010
0002
,
0000
0000
0003
0000
0020
0000
0030
1001
,
1001
0000
0110
0000
0110
0000
0100
0001
0100
0010
0100
0000
1000
0000
0010
0000
,
0000
0001
1000
0000
0010
0000
0100
0000
,
0010
0000
0001
0000
0010
0200
0300
0010
,
0000
0001
1000
0000
0010
0000
0100
0000
,
0010
0000
0001
0000
0010
0100
0000
0220
,
0330
0001
1000
0010
0100
0010
0001
0010
,
0100
1000
0100
0010
0001
0010
0100
1000
,
0100
0010
0001
0010
0100
1000
0100
0010
,
0001
0010
0100
1000
0010
0100
0001
0100
,
2100
0000
0000
3010
0100
0001
0010
0200
,
0000
0000
0310
0000
0110
0000
0101
0000
0110
0000
1001
0000
1001
0000
0010
0100
,
0020
0000
0030
0010
0000
0001
0000
2000
,
0000
0000
0002
0000
0000
0000
0000
3003
,
2000
0000
3100
0010
0000
0001
0000
0020
,
0000
0000
0000
0030
0000
0010
1000
0001
,
0110
0100
0010
0002
0000
0000
0003
0000
,
0010
0100
0010
0010
0000
0010
1000
0002
,
0000
0000
0000
0000
0003
0010
0100
0102
,
0000
0000
0000
0000
0003
0000
0000
0200
,
0000
0320
0000
0000
2030
0000
0000
0000
,
0000
0000
0000
0000
,
0000
0000
0000
0000
,
0000
0000
0000
0000
,
0000
0000
0000
0000
0000
0000
0000
3000
;

//---------------dance-single - Hard----------------
#NOTES:
     dance-single:
     Hard:
     Medium:
     6:
     0.408,0.493,0.045,0.604,0.000:
0000
0000
0000
0000
,
0000
0000
0000
0000
,
0000
0000
0000
0000
,
0000
0000
0000
0000
,
0001
1000
0001
1000
0001
0010
0100
1000
,
0100
0000
0010
0100
0000
1000
0000
0020
,
0000
0000
0000
0000
,
0032
0000
0013
0100
0000
1000
0000
0020
,
0000
0000
0000
0030
0000
0001
0010
0100
,
0100
0001
0100
0020
0000
0000
0000
0000
,
1030
0100
0010
0002
0000
0013
0100
0020
,
0000
0000
0000
0000
,
0000
0000
0030
0000
0000
0000
0010
0100
,
0020
0000
0030
1000
0000
0001
0000
0200
,
0000
0000
0300
0000
0010
1000
0001
0100
,
0010
0000
0000
0010
0000
1000
0000
0020
,
0000
0000
0030
0000
0001
0010
0100
0010
,
0002
0000
0000
0023
0000
0000
1030
0001
,
0100
0000
0100
0010
0000
0020
0000
0030
,
0010
0000
0001
0200
0300
0000
0000
0000
,
0000
1000
0100
0010
0100
0010
1000
0010
,
0200
0300
0010
2000
0000
0000
0000
3000
,
0000
0000
0000
0000
0000
0000
0010
1000
,
0020
0000
0000
0000
0030
0000
0100
0020
,
0000
0030
0000
0001
0010
0001
0010
0001
,
0020
0000
0030
0001
0000
1000
0000
0200
,
0000
0000
0300
0000
0010
0100
0001
0010
,
2000
0000
3000
0010
0000
0001
0000
0200
,
0000
0320
2030
3020
,
2031
0000
3010
0100
0001
0010
1000
0001
,
0100
0010
0100
0001
0000
0010
0100
0000
,
0020
0000
0000
0030
0000
0010
1000
0002
,
0000
0000
0003
0000
,
0220
0330
0000
0000
0000
0000
0000
0000
1000
0000
0000
0000
0010
0000
0000
0000
,
0001
0000
0020
0200
0000
0000
0000
0330
,
0000
0000
1000
0001
,
0100
0000
0000
0001
0000
0020
0000
0030
,
0220
0330
0000
0001
0100
0010
2000
0001
,
3000
0010
0000
0100
0000
0001
0000
0020
,
0000
0000
0030
0000
0000
0010
0100
0002
,
0000
0000
0000
0000
0000
0000
0003
0001
,
0100
0010
0001
0110
0000
0010
0100
0010
,
0000
0001
1000
0000
0010
0000
0100
0000
,
0001
0000
0010
0000
1000
0020
0030
0001
,
0000
0010
0200
0000
0310
0000
1000
0000
,
0001
0000
0010
0000
0100
0020
0030
0000
,
0000
0000
0010
1000
0001
0000
0010
0200
,
0000
0300
1000
0100
0100
0000
0010
0002
,
0000
0000
0003
0000
0020
0000
0030
0002
,
0000
0000
0003
0200
0000
0000
0300
0010
,
0000
0001
1000
0000
0010
0000
0100
0000
,
0010
0000
0001
0000
0010
0200
0300
0010
,
0000
0001
1000
0000
0010
0000
0100
0000
,
0010
0000
0001
0000
0010
0100
0000
0020
,
0030
0000
0000
0010
0100
0010
0001
0020
,
0000
2030
0000
3020
0000
0230
0000
2300
,
0000
0000
0001
0000
0010
0000
0001
0010
,
3000
0010
0000
1000
0000
0200
0000
0300
,
2100
0000
0000
3010
0100
0001
0010
0200
,
0000
0320
0000
0032
0000
2003
0000
3000
,
0020
0000
0000
0000
,
0000
0030
0000
1000
,
2000
0000
3000
0010
0000
0001
0000
0020
,
0000
0000
0000
0030
0000
0010
1000
0001
,
0010
0100
0010
0002
0000
0000
0003
0000
,
0010
0100
0010
0010
0000
0010
1000
0002
,
0000
0000
0000
0000
0003
0010
0100
0002
,
0000
0000
0003
0200
,
0000
0320
0000
0000
2030
0000
0000
0000
,
0000
0000
0000
0000
,
0000
0000
0000
0000
,
0000
0000
0000
0000
,
0000
0000
0000
0000
0000
0000
0000
3000
;

//---------------dance-single - Novice----------------
#NOTES:
     dance-single:
     Novice:
     Easy:
     5:
     0.207,0.290,0.009,0.153,0.000:
0000
0000
0000
0000
,
0000
0000
0000
0000
,
0000
0000
0000
0000
,
0000
0000
0000
0000
,
0000
0000
0000
0100
,
0000
1000
0000
0001
,
0000
0100
0000
0010
,
0000
1000
0000
0001
,
0000
0100
0000
0010
,
1000
0020
0000
0031
,
0100
2000
0000
3020
,
0000
0000
0030
0020
,
0000
0000
0000
0000
,
0030
0001
0000
1000
,
0000
0001
0000
0100
,
0000
0010
0000
0010
,
0000
0100
0000
0100
,
0000
0010
0000
0010
,
0000
0001
0000
0001
,
0000
1001
0000
0000
,
0000
0000
0000
0000
,
1000
0000
0001
0000
,
0100
0010
0001
0000
,
1000
0000
0001
0000
,
1000
0000
0001
1000
,
0010
1000
0001
1000
,
0001
0100
0010
0100
,
0010
1000
0001
1000
,
0001
0010
0010
0010
,
0002
0000
0003
0000
,
2000
0000
3000
0000
,
0200
0000
0300
0000
,
1000
0000
0100
0000
,
0010
0000
0100
0000
,
0001
0000
0010
0000
,
0000
0000
1000
0000
,
0100
0000
1000
0000
,
0100
0000
0010
0000
,
0010
0000
0001
0000
,
0010
0000
0001
0000
,
1000
0001
1000
0100
,
0001
0000
0000
0010
,
0100
1000
0100
0001
,
0010
1000
0100
0000
,
0010
0010
0100
1000
,
0100
0010
0001
0000
,
0002
0003
0000
1000
,
0000
1000
0000
0001
,
0000
0001
0000
0200
,
0300
0020
0030
0010
,
1000
0100
0010
0100
,
1000
0100
0010
0000
,
0010
0010
0100
0010
,
0001
0010
0100
0010
,
0000
1000
0000
0001
,
0000
1000
0000
1000
,
0000
0010
0000
0010
,
0000
1000
0000
1000
,
0020
0030
0001
0000
,
0100
0000
0000
0000
,
0020
0000
0000
0031
,
0000
0100
0000
0010
,
0000
1000
0000
0010
,
0000
0001
0000
0010
,
1000
0000
0020
0000
0000
0030
0010
0000
,
0100
2000
3000
0020
,
0000
0030
0020
0000
0000
0000
0000
0000
,
0000
0000
0000
0030
0000
0000
0000
0000
,
0000
0000
0020
0000
,
0000
0000
0000
0000
,
0000
0000
0000
0000
,
0000
0000
0030
0000
;
