#TITLE:LOVELESS WORLD;
#SUBTITLE:;
#ARTIST:u's;
#TITLETRANSLIT:;
#SUBTITLETRANSLIT:;
#ARTISTTRANSLIT:;
#GENRE:;
#CREDIT:;
#BANNER:banner.png;
#BACKGROUND:BGI.png;
#LYRICSPATH:;
#CDTITLE:;
#MUSIC:LOVELESS WORLD.mp3;
#OFFSET:0.000;
#SAMPLESTART:84.657;
#SAMPLELENGTH:12.000;
#SELECTABLE:YES;
#BPMS:0.000=157.010;
#STOPS:0.000=0.500
;
#BGCHANGES:0.000=BGA.avi=1.000=0=0=1=StretchNormal====,
99999=-nosongbg-=1.000=0=0=0 // don't automatically add -songbackground-
;
#KEYSOUNDS:;

//---------------dance-single - Kurosan----------------
#NOTES:
     dance-single:
     Kurosan:
     Hard:
     10:
     0.828,0.778,0.462,0.421,0.643:
0000
0000
0000
0000
,
0000
0000
0000
0000
,
0000
0000
0000
0000
,
0000
0000
1000
0000
0001
0000
0000
0100
0000
0000
0010
0000
1000
0000
0000
0000
,
0000
0000
0001
0000
0010
0000
0000
0100
0000
0000
0010
0000
0001
0000
0000
0000
,
1000
1020
0130
0210
,
0301
0000
0000
0000
0100
0000
0000
0010
0000
0000
0001
1000
0001
0000
0000
0000
,
0000
0000
0000
0000
1000
0000
0000
0010
0000
0000
0100
0000
0001
0000
0000
0000
,
1000
0000
1200
0000
0000
0310
0001
0000
,
1001
0000
0000
0000
1010
0000
0000
0100
0000
0000
1000
0000
0100
0000
0000
0010
,
0000
0000
1000
0000
0001
0000
0000
0010
0000
0000
0001
1000
0001
0000
0010
0000
,
0100
1000
0102
0000
0100
0000
1000
0000
,
0013
0100
2010
0000
0100
0000
0001
0000
,
3010
0100
0012
0000
0013
0100
2100
0000
,
3010
0000
0100
0000
0002
0000
0000
0000
1003
0000
0100
0000
1000
0000
0001
0100
,
0001
1000
0210
0000
0001
0000
2310
0000
,
0010
3101
0110
2020
,
3030
0000
0100
0000
1000
0000
0001
0100
0001
0000
1000
0100
1000
0000
0001
0010
,
0001
0100
1000
0010
1000
0000
0000
0000
0000
0000
0000
0000
1001
0000
0000
0000
,
0110
2001
0000
0000
,
3100
0010
0012
0000
0000
0000
0000
0000
,
0103
0010
2010
0000
0000
0000
0000
0000
,
3100
0000
0010
0000
1001
0000
0000
0101
0000
0000
0110
0000
0000
0000
0100
0000
,
0010
0000
1000
0000
0001
0010
0001
0000
1000
0000
0001
0010
0001
0000
1000
0000
,
0001
0000
0100
0000
0010
1000
0010
0000
0100
0000
0010
1000
0010
0000
0100
0000
,
0001
0000
1000
0000
0100
0010
0100
0000
1000
0000
0100
0010
0100
0000
1000
0000
,
0001
0000
0100
0000
0010
0000
0000
0110
0000
0000
1001
0000
1000
0000
0100
0000
,
0010
0000
0001
0000
1000
0100
1000
0100
1000
0000
0001
0000
0100
0001
0100
0001
,
0100
0000
0010
0000
0010
1000
0010
1000
0010
0000
0001
0000
0010
0100
0010
0100
,
0010
0000
0100
0000
1000
0001
1000
0001
1000
0000
0010
0000
0100
0010
0100
0010
,
0100
0000
0001
0000
0010
0100
0010
0100
0010
0000
0001
0000
0010
1000
0010
1000
,
0010
0000
0001
0000
0011
0000
0000
0100
0000
0000
2100
0000
0000
0000
3001
0000
,
0100
0102
1003
2100
,
3001
0000
0000
0001
1000
0001
1000
0100
0001
0100
0001
0010
,
0200
0000
0000
0000
0000
0000
0000
0000
0300
0000
0000
0000
0110
0000
0000
0000
0000
0000
0000
0000
0000
0100
0000
0000
0000
0000
0000
0000
0000
0000
1000
0000
0000
0000
0000
0000
2002
0000
0000
0000
0000
0000
0000
0000
0000
0000
0000
0000
,
3003
0000
0000
0000
1000
0010
1000
0010
1000
0000
0100
0010
1000
0010
0100
0000
,
0010
0000
0001
0000
0100
0001
0010
0001
0100
0000
0010
1000
0010
1000
0010
0000
,
0100
0000
0010
0000
0100
0010
0100
0001
0100
0000
1000
0010
1000
0010
1000
0000
,
0100
0010
0001
0010
0100
0010
0100
0001
,
0200
0000
0000
0000
0000
0000
0000
0000
0300
0000
0000
0000
0010
0000
0000
1000
0000
0000
0010
0000
0000
1000
0000
0000
0010
0000
0000
0000
0000
0000
0100
0000
0000
0010
0000
0000
0100
0000
0000
0010
0000
0000
0100
0000
0000
0000
0000
0000
,
0100
0000
0010
0000
0001
0100
0010
0100
0001
0000
1000
0100
1000
0100
1000
0000
,
0010
0000
0100
0000
1000
0010
1000
0010
1000
0000
0010
0100
0010
0100
0010
0000
,
0100
0000
0001
0000
0020
0000
0030
0100
0000
0000
2000
0000
3200
0000
1300
0010
,
0100
0010
0100
0010
0100
0000
0100
0000
1000
0100
1000
0000
0100
0000
1000
0100
,
0000
0100
1000
0000
0100
0000
1000
0000
1000
0100
1000
0000
0100
0000
1000
0100
,
0000
0100
1000
0000
0100
0000
1000
0000
0010
0001
0010
0000
0010
0000
0001
0010
,
0000
0010
0001
0000
0010
0000
0001
0000
0010
0001
0010
0000
0010
0000
0001
0010
,
0000
0010
0100
0000
0010
0000
0100
0000
0010
1000
0100
0000
0010
0000
0100
0010
,
0000
1000
0100
0000
0010
0000
0100
0000
0010
1000
0100
0000
0010
0000
0100
1000
,
0000
0010
0100
0000
0010
0000
1000
0000
0100
1000
0100
0000
0100
0000
1000
0100
,
0000
1000
0100
0000
0100
0000
1000
0000
0100
1000
0100
0000
0100
0000
1000
0000
,
0100
0000
0010
0000
0102
0000
0000
2003
0000
0000
3200
0000
0000
0000
0310
0000
,
0002
2003
3020
0230
,
0302
0000
0013
0100
1000
0100
0010
0001
,
0100
0000
0010
0000
2000
0000
0000
0000
0000
0000
3100
0010
0100
0000
0000
0000
,
1001
0000
0000
0000
0001
0000
1000
0000
0010
0000
0100
0000
0001
0100
1000
0100
,
0001
0100
0010
0100
1000
0000
0100
0000
0010
0000
1000
0000
0100
1000
0001
1000
,
0100
0001
0010
0100
2000
0000
0000
0000
3002
0000
0000
0000
0203
0000
0000
0000
,
0320
0000
0000
0000
0130
0000
0000
0001
0000
0000
0100
1000
0200
0000
0000
0000
,
0000
0300
0000
0000
0010
0000
0100
0000
0010
0000
1000
0000
0010
0100
0010
0100
,
0010
0100
0010
0100
0010
0000
0001
0000
0100
0000
0001
0000
0010
0100
0001
0100
,
0001
0100
0001
0100
0001
0000
0000
0100
0000
0000
0001
0000
0100
0000
0000
0010
,
0000
0000
1000
0000
0010
0000
0000
1000
0000
0000
0100
0000
0020
0000
0030
0001
,
0000
0000
0100
0000
0001
0000
1000
0000
0010
0000
0001
0000
0100
0010
1000
0100
,
1000
0010
0100
0001
0010
0000
0010
0000
1000
0000
0100
0000
0010
0100
0010
0001
,
0010
1000
0010
0001
0020
0000
0000
0000
0032
0000
0000
0000
0203
0000
0000
0000
,
0320
0000
0000
0000
0031
0000
0000
1000
0000
0000
0001
1000
0002
0000
0000
0003
,
0000
0000
0000
0000
1000
0000
0001
0000
1000
0000
0001
0000
1000
0010
1000
0010
,
0001
0010
0001
0010
0100
0000
1000
0000
0001
0000
0010
0000
0100
1000
0100
1000
,
0100
0010
0100
0010
1000
0000
0000
0010
0000
0000
0001
0000
1000
0000
0000
0001
,
0000
1000
1001
0000
0000
0000
1001
0000
,
0110
0000
0000
0000
0010
0100
0010
0100
0010
0000
0100
1000
0100
1000
0100
0000
,
0010
0000
0001
0000
0010
1000
0010
1000
0100
0000
0100
0001
0100
0010
1000
0000
,
0010
0000
0100
0000
1000
0010
1000
0010
0100
0000
0010
0100
0010
0100
0010
0000
,
0100
0000
0001
0000
1010
0000
0000
1100
0000
0000
2020
0000
0000
3030
0110
0000
,
0101
0000
1001
0000
0110
0000
0000
1100
0000
0000
0110
0000
0000
0000
0101
0000
,
1010
0000
1001
0000
0110
0000
0000
1100
0000
0000
0110
0000
0000
0000
0101
0000
,
1001
0110
2002
0000
0000
0000
0000
0000
,
0000
3003
1001
2002
0000
3003
0000
0000
;

//---------------dance-single - Loak----------------
#NOTES:
     dance-single:
     Loak:
     Medium:
     8:
     0.550,0.746,0.223,0.643,0.252:
0000
0000
0000
0000
,
0000
0000
0000
0000
,
0000
0000
0000
0000
,
0000
0000
1000
0000
0001
0000
0000
0010
0000
0000
1000
0000
0010
0000
0000
0000
,
0000
0000
0001
0000
1000
0000
0000
0001
0000
0000
1000
0000
0010
0000
0000
0000
,
0100
0020
2030
3200
,
0320
0032
0000
0203
,
0000
0300
2000
0000
0000
3000
0200
0000
,
0000
0300
0020
0000
0000
0030
0001
0000
,
0101
0000
2002
0000
0000
0000
0000
3003
,
0000
0000
2020
0000
0000
3030
0100
0000
,
0010
1000
0002
0000
0010
0000
0100
0000
,
1000
2003
0100
0010
,
0001
3000
2020
3030
0100
0000
0202
0000
,
0313
0000
0010
0000
0100
0000
1000
0001
,
0100
0000
0010
0000
1000
0000
0000
0001
0000
0000
1000
0000
0202
0000
0000
0000
,
0000
0303
0202
0303
2020
3030
0220
0000
,
0330
0000
0000
0000
0100
0000
0100
0010
0100
0010
0100
0010
0100
0010
0100
0010
,
0100
0010
0100
0010
0100
0000
0000
0000
0000
0000
0000
0000
0101
0000
0000
0000
,
1010
0000
2002
0000
0000
0000
0000
3003
,
0001
1000
0020
0000
0000
0000
0000
0030
,
0100
0010
2000
0000
0000
0000
0000
0000
,
3100
0000
0010
0000
0001
0000
0000
1000
0000
0000
0010
0000
0000
0000
0100
0000
,
0010
1000
0001
0000
0000
0001
0000
0000
,
1000
0100
0010
0000
0000
0010
0000
0000
,
0010
1000
0010
0000
0000
0010
0000
0000
,
0100
0000
0010
0000
1000
0000
0000
1010
0000
0000
1001
0000
0001
0000
0010
0000
,
0100
1000
0002
0000
0000
0203
0000
0000
,
0310
1000
0200
0000
0320
0000
0032
0000
,
2003
0000
3020
0000
0000
0230
0000
0000
,
0310
1000
0002
0000
0000
0013
0200
0000
,
0000
0000
0000
0000
0310
0000
0000
0001
0000
0000
2000
0000
0000
0000
3010
0000
,
0100
0010
2000
0000
0000
0000
3002
0000
,
0000
0000
0000
0013
0001
0100
0010
1000
0010
0100
0001
0010
,
0100
0000
0000
0000
0010
0000
0000
0001
0000
0000
1000
0000
0020
0000
0000
0000
,
0000
0000
0000
0000
2030
0000
0000
0000
0000
0000
3001
0000
0010
0000
0000
0100
,
0000
0010
0002
0000
0000
1003
0010
0000
,
0000
0000
0100
0000
0001
0000
0000
0100
0000
0000
0010
0000
1000
0000
0000
0001
,
0000
0000
1000
0000
0100
0000
0000
0010
0000
0000
0001
0000
1000
0000
0100
0010
,
0100
0010
0100
0010
0100
0000
0000
0100
0000
0000
0001
0000
1000
0000
0000
0100
,
0000
0000
1000
0000
0010
0000
0000
0100
0000
0000
0001
0000
1000
0000
0000
0000
,
0000
0000
0001
0000
0010
0000
0000
0100
0000
0000
1000
0000
0001
0000
0000
0100
,
0000
0000
0001
0000
1000
0000
0000
0010
0000
0000
0100
0000
0001
0000
0010
0100
,
0010
0100
0010
0100
0010
0000
0000
0001
0000
0000
1000
0000
0000
0000
0001
0000
,
0100
0000
0000
0000
0001
0000
0000
1000
0000
0000
0010
0000
0000
0000
1000
0000
,
0100
0010
0002
0000
0020
0030
2000
3000
,
0200
0303
0022
0000
0000
0000
1033
0000
,
0001
0000
0020
0000
0000
0230
0000
0000
,
0300
0010
0001
0100
,
0010
0000
0000
0000
1000
0000
0000
0010
0000
0000
0100
0000
0002
0000
0000
0000
,
0000
0000
0000
0000
1003
0000
0000
0100
0000
0000
0010
0000
0200
0000
0000
0000
,
0000
0000
0300
0000
1000
0000
0000
0001
0000
0000
1000
0000
0000
0000
0010
0000
,
0000
0100
0002
0000
0003
0000
2000
0000
,
3002
0000
0000
0000
0013
0000
0000
0100
0000
0000
2000
0000
0000
0000
0000
0000
,
0000
0002
0000
3103
,
1001
0000
0001
1000
0001
1000
0001
0010
,
0100
0010
1000
0010
0100
0001
0100
0000
,
0010
0001
1000
0010
,
0100
0000
0000
0000
0010
0000
0000
1000
0000
0000
0001
1000
0100
0000
0000
0000
,
0000
0000
0010
0001
0100
0001
0010
0001
,
0100
0000
0010
0000
0002
0000
0000
0000
0000
0000
0103
0010
1000
0000
0000
0000
,
0110
0000
0000
0000
0001
0000
0000
1000
0000
0000
0100
0000
0010
0000
0000
0001
,
0000
0000
1000
0000
0010
0000
0000
0100
0000
0000
0001
0000
1000
0000
0000
0001
,
0000
1000
0100
1000
0100
0001
1000
0010
,
0100
0010
0001
0010
0100
0000
0001
0000
0100
0000
1000
0000
0010
0000
1000
0000
,
0100
0010
0100
0010
0100
0000
0000
0000
1000
0000
0000
0000
0100
0000
0000
0000
,
0010
0000
0000
0000
0001
0000
0000
0000
1000
0000
0001
1000
0100
0000
0000
0000
,
0000
0000
0000
0000
0010
0000
0000
0001
0000
0000
1000
0000
0001
0000
0000
0000
,
0100
0000
0000
0000
0020
0000
0000
0000
0000
0000
1030
0001
0010
0000
0000
0000
,
0000
0000
0100
0000
1000
0000
0000
0001
0000
0000
1000
0000
0010
0000
0000
0100
,
0000
0001
1000
0000
0000
0000
1001
0000
,
0110
0000
2002
0000
0000
0000
0000
3003
,
2020
3030
2002
0000
0000
0000
0000
3003
,
0202
0303
2020
0000
0000
0000
0000
3030
,
0100
0000
0000
0000
1000
0000
0000
0010
0000
0000
0100
0000
0000
0000
1000
0000
,
0010
0000
1000
0000
0010
0000
0000
0001
0000
0000
0010
0000
0000
0000
0010
0000
,
0100
0000
0010
0000
1000
0000
0000
0100
0000
0000
0001
0000
0000
0000
0100
0000
,
1000
0010
2002
0000
0000
0000
0000
0000
,
0000
0000
3003
0000
1001
0000
2002
0000
0000
0000
0000
3003
0000
0000
0000
0000
;

//---------------dance-single - Loak----------------
#NOTES:
     dance-single:
     Loak:
     Easy:
     6:
     0.371,0.521,0.124,0.487,0.000:
0000
0000
0000
0000
,
0000
0000
0000
0000
,
0000
0000
0000
0000
,
0000
0000
0000
0000
,
0000
0000
0000
0000
,
0000
0000
0000
0000
,
0000
0000
0000
0000
,
0000
0000
0000
0000
,
0000
0000
0000
0000
,
0000
0000
0000
1000
,
0000
0010
0000
0001
,
0000
2000
0000
0000
,
0000
3002
0000
0000
,
0000
0023
0000
0230
,
0000
2300
0000
3200
,
0000
0320
0000
0230
,
0000
2300
3002
0203
,
0000
0340
0000
0000
,
0000
1030
0000
0001
,
1000
0000
0002
0000
0000
0000
0000
0003
,
0001
0000
2000
0000
0000
0000
0000
3000
,
1000
0000
0002
0000
0000
0000
0000
0003
,
1000
1000
0020
0000
,
1030
0000
1000
0000
0000
0100
0000
0000
,
0001
0000
0001
0000
0000
0100
0000
0000
,
1000
0000
1000
0000
0000
0010
0000
0000
,
0001
0001
1000
1000
,
0010
0100
1000
0010
,
0001
0001
0010
0100
,
1000
0000
0002
0000
0000
2003
0000
0000
,
3001
0200
0000
0320
,
0000
0000
0130
0000
0000
2000
0000
3000
,
0100
0020
0000
0032
,
0000
1003
0001
0100
,
0010
1000
0000
0100
,
0000
0010
0000
0001
,
0001
1000
1000
0010
,
0010
1000
0001
1000
,
0100
0010
0001
1000
,
0020
0031
0001
1000
,
1000
0001
0100
0010
,
1000
0001
1000
0010
,
0100
0001
1000
0001
,
0100
0010
0001
0100
,
0001
1000
0001
1000
,
0010
2000
0000
0000
,
3000
0002
0000
0003
,
1000
0000
0020
0000
0000
0230
0000
0000
,
0300
0001
1000
0100
,
0010
0002
0000
2003
,
0000
3002
0003
0020
,
0000
0030
0001
0000
0000
0020
0000
0030
,
0000
2000
3000
0002
,
2003
0000
3100
0000
0000
0002
0000
0000
,
0000
2000
0000
3103
,
1001
0000
1000
0010
0100
0010
1000
0100
,
0001
1000
0100
0010
0001
0010
1000
0010
,
0100
1000
0010
0001
0100
0010
1000
0010
,
0001
1000
0100
0001
0010
0100
1000
0000
,
0000
0000
0001
0100
1000
0100
0001
0100
,
0010
1000
0200
0000
0000
0000
1300
0000
,
0000
0000
0001
0100
1000
0100
0010
1000
,
0100
0100
0010
0100
1000
0100
0001
0000
,
0000
0000
0010
1000
0100
1000
0100
1000
,
0001
0010
1000
0100
0010
0001
0100
1000
,
0001
0100
1000
0100
0001
0100
0010
1000
,
0100
0010
1000
0000
0001
0000
0100
0000
,
0000
0000
0010
0100
1000
0100
0001
0100
,
0010
1000
0200
0000
0000
0000
0310
0000
,
0000
0000
1000
0100
0001
0010
0100
1000
,
0010
0100
1000
0000
0000
0000
1001
0000
,
0110
0000
2002
0000
0000
0000
0000
3003
,
2020
3030
0202
0000
0000
0000
0000
0303
,
0202
0303
2020
0000
0000
0000
3030
0000
,
1010
2002
0000
3003
,
0100
2002
0000
3003
,
0010
2002
0000
3003
,
0010
2002
0000
0000
,
3003
0000
1001
2002
0000
0000
0000
0000
,
3003
0000
0000
0000
;

//---------------dance-single - Loak----------------
#NOTES:
     dance-single:
     Loak:
     Beginner:
     4:
     0.184,0.258,0.016,0.099,0.000:
0000
0000
0000
0000
,
0000
0000
0000
0000
,
0000
0000
0000
0000
,
0000
1000
0000
0001
,
0000
0001
0000
1000
,
0100
0010
0000
1000
,
0000
0100
0000
0010
,
0000
1000
0000
0100
,
0000
0001
0000
1000
,
1000
0100
0000
0000
,
0000
0010
0000
0000
,
0000
1000
0000
0001
,
0000
0001
0000
1000
,
0000
0010
0000
0001
,
0000
0100
0000
0010
,
0000
1000
0000
0010
,
0000
0001
0000
0010
,
0000
4000
0000
0000
,
0000
3010
0000
0100
,
0000
0002
0000
0000
,
0000
0003
2000
0000
0000
0000
0000
0000
,
0000
3000
0002
0000
0000
0000
0000
0000
,
0000
0003
0010
0000
0000
0000
0100
0000
,
0000
0010
0000
0000
,
0000
0001
0000
0000
,
0000
1000
0000
0000
,
0000
0010
0000
0100
,
0000
0001
1000
0001
,
1000
1000
0001
0001
,
0100
0010
0010
0100
,
0010
1000
0010
0100
,
0010
0001
0000
0000
,
0000
0000
0020
0000
0000
0030
2000
0000
,
0000
3000
0100
0000
0000
0000
1000
0000
,
0000
0001
0000
0100
,
0000
0010
0000
0000
,
0000
1000
0000
0000
,
0000
0001
0000
0000
,
0000
0010
0000
0100
,
0000
0010
0000
0000
,
0000
0001
0000
0000
,
0000
1000
0000
0000
,
0000
0010
0000
0100
,
0000
0010
0000
0000
,
0000
1000
0000
0000
,
0000
0001
0000
0000
,
0000
0010
0000
0000
,
0000
0100
0000
0000
,
0000
1000
0000
0000
,
0000
0001
0000
0000
,
0000
1000
0000
0000
,
0000
0010
0000
0000
,
0000
0100
0000
0000
,
0000
0001
0000
0000
,
0000
1000
0000
0001
,
1000
0001
1000
0001
,
0100
1000
0010
0100
,
0001
0010
1000
0100
,
0010
0001
0100
1000
,
0100
0100
0010
0010
,
1000
0010
1000
0010
,
0001
0001
0000
1000
,
0000
0001
0000
0100
,
0000
0010
0000
1000
,
0000
1000
0000
0001
,
0000
0001
0000
1000
,
0000
0100
0000
0010
,
0000
0100
0000
1000
,
0000
1000
0000
0010
,
0000
0001
0000
0000
,
0100
0000
0000
0000
,
0220
0000
0000
0000
,
0000
0000
0000
0000
,
0330
0010
1000
0001
,
0100
2000
0000
3000
,
1000
0002
0000
0003
,
0001
2000
0000
3000
,
0100
0220
0000
0000
,
0000
0330
0000
0000
;

//---------------dance-single - Hard----------------
#NOTES:
     dance-single:
     Hard:
     Challenge:
     13:
     1.000,1.000,0.750,0.915,1.000:
0000
0000
0000
0000
,
0000
0000
0000
0000
,
0000
0000
0000
0000
,
0000
0000
1000
0000
0001
0000
0000
0100
0000
0000
0010
0000
1000
0000
0000
0000
,
0000
0000
0001
0000
0010
0000
0000
0100
0000
0000
0010
0000
0001
0000
0000
0000
,
1000
0000
0000
0000
1020
0000
0000
0000
0130
0000
0000
0000
0210
0000
0000
0300
,
0202
0000
0000
0303
0010
0000
0000
0100
0000
0000
0010
1000
0010
0000
0000
0000
,
0000
0000
0000
0000
1000
0000
0000
0010
0000
0000
0100
0000
0001
0000
0000
0000
,
1000
0000
1200
0000
0000
0310
0001
0000
,
2002
0000
3003
0000
2020
0000
3030
0100
0000
0000
1000
0000
0100
0000
0000
0010
,
0000
0000
1000
0000
0001
0000
0000
0010
0000
0000
0001
1000
0001
0000
0010
0001
,
0100
0010
1000
0010
0102
0000
0000
0000
0100
0000
0000
0000
1000
0000
0000
0000
,
0013
0100
2010
0000
0100
0000
0001
0000
,
3010
0100
0012
0000
0013
0100
2100
0000
,
3010
0000
0100
0000
0002
0000
0000
0000
1003
0000
0100
0000
1000
0000
0001
0100
,
0001
1000
0210
0000
0001
0000
2310
0000
,
0010
0000
3202
0303
0220
0330
2020
0000
,
3030
0000
0100
0000
1000
0000
0001
0100
0001
0100
1000
0100
1000
0100
0001
0010
,
0001
0010
1000
0100
1010
0000
0000
0000
0000
0000
0000
0000
2002
0000
3003
0000
,
0220
0330
2002
0000
0000
0000
0000
0000
,
3113
1010
0022
0000
0000
0000
0000
0033
,
0011
0110
2200
0000
0000
0000
0000
3300
,
0220
0330
2020
3030
2002
0000
3203
0002
0303
0020
2000
0000
3030
0000
0110
0000
,
1010
0000
1001
0000
0100
0010
0001
0010
1000
0000
0001
0010
0001
0100
1000
0000
,
0011
0000
0110
0000
0010
1000
0010
1000
0100
0000
0010
1000
0010
0100
1000
0000
,
0011
0000
1100
0000
0100
1000
0100
0010
1000
0000
0100
0010
0100
1000
0010
0000
,
0010
0000
0000
0000
0000
0000
1100
0000
0000
0000
0000
0000
0110
0000
0000
0000
0000
0000
0000
0000
0000
0110
0000
0000
0000
0000
0000
0000
0000
0000
1001
0000
0000
0000
0000
0000
2000
0000
0000
3000
0200
0000
0000
0000
0320
0000
0000
0000
,
0230
0000
0000
0000
2300
0000
0000
0000
3020
0000
0000
0000
0032
0000
0000
0100
0003
0000
1000
0000
0000
0100
0000
0000
0010
0000
0000
0001
0000
0000
0010
0000
0000
0100
0000
0000
0010
0000
0000
0100
0000
0000
0010
0000
0000
0100
0000
0000
,
0010
0001
0010
0100
1000
0100
1000
0010
1000
0100
0001
0100
0010
0001
0010
0001
,
0010
1000
0100
0010
1000
0001
1000
0001
1000
0100
0010
0001
0100
0010
0100
0010
,
0100
0010
0001
0100
1000
0100
1000
0100
1000
0010
0001
0100
1000
0010
1000
0010
,
1000
0100
0001
0010
0101
0000
0000
0110
0000
0000
2200
0000
0000
0000
3301
0000
,
0100
0000
0100
1000
0102
0000
0010
0000
1003
0000
1000
0100
2000
0000
0010
0000
,
3001
0000
0000
0001
1000
0010
1000
0010
0100
0001
0010
0100
,
2000
0000
0000
0000
3000
0000
1000
0100
1000
0000
0000
0000
0000
0000
0100
0000
0000
0000
0000
0000
0010
0000
0000
0000
2002
0000
0000
0000
0000
0000
0000
0000
,
3003
0000
0000
0000
0020
0030
1000
0100
1000
0010
0200
0300
1000
0010
0100
1000
,
0010
0000
0101
0000
0200
0300
0010
0001
1000
0100
0020
0030
0001
1000
0010
0100
,
0010
0000
0110
0000
0200
0300
0100
0001
0100
1000
0020
0030
1000
0010
1000
0010
,
0100
0000
1010
0000
0001
0000
0010
0000
0100
0000
0010
0000
0100
0000
0001
1000
,
0010
0100
0010
1000
0020
0030
0010
1000
0010
1000
0200
0300
0100
0010
0100
0001
,
0010
0000
1010
0000
0200
0300
0010
0100
0001
0100
2000
3000
1000
0100
1000
0010
,
1000
0000
1100
0000
0200
0300
1000
0010
1000
0100
0020
0030
0010
0100
0010
1000
,
0010
0000
0101
0000
0020
0000
0030
0100
0000
0000
1000
0000
0100
0000
1000
0010
,
1000
0010
1000
0100
1000
0000
0010
0000
1000
0010
1000
0000
0100
0000
1000
0010
,
0000
0010
1000
0000
0010
0000
1000
0000
0010
0010
1000
0000
0010
0000
1000
0010
,
0000
0010
1000
0000
0101
0000
0001
0000
0100
0001
0100
0000
0100
0000
0001
0010
,
0000
0100
0001
0000
0100
0000
0001
0000
0100
0010
0001
0000
0100
0000
0001
0100
,
0000
0100
1000
0000
1100
0000
1000
0000
0100
1000
0100
0000
0100
0000
1000
0100
,
0000
0100
1000
0000
0100
0000
1000
0000
0100
1000
0100
0000
0100
0000
0100
0100
,
0000
1000
0100
0000
0010
0000
1000
0000
0010
0010
1000
0000
0010
0000
1000
0010
,
0000
0010
1000
0000
0010
0000
0100
0000
1000
0010
1000
0000
0010
0000
1000
0000
,
0010
0000
0010
0000
0202
0000
0303
2020
0000
3030
0220
0000
0000
0330
0010
0000
,
0002
0000
0000
0000
0000
0000
0000
0000
0000
0000
0000
0000
1003
0000
0000
0100
0000
0000
1000
0000
0000
0100
0000
0000
1000
0000
0000
0001
0000
0000
1000
0000
0000
0001
0000
0000
1000
0000
0001
0000
1000
0000
0001
0000
1000
0000
0001
0000
,
0100
0000
0010
0000
0100
0000
0010
0000
0100
0000
0010
0000
1000
0000
0000
0000
0000
0000
0100
0000
0000
0000
0000
0000
1000
0000
0000
0000
0000
0000
0100
0000
0000
0000
0000
0000
0010
0000
0000
0000
0000
0000
0001
0000
0000
0010
0000
0000
,
0100
1000
0010
0100
2000
0000
0000
0000
0000
0000
3100
0010
0110
0000
0000
0000
,
1001
0000
0000
0000
0001
0010
0001
0010
0001
0010
0100
1000
0100
0010
0001
0010
,
0001
0010
0001
0100
0010
1000
0010
0100
0010
1000
0010
0100
0010
0100
1000
0100
,
0010
0100
0010
0100
0001
0010
0001
0100
0001
0010
0001
0100
0001
0010
0100
1000
,
0100
0010
0001
0010
0100
1000
0100
1000
0100
0010
0100
0010
0100
1000
0100
0001
,
0100
0010
0100
1000
0100
0010
0001
1000
0001
0010
0001
1000
0001
0010
0001
1000
,
0001
0010
0001
0010
0100
1000
0100
0010
0100
0001
0100
0010
0100
1000
0100
0010
,
0100
0010
0100
0010
0001
0000
0000
0100
0000
0000
0001
0000
0100
0000
0000
0010
,
0000
0000
1010
0000
0110
0000
0000
0101
0000
0000
0110
0000
1001
0000
0000
0110
,
0000
0000
1001
0000
1000
0100
1000
0100
1000
0100
0010
0001
0010
0100
1000
0100
,
0001
0100
0001
0100
1000
0010
1000
0001
1000
0100
0010
0001
1000
0001
0100
0001
,
0010
0001
0100
0001
1000
0010
1000
0100
1000
0010
1000
0100
1000
0010
1000
0100
,
0010
0001
0010
0100
0010
0001
0100
0001
0010
0001
1000
0100
0010
0100
0001
1000
,
0010
0100
1000
0100
0010
0001
0010
0001
0010
0100
1000
0100
0010
0001
0010
0001
,
0010
0001
0010
0100
1000
0100
0010
0100
0010
0001
0010
0100
0010
0100
1000
0100
,
0010
0100
0001
0000
0100
0000
0000
0001
0000
0000
1000
0000
0001
0010
0100
1000
,
0001
0100
0010
0100
1001
0000
0000
0000
0000
0000
0000
0000
2200
0000
0000
3300
,
0202
0000
0000
0303
0010
0100
1000
0100
0010
0001
0010
0001
0100
1000
0100
0010
,
0100
0000
0110
0000
0001
0100
0010
1000
0010
1000
0100
0010
0100
0001
0100
0010
,
1000
0000
1100
0000
0100
0001
1000
0010
1000
0010
0100
1000
0010
0100
0010
0100
,
0010
0000
0022
0033
0220
0330
0000
2020
3030
0000
2200
0000
3300
0000
2200
3300
,
0220
0330
0202
0303
0011
0000
0000
0110
0000
0000
1100
0000
0000
0000
2200
3300
,
0220
0330
0202
0303
1001
0000
0000
0110
0000
0000
2020
3030
0000
0000
0110
0000
,
2020
3030
0202
0303
0220
0000
0000
0000
0000
0000
0000
0000
0000
0000
0000
0000
,
0000
0000
0331
1000
1001
0000
2002
0000
0000
0000
0000
0000
3003
0000
0000
0000
;
